#TITLE:Everlasting Last;
#SUBTITLE:;
#ARTIST:HHH×MM×ST;
#TITLETRANSLIT:;
#SUBTITLETRANSLIT:;
#ARTISTTRANSLIT:;
#GENRE:;
#CREDIT:;
#BANNER:Everlasting Last.png;
#BACKGROUND:Everlasting Last-bg.png;
#LYRICSPATH:;
#CDTITLE:;
#MUSIC:Everlasting Last.ogg;
#OFFSET:1.540000;
#SAMPLESTART:58.587017;
#SAMPLELENGTH:15.000000;
#LASTBEATHINT:1.128840;
#SELECTABLE:YES;
#DISPLAYBPM:140.000000;
#BPMS:0.000000=139.990005
;
#STOPS:
;
#BGCHANGES:;
#KEYSOUNDS:;
#ATTACKS:;

//---------------dance-single - ----------------
#NOTES:
     dance-single:
     :
     Beginner:
     3:
     0.160913,0.192954,0.000000,0.000000,0.000000,142.000000,142.000000,0.000000,0.000000,0.000000,0.000000,0.160913,0.192954,0.000000,0.000000,0.000000,142.000000,142.000000,0.000000,0.000000,0.000000,0.000000:
0000
0000
0000
0000
,
0000
0000
0000
0000
,
0000
0000
0000
0000
,
1000
0000
1000
0000
,
0001
0000
0001
0000
,
0100
0100
0100
0000
,
0010
0000
0010
0000
,
1000
0000
1000
0000
,
0001
0000
0001
0000
,
0100
0000
0100
0000
,
0010
0010
0010
0000
,
1000
0000
1000
0000
,
0001
0000
0001
0000
,
0100
0000
0100
0000
,
0010
0000
0010
0000
,
1000
1000
1000
0000
,
0001
0000
0001
0000
,
0100
0000
0100
0000
,
0010
0000
0010
0000
,
1000
0000
1000
0000
,
1000
0000
0001
0000
,
0001
0000
0100
0000
,
0100
0000
0010
0000
,
0010
0010
0010
0000
,
0100
0000
0100
0000
,
0001
0000
0001
0000
,
1000
1000
1000
0000
,
0100
0000
0100
0000
,
0010
0000
0010
0000
,
0001
0000
0001
0000
,
1000
0000
1000
0000
,
0001
0000
0001
0000
,
1000
0000
1000
0000
,
0010
0000
0010
0000
,
0100
0000
0100
0000
,
0010
0010
0010
0000
,
1000
0000
1000
0000
,
0001
0000
0001
0000
,
0100
0000
0100
0000
,
0010
0000
0010
0000
,
1000
0000
1000
0000
,
0001
0000
0001
0000
,
0100
0000
0100
0000
,
0010
0000
0010
0000
,
1000
0000
0001
0000
,
1000
0000
0001
0000
,
1000
0000
0010
0000
,
0100
0000
0010
0000
,
0100
0000
0010
0000
,
1000
0000
0001
0000
,
1000
0000
0001
0000
,
1000
0000
0000
0000
,
0010
0000
0010
0000
,
0100
0100
0100
0000
,
0001
0001
0001
0000
,
1000
0000
0001
0000
,
1000
0000
0001
0000
,
0100
0000
0010
0000
,
0100
0000
0010
0000
,
1000
0000
0100
0000
,
1000
0000
0000
0000
,
1000
1000
1000
0000
,
0001
0000
0001
0000
,
0001
0000
1000
0000
,
1000
0000
0010
0000
,
0010
0010
0010
0000
,
0100
0000
0100
0000
,
0001
0000
0001
0000
,
1000
0000
1000
0000
,
0010
0000
0100
0000
;

//---------------dance-single - ----------------
#NOTES:
     dance-single:
     :
     Easy:
     5:
     0.226639,0.248084,0.031729,0.388685,0.000000,200.000000,196.000000,4.000000,49.000000,0.000000,0.000000,0.226639,0.248084,0.031729,0.388685,0.000000,200.000000,196.000000,4.000000,49.000000,0.000000,0.000000:
0000
0000
0000
0000
,
0000
0000
0000
0000
,
0000
0000
0000
0000
,
0001
1000
0001
0000
,
1000
0010
1000
0000
,
0010
0100
0010
0000
,
1000
0100
0001
0000
,
0100
1000
0010
0000
,
0001
0010
1000
0000
,
0100
0001
0100
0000
,
1000
0010
0001
0000
,
0010
0000
1000
0001
,
1000
0001
0100
0000
,
0010
0100
0001
0000
,
0010
1000
0010
0000
,
0001
0100
1000
0000
,
0100
0001
0010
0000
,
1000
0010
0001
0000
,
0100
0000
1000
0100
,
0001
0010
0001
0100
,
0010
0100
0002
0003
,
1000
0100
2000
3000
,
0010
0100
0020
0030
,
0100
0100
0100
0000
,
0010
1000
0020
0030
,
0100
0001
0200
0300
,
0001
0010
0002
0003
,
1000
0100
2000
3000
,
0200
0300
0020
0030
,
0001
1000
0002
0003
,
0200
0300
0010
0000
,
1000
0010
2000
3000
,
0002
0003
0200
0300
,
0010
1000
0020
0030
,
0100
0001
0200
0300
,
0001
0010
0002
0003
,
1000
0100
2000
3000
,
0010
0001
0020
0030
,
1000
0100
0002
0003
,
0100
1000
0020
0030
,
0001
0010
2000
3000
,
0001
0010
2000
3000
,
0010
0001
0200
0300
,
1000
0100
0002
0003
,
1000
0010
2000
3000
,
0001
0100
0020
0030
,
0200
0300
0002
0003
,
1000
0100
2000
3000
,
0020
0030
0200
0300
,
0001
0010
0002
0003
,
1000
0100
0020
0030
,
0001
0010
0001
0000
,
0100
0010
2000
3000
,
0002
0003
0200
0300
,
0010
1000
0020
0030
,
0100
0001
0200
0300
,
0010
1000
1001
0000
,
0001
0100
0020
0030
,
0100
0001
2000
3000
,
0001
0010
0200
0300
,
1000
0001
1001
0000
,
1000
0001
1001
0000
,
0001
0010
0200
0300
,
1000
0100
0020
0030
,
0001
0010
2000
3000
,
0010
0001
0200
0300
,
1000
0100
0002
0003
,
0010
1000
0020
0030
,
0001
1000
0002
0003
,
1000
0100
1001
0000
;

//---------------dance-single - ----------------
#NOTES:
     dance-single:
     :
     Medium:
     8:
     0.302563,0.358344,0.126918,0.356956,0.000000,267.000000,251.000000,16.000000,45.000000,0.000000,0.000000,0.302563,0.358344,0.126918,0.356956,0.000000,267.000000,251.000000,16.000000,45.000000,0.000000,0.000000:
0000
0000
0000
0000
,
0000
0000
0000
0000
,
0000
0000
0000
0000
,
0001
1000
1010
0000
,
0010
0100
0002
0003
,
0100
0010
2000
3000
,
0001
0010
0002
0003
,
0100
0010
0220
0330
,
0100
0001
0020
0030
,
0001
0100
2000
3000
,
0100
0000
0001
0010
2000
0000
3010
0000
,
0001
0010
1000
0010
,
0001
0000
0100
0000
1000
0000
0100
0001
,
0010
0001
0010
0001
,
1000
0000
0100
0000
1000
0000
0001
1000
,
0001
0000
1001
0000
1000
0000
0010
0100
,
0010
0100
0001
0010
,
0011
0011
0001
0100
,
0010
0100
0001
1000
,
0010
0000
1000
0000
0001
0000
0100
0010
,
0100
0000
0001
0010
0001
0000
1000
0000
,
0100
1000
0100
0000
1000
0000
0010
0000
,
0100
0010
0100
0000
0001
0000
1000
0000
,
1100
0110
0010
0001
,
0100
0000
0010
0100
0010
0000
1000
0000
,
0100
1000
0100
0000
0010
0000
0001
0000
,
0010
0100
1000
0010
,
0001
0000
0010
0000
1000
0000
0001
1000
,
0001
1000
0100
0000
,
1000
0100
1000
0100
1000
0000
0010
0000
,
0100
0010
1000
0000
,
0001
0100
0010
0100
,
0001
0010
0002
0003
,
1000
0100
2000
3000
,
0010
0100
0020
0030
,
0100
0001
2002
3003
,
0100
1000
0200
0300
,
0010
0001
0020
0030
,
0001
1000
0001
0000
2000
0000
3000
0000
,
0010
0100
0220
0330
,
0100
1000
0100
0000
0020
0000
0030
0000
,
0001
0100
0001
0000
2000
0000
3000
0000
,
0010
0100
0010
2000
0000
0000
3000
0000
,
0100
0010
0002
0003
,
0100
0010
0200
0300
,
0010
1000
0010
1000
0010
0000
1000
0000
,
0100
0010
0002
0003
,
0100
0010
0100
0000
0010
0000
1000
0000
,
0100
1000
0001
0000
,
0100
0010
0200
0300
,
0001
1000
0002
0003
,
0100
0010
2000
3000
,
0001
0100
0020
0030
,
0100
0001
2002
3003
,
0010
1000
2200
3300
,
0001
0100
0220
0330
,
0010
1000
2002
3003
,
0100
1000
0100
0000
0020
0000
0030
0000
,
0001
0010
0001
0000
0200
0000
0300
0000
,
0010
1000
0010
0000
0200
0000
0300
0000
,
0001
1000
0001
0000
,
1000
0001
1001
0000
,
1000
0100
0010
0000
,
0001
0010
0100
0000
1000
0000
0000
0000
,
0010
0100
0010
0000
2000
0000
3000
0000
,
0001
0100
0202
0303
,
0010
0100
0010
0000
2000
0000
3000
0000
,
0100
0001
0100
0000
2000
0000
3000
0000
,
0010
0001
0010
0000
2000
0000
3000
0000
,
0001
0100
1001
0000
;

//---------------dance-single - ----------------
#NOTES:
     dance-single:
     :
     Hard:
     11:
     0.475941,0.501523,0.166579,0.174512,0.162613,420.000000,399.000000,21.000000,22.000000,0.000000,0.000000,0.475941,0.501523,0.166579,0.174512,0.162613,420.000000,399.000000,21.000000,22.000000,0.000000,0.000000:
// measure 0
0000
0000
0000
0000
,  // measure 1
0000
0000
0000
0000
,  // measure 2
0000
0000
0000
0000
,  // measure 3
0001
0000
1001
0000
1000
0010
0000
0010
,  // measure 4
0100
0001
0000
0001
0100
1000
0000
1000
,  // measure 5
0100
0001
1000
0010
1000
0001
0000
1000
,  // measure 6
0100
1000
0001
1000
0020
0000
0030
0000
,  // measure 7
0101
0000
1001
0000
1000
0001
0000
0001
,  // measure 8
0100
0010
0100
0001
2000
0000
3000
0001
,  // measure 9
0100
0001
1000
0001
0020
0000
0030
0001
,  // measure 10
1000
0100
1000
0001
0020
0000
0000
0000
,  // measure 11
0000
0000
0000
0000
0031
0000
0100
0000
0001
0010
0000
0001
0000
0000
0100
0000
,  // measure 12
0000
0010
0000
0000
1000
0000
0100
0000
0010
0000
0000
0010
0001
0000
0000
0001
,  // measure 13
0100
0000
0000
0100
0010
0000
0000
0000
1000
0000
0000
0001
0000
0000
0010
0000
,  // measure 14
0000
0001
0000
0000
0100
0000
0010
0000
1000
0010
0000
1000
0000
0000
0001
0000
,  // measure 15
1000
0000
0000
0000
1001
0000
0000
0000
1000
0100
0000
1000
0000
0000
0001
0000
,  // measure 16
0000
0100
0000
0000
0001
0000
0010
0000
0001
1000
0000
0010
1000
0000
0010
0000
,  // measure 17
0100
0000
0000
0000
0101
0000
0000
0000
0001
0100
0000
0001
0100
0000
0010
0000
,  // measure 18
1000
0000
0010
0000
0001
0000
0010
0000
1000
0000
0000
0001
0000
0000
0100
0000
,  // measure 19
0010
0000
0110
0000
0010
1000
0100
0010
,  // measure 20
0001
0000
0000
0100
0000
0000
1000
0000
0100
0000
0000
0000
0001
0000
0010
0000
,  // measure 21
1000
0010
0001
0100
0010
1000
0000
0010
,  // measure 22
0100
0001
0100
0010
1000
0000
1000
0000
,  // measure 23
1001
0000
0011
0000
0010
0100
1000
0100
,  // measure 24
0020
0000
0000
0001
0030
0000
0100
0000
1000
0000
0200
0000
0000
0000
0301
0000
,  // measure 25
0010
1000
0010
0001
2000
0000
3010
1000
,  // measure 26
0100
1000
0010
0100
0020
0000
1030
0000
,  // measure 27
1001
0000
0000
0000
0011
0000
0000
0000
0010
0000
0000
0100
0000
0000
1000
0000
,  // measure 28
0001
0000
0000
0100
0000
0000
0010
0000
2000
0000
0000
0000
3001
0000
0000
0000
,  // measure 29
1000
0000
0010
0000
1000
0000
0100
0000
0010
0000
0000
0001
0000
0000
1000
0000
,  // measure 30
0010
0100
0010
1000
0001
0000
1000
0001
,  // measure 31
0100
0000
0001
0000
0010
0000
0001
0000
1000
0000
0000
1000
0000
0000
0010
0000
,  // measure 32
0100
0000
0000
0100
0000
0000
0001
0000
0010
0000
0100
0000
1000
0000
0000
0000
,  // measure 33
0001
0010
1000
0010
0001
0100
0001
1000
,  // measure 34
0010
1000
0100
0010
0002
0000
0000
0000
,  // measure 35
1003
0000
1100
0000
0100
0001
0000
0001
,  // measure 36
0100
0010
0000
0010
0100
1000
0000
0100
,  // measure 37
0010
0001
1000
0001
0100
0100
0000
0010
,  // measure 38
1000
0100
1000
0001
1000
0000
0010
0000
,  // measure 39
1001
0000
0011
0000
0001
1000
0000
1000
,  // measure 40
0001
0100
0010
1000
0010
0100
0000
0100
,  // measure 41
0001
0010
0100
1000
0001
1000
0000
0001
,  // measure 42
0010
0100
1000
0001
2000
0000
0000
0000
,  // measure 43
0000
0000
0000
0000
3000
0000
0000
0000
0010
0000
0000
0100
0000
0000
0010
0000
,  // measure 44
1000
0000
0000
0001
0000
0000
1000
0000
0020
0000
0000
0000
0030
0000
1000
0000
,  // measure 45
0001
0000
0010
0000
0001
0000
0100
0000
0010
0000
0000
1000
0000
0000
0001
0000
,  // measure 46
0100
0010
0100
0001
2000
0000
3000
0010
,  // measure 47
0100
0000
0001
0000
0010
0000
0001
0000
1000
0000
0000
0001
0000
0000
1000
0000
,  // measure 48
0010
0000
0000
0010
0000
0000
0100
0000
0001
0000
0010
0000
0001
0000
0000
0000
,  // measure 49
1000
0010
0100
0010
2000
0000
3001
0000
,  // measure 50
0100
0001
0100
0001
1000
0100
1000
0100
,  // measure 51
0010
0100
1000
0010
0200
0000
0300
0000
,  // measure 52
0001
1000
1002
0000
,  // measure 53
0100
0100
0023
0000
,  // measure 54
1000
1000
0032
0000
,  // measure 55
0000
0000
0103
0010
,  // measure 56
0110
0000
1001
0000
0001
0100
0000
0010
,  // measure 57
0100
0000
0001
0010
0000
0000
0100
0000
0010
0000
0001
0100
0000
0000
0010
0000
,  // measure 58
0100
0001
0010
0100
2000
0000
3000
0100
,  // measure 59
0010
0001
1000
0010
0100
0000
1010
0000
,  // measure 60
1001
0101
0200
0000
,  // measure 61
0310
0000
1010
0000
1001
0000
0000
0001
,  // measure 62
0100
0000
0010
0100
0000
0000
0001
0000
0010
0000
0100
1000
0000
0000
0100
0000
,  // measure 63
0001
0000
0100
1000
0000
0000
0001
0000
1000
0000
0100
0010
0000
0000
0001
0000
,  // measure 64
0100
0010
0000
0100
0001
0010
0100
1000
,  // measure 65
0001
0100
1000
0100
0001
1000
0000
0010
,  // measure 66
1000
0000
0001
1000
0000
0000
0001
0000
0100
0000
0001
0100
0000
0000
0001
0000
,  // measure 67
1000
0000
0010
1000
0000
0000
0001
0000
0010
0000
0100
1000
0000
0000
0001
0000
,  // measure 68
0100
0000
0010
0100
0000
0000
0001
0000
1000
0000
0010
0000
1000
0000
0010
0000
,  // measure 69
2000
0000
0002
0000
,  // measure 70
0000
3003
0000
0000
;

//---------------dance-double - ----------------
#NOTES:
     dance-double:
     :
     Easy:
     8:
     0.250436,0.296472,0.095188,0.118985,0.000000,221.000000,209.000000,12.000000,15.000000,0.000000,0.000000,0.250436,0.296472,0.095188,0.118985,0.000000,221.000000,209.000000,12.000000,15.000000,0.000000,0.000000:
00000000
00000000
00000000
00000000
,
00000000
00000000
00000000
00000000
,
00000000
00000000
00000000
00000000
,
00000000
00000000
00000000
00000000
,
00000000
00000000
00000000
00000000
,
00000000
00010000
00000000
00010000
,
00000000
00001000
00000000
00001000
,
00000000
00000010
00000000
00000001
,
00000000
00000100
00000000
00001000
,
00020000
00130000
00000000
10000000
,
02000000
03100000
00000000
00010000
,
01000000
00100000
00010000
00001000
,
00000010
00000001
00000100
00000000
,
00000020
00000030
00000100
00001000
,
00020000
00000000
00000000
00030000
,
01000000
10000000
01000000
10000000
,
00100000
00010000
00001000
00000010
,
00000001
00001000
00000001
00001000
,
00000001
00000000
00001000
00000000
,
00200000
00000000
00000000
00300000
,
10000000
01000000
00010000
00001000
,
00000100
00000001
00000110
00000000
,
00000001
00000100
00001000
00000100
,
00001000
00010000
01100000
00000000
,
00010000
00100000
01000000
00010000
,
00001000
00000100
00001001
00000000
,
00001000
00000010
00000100
00001000
,
00010000
01000000
10010000
00000000
,
10000000
10000000
01000000
01000000
,
00100000
00100000
00001000
00001000
,
00010000
00001000
00000100
00000010
,
00001000
00000100
00001000
00000100
,
00000001
00000001
00000100
00000100
,
00000010
00000010
00010000
00010000
,
00001000
00010000
01000000
00100000
,
00010000
00001000
00010000
00002000
,
00010000
00000000
00000000
00013000
,
00100000
10000000
01000000
10010000
,
01000000
00100000
00001000
00010000
,
00000010
00000010
00001000
00000001
,
00000010
00000001
00001001
00000000
,
00000010
00000001
00000100
00001001
,
00000100
00000010
00010000
00001000
,
00100000
00100000
10000000
00010000
,
00100000
00010000
10000000
00000000
,
02000000
00000000
10000000
13000000
,
00020000
00000000
00030000
01100000
,
00000000
00000000
00000000
10000000
,
00000000
00000000
00000000
01000000
,
00000000
00010000
00000000
00010000
,
00000000
00001000
00000000
00001000
,
00000000
00000100
00000000
00000001
,
00000010
00001000
00010000
00000000
,
00000000
00100000
00000000
10000000
,
00000000
00010000
00000000
01000000
,
00000000
00100000
00000000
00010000
,
00000000
00001000
00000000
00000010
,
00000002
00000100
00000000
00000103
,
00000020
00001000
00000000
00001030
,
00000110
00000000
00011000
00000000
,
00010000
00001000
00010000
00000000
,
00100000
10000000
01000000
10010000
,
01000000
00100000
00001000
00010000
,
00000010
00000010
00000001
00000001
,
00000010
00001000
00000100
00000000
,
00000010
00000001
00000100
00001001
,
00000100
00000010
00010000
00001000
,
00100000
00100000
10000000
10000000
,
00100000
00010000
10000000
00010000
,
02000000
00000000
00100000
03100000
,
00020000
00000000
00031000
00000100
,
00000020
00000000
00000031
00000100
,
00000020
00000000
00000000
00000000
,
00002000
00000000
00000000
00000000
,
00000000
00000000
00000000
00003030
;

//---------------dance-double - ----------------
#NOTES:
     dance-double:
     :
     Medium:
     10:
     0.347890,0.474355,0.142782,0.301429,0.015865,307.000000,289.000000,18.000000,38.000000,0.000000,0.000000,0.347890,0.474355,0.142782,0.301429,0.015865,307.000000,289.000000,18.000000,38.000000,0.000000,0.000000:
00000000
00000000
00000000
00000000
,
00000000
00000000
00000000
00000000
,
00000000
00000000
00000000
00000000
,
00000000
00000000
00000000
00000000
,
00000000
00000000
00000000
00000000
,
00000020
00000001
00000000
00000031
,
00000200
00001000
00000000
00001300
,
00020000
01000000
00000000
01030000
,
20000000
00100000
00000000
30100000
,
00020000
00031000
00000020
00000130
,
00002000
00003100
00000020
00001030
,
00020000
00130000
20000000
31000000
,
00200000
00310000
02000000
03100000
,
00020000
00000000
00030000
00000000
00001000
00000010
00000001
00000100
,
00000020
00000000
00000000
00000030
,
00001000
00000010
00000100
00000000
00001000
00000000
00010000
00000000
,
00001000
00000000
00010000
00000000
01000000
00000000
00010000
00001000
,
00010000
00000000
00000000
00001000
00000000
00000000
00010000
00000000
00000000
00000000
00001000
00000000
00000100
00000000
00000000
00000000
,
00000001
00000000
00000000
00001000
00000000
00000000
00000011
00000000
,
00000020
00000000
00000000
00000030
,
00000001
00000010
00000001
00000010
,
00001100
00011000
00110000
00000000
,
10000000
01000000
10000000
01000000
,
00100000
00000000
00001000
00000000
00010000
00001000
00010000
00001000
,
00000010
00000001
00000100
00000010
,
00001010
00011000
01010000
00000000
,
01000000
00001000
00010000
00001000
,
00011000
00001100
00000110
00000000
,
00000002
00000010
00001000
00000023
,
00000230
00001000
00000010
00002300
,
00003020
00000130
00002000
00013000
,
02000000
10000000
00100000
13000000
,
00010000
00000000
00100000
00000000
01000000
00010000
00001000
00000000
,
00000100
00000000
00000001
00000000
00000010
00000001
00000100
00000000
,
00001000
00010000
00001000
00000000
00010000
00100000
01000000
00000000
,
00020000
00230000
02300000
00000000
,
13000000
00000000
00000000
00100000
00000000
00000000
00010000
00000000
00002000
00000000
00000000
00000000
00003000
00000000
00000000
00000000
,
00000010
00000001
00000100
00000000
00000010
00000000
00000100
00000000
,
00000010
00001000
00000100
00000000
00000010
00000000
00000101
00000000
,
00000100
00001000
00010000
00000000
01000000
10000000
00010000
00000000
,
00100000
00001000
00010000
00001000
00010000
00000000
00001000
00000100
,
00000010
00001000
00000100
00000000
00000010
00000000
00000001
00000000
,
00000010
00000001
00000100
00000000
00000010
00000000
00001001
00000000
,
00000100
00001000
00010000
00100000
01000000
00010000
00100000
10000000
,
00100000
01000000
10000000
00000000
01000000
00010000
00001000
00000000
,
00000020
00000000
00000000
00000000
00000031
00000100
00001000
00010000
,
00002000
00000000
00000000
00000000
00000000
00000000
00000000
00000000
00000000
00003000
00000000
00000000
00011000
00000000
00000000
00000000
,
00020000
00001000
00000000
00031000
,
00002000
00010000
00000000
00013000
,
00200000
10000000
00000000
10300000
,
02000000
00100000
00000000
03100000
,
00010000
00000000
00000000
01000000
00000000
00000000
00100000
00000000
00000000
00000000
00000000
00000000
00010000
00000000
00000000
00000000
,
00001000
00000000
00000000
00000010
00000000
00000000
00000001
00000000
00000100
00000000
00000000
00000000
00000000
00000000
00000000
00000000
,
00000010
00000001
00000100
00000000
00000010
00000000
00000000
00000000
,
00000010
00001000
00000100
00000000
00000010
00000000
00000000
00000000
,
00000001
00000100
00001000
00010000
,
00100000
01000000
00010000
01000000
00001000
00000000
00010000
00001000
,
00010000
00001000
00000100
00000000
00000000
00000000
00000001
00000000
,
00000010
00000001
00000100
00000000
00000000
00000000
00000010
00000000
,
00000100
00001000
00010000
00100000
01000000
00010000
00100000
10000000
,
00100000
01000000
10000000
00000000
01000000
00010000
00001000
00000000
,
00000020
00000000
00000000
00000000
00000031
00000100
00001000
00010000
,
00000010
00001000
00000100
00000000
00000010
00000000
00001001
00000000
,
00000100
00001000
00010000
00000000
01000000
10000000
00010000
00000000
,
00100000
01000000
00010000
00000000
00001000
00000000
00011000
00000000
,
00000010
00000001
00000100
00000000
00000010
00000000
00001001
00000000
,
00000010
00001000
00000100
00000000
00000010
00000000
00001001
00000000
,
00000100
00001000
00010000
00000000
01000000
10000000
00010000
00000000
,
00100000
01000000
00010000
00000000
00001000
00000000
00011000
00000000
,
00020000
00030000
00001000
00000010
,
00000002
00000000
00000000
00000003
,
00000200
00000300
00001000
00010000
,
02000000
00000000
00000000
00000000
,
20000000
00000000
00000000
00000000
,
00000000
00000000
00000000
33000000
;

//---------------dance-double - ----------------
#NOTES:
     dance-double:
     :
     Hard:
     13:
     0.477074,0.533649,0.166579,0.341091,0.039662,421.000000,400.000000,21.000000,43.000000,0.000000,0.000000,0.477074,0.533649,0.166579,0.341091,0.039662,421.000000,400.000000,21.000000,43.000000,0.000000,0.000000:
00000000
00000000
00000000
00000000
,
00000000
00000000
00000000
00000000
,
00000000
00000000
00000000
00000000
,
00000000
00000000
00000000
00000000
,
00000000
00000000
00000000
00000000
,
00100000
10000000
01000000
00000000
00100000
00000000
01000000
00000000
,
00010000
00001000
00000100
00000000
00000010
00000000
00000100
00000000
,
00000010
00001000
00000001
00000000
00000010
00000001
00000010
00000000
,
00000100
00010000
00000100
00010000
00001000
00000000
00001000
00000000
,
00000010
00000001
00000100
00000000
00000010
00000000
00000100
00000000
,
00001000
00010000
01000000
00000000
00100000
00000000
01000000
00000000
,
00100000
00010000
10000000
00000000
00100000
10000000
00100000
00000000
,
01000000
00001000
01000000
00001000
00010000
00000000
01000000
00000000
,
00200000
00000000
01300000
00000000
10000000
00100000
01000000
00001000
,
00020000
00000000
00000000
00031000
,
00000010
00000001
00000100
00000010
00001000
00000000
00001000
00000000
,
00000010
00001000
00000001
00000100
00001000
00000000
00010000
00000000
,
00100000
00000000
00000000
11000000
00000000
00000000
00110000
00000000
00000000
10000000
00000000
00000000
01000000
00000000
00000000
00000000
,
00100000
00010000
10000000
01000000
00010000
00000000
00001000
00000000
,
00000020
00000001
00000001
00000031
,
00000100
00000010
00001000
00000001
00000100
00001000
00010000
00000000
,
00110000
10100000
12000000
03100000
,
00010000
00100000
01000000
10000000
00100000
00010000
00001000
00000000
,
00001100
00000101
00000021
00000130
,
00001000
00000010
00000100
00000001
00000010
00001000
00010000
00000000
,
00110000
11000000
10200000
01300000
,
00010000
01000000
00100000
10000000
01000000
00010000
00001000
00000000
,
00001010
00000011
00000201
00000310
,
00001000
00000100
00000010
00000000
00000001
00000100
00001000
00000000
,
00010000
00100000
10000000
00000000
11000000
00000000
01010000
00000000
,
10000000
01000000
00010000
00000000
00001000
00000100
00000001
00000000
,
00000001
00000100
00000001
00001000
00000100
00001000
00000001
00000000
,
00001000
00000100
00000010
00000000
00000001
00000100
00001000
00000000
,
00010000
00100000
10000000
00000000
00100000
01000000
00010000
00000000
,
00100000
01000000
10000000
01000000
00010000
00001000
00000100
00000010
,
00000001
00000010
00001000
00000000
00000001
00000000
00000001
00000000
,
00000010
00000000
00000000
00000001
00000100
00000000
00001000
00000000
00020000
00000000
00000000
00000000
00130000
00000000
10000000
00000000
,
01000000
10000000
01000000
00100000
00020000
00000000
01030000
00100000
,
10000000
01000000
00010000
00001000
00000200
00000000
00000301
00000010
,
00000100
00000000
00001000
00000000
00000001
00000000
00001000
00000100
00000010
00000000
00000001
00000000
00000100
00000000
00001000
00000000
,
00010000
00001000
00010000
00100000
20000000
00000000
30010000
10000000
,
01000000
10000000
01000000
00100000
00020000
00000000
01030000
00100000
,
10000000
01000000
00010000
00001000
00000200
00000000
00000301
00000010
,
00000100
00000000
00001000
00000000
00000001
00000000
00001000
00000100
00000010
00000000
00000001
00000000
00000100
00000000
00001000
00000000
,
00010000
00001000
00010000
00100000
10000000
00010000
10000000
01000000
,
00020000
00000000
00032000
00000000
00003010
00000001
00000100
00000010
,
00002000
00000000
00003001
00000110
,
00000002
00000103
00002000
00013000
,
00020000
00130000
20000000
31000000
,
02000000
03200000
00320000
10030000
,
20000000
30020000
02030000
03100000
,
00200000
00000000
00000000
00310000
00000000
00000000
00001000
00000000
00000020
00000000
00000000
00000000
00000031
00000000
00000000
00000000
,
00000200
00000000
00000000
00001300
00000000
00000000
00020000
00000000
00002000
00000000
00000000
00000000
00033000
00000000
00000000
00000000
,
00100000
10000000
01000000
00000000
00100000
00000000
01000000
00000000
,
00010000
00001000
00000100
00000000
00000010
00000000
00000100
00000000
,
00000010
00001000
00000001
00000000
00000010
00000000
00000011
00000000
,
00000100
00001000
00000100
00010000
00001000
00010000
00100000
00000000
,
01000000
00000000
10010000
00000000
01000000
00100000
00010000
00000000
,
01000000
00000000
01010000
00000000
00001000
00010000
00001000
00000000
,
00000010
00000000
00000000
00000000
00000001
00000000
00000100
00000010
00000000
00000000
00000100
00000000
00000001
00000000
00000100
00000000
,
00000010
00001000
00000100
00010000
00000000
00000000
00001000
00010000
,
01000000
10000000
01000000
00100000
00020000
00000000
01030000
00100000
,
10000000
01000000
00010000
00001000
00000200
00000000
00000301
00000010
,
00000100
00000000
00001000
00000000
00000001
00000000
00001000
00000100
00000010
00000000
00000001
00000000
00000100
00000000
00001000
00000000
,
00010000
00001000
00010000
00100000
20000000
00000000
30010000
10000000
,
01000000
10000000
01000000
00100000
00020000
00000000
01030000
00100000
,
10000000
01000000
00010000
00001000
00000200
00000000
00000301
00000010
,
00000100
00000000
00001000
00000000
00000001
00000000
00001000
00000100
00000010
00000000
00000001
00000000
00000100
00000000
00001000
00000000
,
00010000
00001000
00010000
00100000
10000000
00010000
10000000
01000000
,
00020000
00000000
00032000
00000000
00003010
00000001
00000100
00000010
,
00020000
00000000
00031000
00011000
,
00020000
00000000
00032000
00000000
00003100
00000001
00000100
00000010
,
00002000
00000100
00000001
00000010
,
00020000
00000000
00000000
00000000
,
00000000
00000000
00000000
00033000
;

//---------------dance-single - ----------------
#NOTES:
     dance-single:
     :
     Challenge:
     14:
     0.688981,0.724422,0.253835,0.198309,0.551298,608.000000,576.000000,32.000000,25.000000,0.000000,0.000000,0.688981,0.724422,0.253835,0.198309,0.551298,608.000000,576.000000,32.000000,25.000000,0.000000,0.000000:
// measure 0
0000
0000
0000
0000
,  // measure 1
0000
0000
0000
0000
,  // measure 2
0000
0000
0000
0000
,  // measure 3
0101
0000
0000
0000
1001
0000
0000
0000
1000
0000
0010
0100
0010
0000
0100
0000
,  // measure 4
0001
0000
0010
0001
0010
0000
0100
0000
0010
0000
0100
1000
0100
0000
0010
0000
,  // measure 5
0001
0000
1000
0001
1000
0000
0100
0000
1000
0000
0100
0010
0100
0000
1000
0000
,  // measure 6
0001
0000
0100
0001
0100
0000
0010
0000
2002
0000
0000
0000
3003
0000
0000
0000
,  // measure 7
1000
0000
0010
0000
0100
0001
0100
0001
0100
0000
0001
0000
0000
0000
0001
0000
,  // measure 8
1000
0000
0010
0100
0010
0000
0100
0000
0001
0000
1000
0001
0010
0000
0001
0000
,  // measure 9
1000
0000
0100
1000
0100
0000
0010
0000
0001
0000
0010
0001
1000
0000
0100
0000
,  // measure 10
1000
0000
0001
0100
0001
0000
0100
0000
0020
0000
0000
0000
0000
0000
0000
0000
,  // measure 11
0130
0000
0001
1000
0001
0000
1000
0000
0010
0100
0000
0001
0100
0000
0010
1000
,  // measure 12
0000
0100
1000
0000
0100
0000
0001
0000
0100
1000
0000
0010
1000
0000
0001
1000
,  // measure 13
0010
0000
0010
0000
0100
0000
0100
0000
0001
0010
0000
0001
1000
0000
0010
1000
,  // measure 14
0000
0100
1000
0000
0010
0000
0100
0000
0001
0100
0001
0100
0010
0000
1000
0000
,  // measure 15
1001
0000
0000
0000
0110
0000
0000
0000
0010
1000
0000
0001
1000
0000
0010
1000
,  // measure 16
0000
0100
1000
0000
0010
0000
0001
0000
0010
0100
0010
0100
0001
0000
0010
0000
,  // measure 17
0110
0000
0100
0000
1100
0000
1000
0000
0001
0100
0000
0100
0001
0000
1000
0010
,  // measure 18
0000
0010
1000
0010
0000
0010
0100
0010
1000
0000
0000
1001
0000
0000
0010
0000
,  // measure 19
0100
0010
0100
0010
0100
0010
0100
0010
1000
0000
0100
0000
0010
0000
0100
0000
,  // measure 20
0001
0000
0000
0100
0000
0000
0010
0000
0200
0000
0000
0000
1300
0000
0010
0000
,  // measure 21
0001
0000
0010
0000
1000
0000
0100
0001
0100
0000
1000
0000
0000
0000
0010
0000
,  // measure 22
0100
0000
0001
0000
0010
0000
0001
1000
0001
0000
1000
0000
0010
0000
0000
0000
,  // measure 23
1010
0000
0101
0000
0001
0010
0001
0100
,  // measure 24
0020
0000
0000
1000
0030
0000
0100
0000
1000
0001
1000
0001
1000
0000
0010
0000
,  // measure 25
0100
0000
0001
0010
0001
0000
1000
0100
1000
0000
0000
0000
0010
0000
0100
0000
,  // measure 26
0001
0000
0010
0000
0100
0000
1000
0000
0001
1000
0001
1000
0001
1000
0001
1000
,  // measure 27
0001
0100
0001
0100
0001
0100
0001
0100
0010
0000
0000
1000
0000
0000
0100
0000
,  // measure 28
0001
0000
0000
0101
0000
0000
0100
0000
2000
0000
0010
0000
3010
0000
1000
0000
,  // measure 29
0001
0010
0001
0000
0100
0000
0010
0000
1000
0000
0000
1001
0000
0000
0001
0000
,  // measure 30
0010
0000
0100
0000
0010
0000
0001
0010
0002
0000
0000
0000
1003
0000
0010
0000
,  // measure 31
0100
0000
0001
0000
0100
0000
0010
0000
1000
0000
0000
1001
0000
0000
0001
0000
,  // measure 32
0101
0000
0000
0100
0000
0000
0010
0000
1000
0100
1000
0100
1000
0000
0000
0000
,  // measure 33
0001
0000
0100
0000
1000
0000
0100
0000
0001
0010
0001
0010
0001
0010
0001
0000
,  // measure 34
1000
0010
1000
0010
1000
0100
1000
0100
0020
0000
0000
0000
0000
0000
0000
0000
,  // measure 35
1030
0000
0011
0000
0010
0001
0000
1000
,  // measure 36
0001
0000
0010
0100
0010
0000
0001
0000
1000
0000
0100
0001
0100
0000
1000
0000
,  // measure 37
0010
0000
0100
0001
0100
0000
0010
0000
1000
0000
0001
0100
0010
0000
0100
0000
,  // measure 38
1000
0000
0100
0010
1000
0000
0001
0000
0201
0000
0000
0000
0310
0000
0000
0000
,  // measure 39
1100
0000
0000
0000
0011
0000
0000
0000
0100
0000
1000
0100
0010
0000
0001
0000
,  // measure 40
0010
0000
0100
0010
0100
0000
1000
0000
0100
0000
0010
0001
1000
0000
0010
0000
,  // measure 41
1000
0000
0001
0010
0001
0000
0010
0000
0002
0000
0100
0000
0003
0000
0100
0000
,  // measure 42
0010
0000
1000
0010
0100
0000
0001
0000
0010
0000
0001
0000
0100
0000
0010
0000
,  // measure 43
1000
0100
1000
0100
0010
0001
0010
0001
0100
0000
0000
0110
0000
0000
0010
0000
,  // measure 44
1000
0000
0000
1001
0000
0000
0001
0000
0100
0010
0100
0000
0001
0000
1000
0000
,  // measure 45
0001
1000
0001
0000
1000
0010
1000
0000
0100
0000
0000
1100
0000
0000
1000
0000
,  // measure 46
0100
0000
0010
0000
1000
0000
0010
0001
0010
0000
0000
0000
0001
0000
1000
0000
,  // measure 47
0100
0000
1000
0000
0001
0000
0100
0000
0001
0000
0000
1001
0000
0000
1000
0000
,  // measure 48
0010
0000
0000
0110
0000
0000
0100
0000
0001
0010
0001
0000
1000
0000
0000
0000
,  // measure 49
0100
0010
0001
0010
0200
1000
1300
0001
,  // measure 50
0100
0001
0100
0000
0010
0000
1000
0000
0001
0100
0001
0100
0010
1000
0010
1000
,  // measure 51
0001
1000
0001
1000
0100
1000
0100
0010
0002
0000
0000
0000
0003
0000
0000
0000
,  // measure 52
2001
0000
3020
0000
0230
0000
0000
0001
,  // measure 53
0302
0000
0203
0000
2300
0000
0000
0100
,  // measure 54
3200
0000
0302
1000
2003
0000
3100
0001
,  // measure 55
0100
0000
1000
0010
1000
0000
0001
0000
0100
0010
0100
0010
0100
0010
0100
0000
,  // measure 56
1001
0000
1100
0000
1000
0001
0000
0010
,  // measure 57
0001
0000
0100
0001
0100
0000
0010
0000
1000
0000
0100
0001
0100
0000
0010
0000
,  // measure 58
0001
0000
1000
0001
1000
0000
0010
0000
0100
0001
0100
0000
0010
0000
0100
0000
,  // measure 59
0001
0000
0010
0001
0010
0000
0001
0000
1000
0001
1000
0001
0100
0000
0010
0000
,  // measure 60
0110
1001
0210
0000
,  // measure 61
0310
0000
1010
0000
1001
0000
0101
0100
,  // measure 62
0010
0000
1000
0100
1000
0000
0001
0000
0010
0000
0001
1000
0001
0000
0100
0000
,  // measure 63
0010
0000
0100
0001
0100
0000
0010
0000
1000
0000
0100
0010
0100
0000
0001
0000
,  // measure 64
0100
0000
1000
0001
1000
0000
0100
0000
0001
0000
0100
0000
1000
0000
0010
0000
,  // measure 65
0100
0001
0100
0001
1000
0010
1000
0010
0200
0000
0010
0000
0300
0000
0010
0000
,  // measure 66
0100
0000
0001
1000
0001
0000
0010
0000
0100
0000
1000
0100
1000
0000
0001
0000
,  // measure 67
0010
0000
0001
0010
0001
0000
1000
0000
0010
0000
0100
1000
0100
0000
0001
0000
,  // measure 68
0100
0000
0010
0100
0010
0000
1000
0000
0001
0100
0001
0100
0001
0100
0001
0100
,  // measure 69
0020
0000
2000
0000
,  // measure 70
0000
3030
0000
0000
;
