#TITLE:En FIRE-G SOUL;
#SUBTITLE:;
#ARTIST:Yooh;
#TITLETRANSLIT:C;
#SUBTITLETRANSLIT:;
#ARTISTTRANSLIT:;
#GENRE:;
#CREDIT:;
#BANNER:En FIRE-G SOUL.png;
#BACKGROUND:En FIRE-G SOUL-bg.png;
#LYRICSPATH:;
#CDTITLE:;
#MUSIC:En FIRE-G SOUL.mp3;
#OFFSET:-2.260000;
#SAMPLESTART:84.939880;
#SAMPLELENGTH:15.000000;
#SELECTABLE:YES;
#BPMS:0.000000=180.039993
;
#STOPS:
;
#BGCHANGES:;
#KEYSOUNDS:;
#ATTACKS:;

//---------------dance-single - ----------------
#NOTES:
     dance-single:
     :
     Beginner:
     1:
     0.103401,0.176484,0.026808,0.000000,0.000000,81.000000,78.000000,3.000000,0.000000,0.000000,0.000000,0.103401,0.176484,0.026808,0.000000,0.000000,81.000000,78.000000,3.000000,0.000000,0.000000,0.000000:
0000
0000
0000
0000
,
0000
0000
0000
0000
,
0000
0000
0000
0000
,
1000
0000
0000
0000
,
0001
0000
0000
0000
,
1000
0000
0000
0000
,
0010
0000
0000
0000
,
0100
0000
0000
0000
,
0001
0000
0000
0000
,
1000
0000
0000
0000
,
0001
0000
0000
0000
,
0001
0000
0000
0000
,
0100
0000
0000
0000
,
0100
0000
0000
0000
,
0010
0000
0000
0000
,
0010
0000
0000
0000
,
1000
0000
0000
0000
,
1000
0000
0000
0000
,
0001
0000
0000
0000
,
0001
0000
0000
0000
,
0100
0000
0000
0000
,
0100
0000
0000
0000
,
0010
0000
0000
0000
,
1000
0000
0000
0000
,
0001
0000
0000
0000
,
1000
0000
0000
0000
,
0010
0000
0000
0000
,
0100
0000
0000
0000
,
0010
0000
0000
0000
,
1000
0000
0000
0000
,
0001
0000
0000
0000
,
0100
0000
0000
0000
,
0100
0000
0000
0000
,
0100
0000
0100
0000
,
0100
0000
0000
0000
,
0010
0000
0000
0000
,
0010
0000
0000
0000
,
1000
0000
0000
0000
,
0001
0000
0000
0000
,
1000
0000
0000
0000
,
0001
0000
0000
0000
,
0100
0000
0000
0000
,
0001
0000
0000
0000
,
1000
0000
0000
0000
,
0001
0000
0000
0000
,
0001
0000
0000
0000
,
1000
0000
0000
0000
,
1000
0000
0000
0000
,
0010
0000
0000
0000
,
0010
0000
0000
0000
,
0100
0000
0000
0000
,
0100
0000
0000
0000
,
0001
0000
0000
0000
,
0001
0000
0000
0000
,
1000
0000
0000
0000
,
1000
0000
0000
0000
,
0010
0000
0000
0000
,
0010
0000
0000
0000
,
0100
0000
0000
0000
,
0100
0000
0000
0000
,
0001
0000
0000
0000
,
1001
0000
0000
0000
,
1000
0000
0000
0000
,
0001
0000
0000
0000
,
0001
0000
0000
0000
,
0010
0000
0000
0000
,
0001
0000
0000
0000
,
0100
0000
0000
0000
,
0010
0000
0000
0000
,
0100
0000
0000
0000
,
0001
0000
0000
0000
,
1000
0000
0000
0000
,
0001
0000
0000
0000
,
0100
0000
0000
0000
,
1000
0000
0000
0000
,
0100
0000
0000
0000
,
0001
0000
0000
0000
,
1001
0000
0000
0000
,
1000
0000
0000
0000
,
1001
0000
0000
0000
;

//---------------dance-single - ----------------
#NOTES:
     dance-single:
     :
     Easy:
     7:
     0.419988,0.529453,0.393180,0.000000,0.000000,329.000000,285.000000,44.000000,0.000000,0.000000,0.000000,0.419988,0.529453,0.393180,0.000000,0.000000,329.000000,285.000000,44.000000,0.000000,0.000000,0.000000:
0000
0000
0000
0000
,
0000
0000
0000
0000
,
0000
0000
0000
0000
,
1000
0001
1000
0001
,
0000
0010
0001
0010
,
0001
0100
1000
0100
,
0001
0000
1000
0001
,
1000
0000
0001
0010
,
0001
0100
0000
0010
,
0100
0001
0100
0010
,
1000
0001
0000
1000
,
0001
0010
0000
0001
,
0100
0010
0100
0001
,
1000
0010
0100
0010
,
1000
0100
0000
0100
,
1000
0100
1000
0001
,
0010
0001
0000
1000
,
0100
1000
0100
0010
,
0001
0010
0000
0001
,
0010
0100
1000
0100
,
1000
0100
0001
0010
,
0001
0100
1000
0010
,
0001
0100
0001
0010
,
1000
0001
1000
1001
,
0001
0100
0010
0100
,
0001
0010
0100
1000
,
0100
0001
0100
1000
,
0010
0001
0010
1001
,
1000
0100
1000
0100
,
1000
0100
0010
0001
,
0011
0010
0100
1000
,
1100
0100
0010
0001
,
1001
1000
0100
0110
,
0010
0110
0100
0101
,
0001
1000
0010
1000
,
0100
0010
0001
1000
,
0001
0100
0010
0100
,
0001
0000
1000
0010
,
0100
0010
1000
0001
,
0100
0010
0100
0001
,
0010
0100
1000
0001
,
0010
0001
0100
0010
,
0100
0001
0010
0100
,
1000
0001
1001
1001
,
0100
0010
0100
0001
,
0010
0100
1000
0001
,
0100
0010
0100
0001
,
0010
0001
1000
0100
,
1100
1000
0010
0001
,
0010
1000
1100
1100
,
0001
0100
0010
0100
,
0001
0010
0001
0000
,
1000
0100
1000
0010
,
0100
0001
0010
0100
,
1000
1000
0001
0000
,
0100
0010
0100
0000
,
0001
0010
0001
0000
,
1000
0100
0010
0000
,
0001
0001
1000
0000
,
1000
1000
0010
0000
,
0010
0100
0010
0100
,
1100
1100
0101
0101
,
0011
0010
0100
1000
,
1001
0001
0011
0010
,
0110
0100
1000
0001
,
1001
1001
1001
1001
,
0011
0010
0100
1000
,
1100
1100
1100
1100
,
0001
0010
0001
0100
,
0010
0100
0010
1000
,
0100
1000
1001
0001
,
0101
0100
0110
0010
,
1000
0100
1100
1000
,
1001
0001
0101
0100
,
0110
0010
1000
0100
,
1100
1000
1001
0001
,
0101
0100
0010
0110
,
0110
0000
0000
0000
,
1001
1000
0100
0010
,
1001
0000
0000
0000
;

//---------------dance-single - ----------------
#NOTES:
     dance-single:
     :
     Medium:
     12:
     0.568069,0.647407,0.419988,0.000000,0.000000,445.000000,398.000000,47.000000,0.000000,0.000000,0.000000,0.568069,0.647407,0.419988,0.000000,0.000000,445.000000,398.000000,47.000000,0.000000,0.000000,0.000000:
0000
0000
0000
0000
,
0000
0000
0000
0000
,
0000
0000
0000
0000
,
0001
0000
0100
0000
0010
0100
0010
0000
,
1000
0000
0100
0000
1000
0100
1000
0000
,
0101
0100
0010
1000
,
1100
1000
0001
0100
,
0010
0100
0010
0000
0100
0000
0001
0000
,
0011
0011
0100
1000
,
0010
0100
0010
0000
0100
0010
0100
0000
,
0001
0010
0001
0010
,
0100
1000
0100
1000
,
0100
0001
0010
0001
,
0100
1000
0010
0001
,
1000
0001
1000
0000
0001
0100
0001
0000
,
0100
0010
0100
0010
,
0110
0000
0110
0000
0010
1000
0010
1000
,
0010
0000
1010
0000
1000
0100
1000
0100
,
1000
0000
1001
0000
0001
0100
0001
0100
,
0001
0000
0101
0000
0100
0010
0100
0010
,
0100
0000
0110
0000
0010
1000
0010
1000
,
0010
1000
0100
1000
,
0100
0000
0010
0000
0001
0010
0001
0000
,
0010
0100
0010
0100
0010
0000
1000
0000
,
0001
0100
0001
0100
,
0010
0100
0010
0000
1000
0000
0100
0000
,
1000
0000
0001
0100
0001
0000
0100
0000
,
0010
1000
0100
1000
,
0100
0000
1000
0001
1000
0000
1001
0000
,
1010
0110
0110
0101
,
1001
0100
1000
0100
,
1000
0000
0010
0100
0010
0000
0100
0000
,
0001
0000
0010
0001
0010
0000
0001
0000
,
0010
0100
1000
0001
,
1000
0100
1000
0000
0100
0000
1000
0000
,
0010
0000
0100
0010
0100
0000
0001
0000
,
0010
0000
1001
1000
,
0100
1000
0010
0000
,
0110
0100
0001
0010
,
0001
0000
1000
0001
1000
0001
1000
0000
,
0001
0100
0010
0100
,
0010
0100
0010
0100
0010
0100
0010
0000
,
1000
0100
1000
0000
0001
0100
0001
0000
,
0100
0010
1000
0100
0010
0001
0100
0000
,
0010
1000
0100
0000
1000
0001
1000
0000
,
1000
0001
0100
0010
0100
0001
1000
0010
,
0100
0010
1000
1100
,
0001
0110
0100
1010
,
1100
0101
1010
0100
,
1001
0110
1001
0110
,
1001
0100
0010
0001
,
1000
0100
1000
0100
1000
0100
0010
0001
,
0010
0000
0001
0000
0010
0100
1000
0001
,
1000
0001
1000
0010
,
0100
0000
0001
0000
1000
0000
0001
1000
,
0001
0000
1000
0100
1000
0000
0010
0000
,
0100
0000
0001
0100
0001
0000
0100
0000
,
0010
1000
0100
1000
,
0001
0000
0100
0010
0100
0000
0010
0000
,
1000
0000
0100
1000
0100
0000
1000
0000
,
0001
0010
0110
1001
,
0110
1100
0011
0110
,
1100
1001
0110
0110
,
1001
0000
0100
1000
0100
0000
1010
0000
,
0100
0000
0001
0100
0001
0000
1000
0000
,
0100
1000
0100
1000
0100
1000
0100
0000
,
1000
0010
0100
0010
0100
0000
0001
0000
,
0100
0010
0100
0010
1000
0100
0001
0010
,
0100
0010
0001
0100
,
1000
0100
0001
0010
0001
0100
1000
0000
,
0001
0100
0010
0100
,
0010
1000
0100
1000
0001
0100
0010
0000
,
1000
0100
1000
0100
1000
0000
0001
0000
,
0100
0010
1000
0100
0001
0010
0100
1000
,
0001
0100
0010
0100
0001
0010
0100
1000
,
0010
0100
0010
0100
0010
1000
0100
1000
,
0001
0100
0010
0100
0001
0010
0100
1000
,
1001
0000
0000
0000
,
1001
0110
1010
0101
,
1000
0100
0010
0001
0010
1000
0010
0001
,
1000
0000
1001
0000
;

//---------------dance-single - ----------------
#NOTES:
     dance-single:
     :
     Hard:
     16:
     0.871890,0.940952,0.580834,0.062551,0.527219,683.000000,618.000000,65.000000,7.000000,0.000000,0.000000,0.871890,0.940952,0.580834,0.062551,0.527219,683.000000,618.000000,65.000000,7.000000,0.000000,0.000000:
// measure 0
0000
0000
0000
0000
,  // measure 1
0000
0000
0000
0000
,  // measure 2
0000
0000
0000
0000
,  // measure 3
1000
0000
0001
0010
0001
0000
0100
0000
0010
1000
0001
1000
0010
0000
0100
0000
,  // measure 4
0000
0000
0001
1000
0001
0000
0100
0000
0010
1000
0010
1000
0010
0000
0000
0000
,  // measure 5
1000
0001
1000
0010
0100
0000
0001
0000
1001
0000
1000
0000
1010
0000
0010
0000
,  // measure 6
0100
0001
1000
0001
0100
0010
0000
1000
,  // measure 7
0100
0001
0100
1000
0001
1000
0000
0001
,  // measure 8
0010
1000
0010
0001
0100
0001
1000
0010
,  // measure 9
0100
0001
0100
0001
1000
0000
0000
0000
1001
0000
1000
0000
1010
0000
0010
0000
,  // measure 10
0110
0100
0001
0010
1000
0010
0000
0001
,  // measure 11
0100
1000
0100
0001
1000
0010
1000
0001
,  // measure 12
1000
0010
0000
1000
0001
0000
0100
0000
0000
0000
0010
0000
1000
0000
0001
0000
,  // measure 13
0100
0000
0010
0000
0100
0000
0001
0000
1000
0001
0000
1000
0001
0000
0100
0000
,  // measure 14
0010
0000
1010
0000
1000
1000
0001
0001
,  // measure 15
0010
0000
0011
0000
0001
0001
0100
0100
,  // measure 16
1000
0000
1100
0000
0100
0100
0001
0001
,  // measure 17
1000
0000
1010
0000
0010
0010
0100
0100
,  // measure 18
0001
1000
0001
0000
1010
0010
0110
0100
,  // measure 19
0101
0001
1000
0001
0011
0010
0110
0100
,  // measure 20
1100
1000
1001
0000
0101
0100
0110
0010
,  // measure 21
1000
0001
1000
0001
0010
0001
0010
0100
0010
0000
0000
0000
1001
0000
0000
0000
,  // measure 22
0001
0000
0100
0010
1000
0000
0010
0000
0100
0001
0010
0001
1000
0000
1000
0000
,  // measure 23
0001
0000
0100
0010
0100
0000
0010
0000
2000
0000
0000
0000
3002
0000
0000
0000
,  // measure 24
0103
0000
0000
0000
0000
0000
0000
0000
0000
0100
0000
0000
0010
0000
0000
0000
0000
0000
1000
0000
0000
0000
0000
0000
0001
0000
0000
0000
0010
0000
0000
0000
0001
0000
0000
0000
1000
0000
0000
0000
0000
0000
0000
0000
0000
0000
0000
0000
,  // measure 25
1001
0000
0001
0010
1000
0010
0001
0000
,  // measure 26
0100
0010
1000
0010
0100
0001
0010
0000
,  // measure 27
0001
1000
0100
1000
0001
0000
0100
0000
0110
0000
0010
0000
1010
0000
1000
0000
,  // measure 28
1001
0101
1010
1001
,  // measure 29
0001
0010
1000
0010
0001
0100
1000
0100
0001
0010
0100
1000
,  // measure 30
0001
0000
0000
0000
0000
0000
1000
0001
1000
0000
0000
0000
0010
0000
0000
0000
,  // measure 31
0110
0000
0010
1000
0001
0000
0101
0000
,  // measure 32
1001
1000
0100
0001
0100
0000
1100
0000
,  // measure 33
1001
0000
0000
0000
0011
0000
0000
0000
0110
0000
0000
0000
1000
0001
1000
0001
,  // measure 34
1000
0000
0100
0000
0001
0000
0100
0000
1000
0100
1000
0100
0010
0000
0000
0000
,  // measure 35
0001
0010
0001
0000
0010
0000
0100
0000
1000
0010
1000
0010
0100
0000
0000
0000
,  // measure 36
0011
0000
0000
0000
0000
0000
1000
0001
1000
0000
0000
0000
1001
0000
0000
0000
,  // measure 37
0201
0000
0000
0310
2000
0000
3002
0000
,  // measure 38
0103
0010
0100
0000
0010
1000
0010
0000
1000
0001
1000
0000
0001
0100
0001
0000
,  // measure 39
0100
0010
0100
0000
0010
1000
0010
0000
1000
0100
0010
0000
1001
0000
0000
0000
,  // measure 40
0001
0000
0010
0000
0100
1000
0100
0000
0010
0000
0001
0000
0010
0100
1000
0100
,  // measure 41
0010
0000
0001
0000
1000
0100
0010
0001
0010
0000
0010
0000
0100
0000
0100
0000
,  // measure 42
1000
0000
0001
0000
0010
0001
0100
0010
0100
0000
0001
0000
0010
0100
1000
0001
,  // measure 43
1000
0000
0010
0000
0100
0001
0010
0001
1000
0100
1000
0000
1001
0000
0000
0000
,  // measure 44
0001
0000
0010
0000
0001
1000
0001
1000
0100
0000
1000
0000
0010
0100
0010
0100
,  // measure 45
0001
0000
0000
0001
0000
0000
0010
0000
0000
0010
0000
0000
0100
0000
1000
0000
0001
0000
1000
0000
0010
0000
0000
0000
,  // measure 46
0110
0000
0101
0000
0001
0000
1000
0010
,  // measure 47
1000
0001
1000
0001
1000
0000
0000
0000
0001
0100
0001
0100
0001
0000
0000
0000
,  // measure 48
0110
0000
1001
0000
0001
0010
0100
1000
,  // measure 49
0010
0000
1000
0001
1000
0001
1000
0001
1000
0001
1000
0001
1000
0000
0100
0000
,  // measure 50
0001
0100
1000
0001
0010
0001
0100
0010
,  // measure 51
1000
0100
0010
0001
0010
0100
1000
0000
0000
0110
0000
0000
,  // measure 52
1001
0000
0011
0000
0100
1000
0010
0000
,  // measure 53
0100
0001
0100
0000
0001
0010
0001
0000
0010
0100
0010
0100
0010
0000
0000
0000
,  // measure 54
1001
0000
0000
1000
0001
0000
0101
0000
,  // measure 55
0100
0000
0010
1000
0100
0000
0101
0000
,  // measure 56
0100
0000
1000
0001
0100
0000
0001
0000
,  // measure 57
0100
0000
1000
0100
0001
0001
1000
1000
,  // measure 58
0010
0100
0000
0100
0001
0000
1000
0001
,  // measure 59
1000
0000
0001
1000
0001
0000
0100
0000
,  // measure 60
0110
1001
0011
1100
,  // measure 61
0001
0000
0000
0000
0010
0000
0000
0000
0100
0000
0000
0000
1000
0000
0000
0000
0001
0000
0000
0000
0010
0000
0000
0000
1000
0000
0000
0000
0010
0000
0000
0000
0001
0000
0000
0000
0100
0000
0000
0010
0000
0000
0100
0000
0000
0000
0000
0000
,  // measure 62
0001
1000
0100
0000
1000
0000
0001
0000
0101
0000
0000
0000
0011
0000
0000
0000
,  // measure 63
1100
1001
0110
0101
,  // measure 64
0010
0000
0100
0001
0100
0000
0001
0000
1000
0000
0100
0000
0010
0000
0001
0000
,  // measure 65
1000
0100
0010
0001
0010
0100
1000
0000
,  // measure 66
0001
0010
0001
0000
0010
0000
1000
0000
0010
0000
0001
0000
0100
0000
0100
0000
,  // measure 67
0010
0000
1000
0000
0100
0000
0010
0000
0001
0010
0001
0010
0100
1000
0100
1000
,  // measure 68
0001
0010
0001
0100
0010
1000
0010
1000
,  // measure 69
0101
0000
0100
0000
0010
0000
0010
0000
1000
0001
1000
0001
1000
0000
0010
0000
,  // measure 70
0100
0001
0100
0001
0100
0000
0010
0000
1000
0100
1000
0100
1000
0000
0001
0000
,  // measure 71
0100
1010
1001
0101
,  // measure 72
0100
0010
0100
0010
1000
0000
0001
0000
1000
0100
0010
0001
1000
0000
0010
0000
,  // measure 73
0100
0001
0010
0001
1000
0010
1000
0000
,  // measure 74
0001
0000
0010
0001
0010
0000
0001
0000
0100
0000
0100
0000
0010
0000
1000
0000
,  // measure 75
0000
0000
0001
1000
0010
0000
1000
0000
0001
0000
0100
0000
0010
0000
0100
0000
,  // measure 76
0001
0000
1000
0010
1000
0000
0100
0000
1001
0000
0001
0000
0010
0000
0100
0000
,  // measure 77
1100
1000
0001
1000
,  // measure 78
0001
0100
0001
0000
1000
0000
0010
0100
0010
0000
1000
0100
1000
0001
0010
0000
,  // measure 79
0001
0010
0100
1000
0001
0010
0100
1000
,  // measure 80
0001
0000
2002
0000
,  // measure 81
3003
0000
0000
0000
;

//---------------dance-single - ----------------
#NOTES:
     dance-single:
     :
     Edit:
     16:
     0.871890,0.940952,0.580834,0.062551,0.527219,683.000000,618.000000,65.000000,7.000000,0.000000,0.000000,0.871890,0.940952,0.580834,0.062551,0.527219,683.000000,618.000000,65.000000,7.000000,0.000000,0.000000:
// measure 0
0000
0000
0000
0000
,  // measure 1
0000
0000
0000
0000
,  // measure 2
0000
0000
0000
0000
,  // measure 3
1000
0000
0001
0010
0001
0000
0100
0000
0010
1000
0001
1000
0010
0000
0100
0000
,  // measure 4
0000
0000
0001
1000
0001
0000
0100
0000
0010
1000
0010
1000
0010
0000
0000
0000
,  // measure 5
1000
0001
1000
0010
0100
0000
0001
0000
1001
0000
1000
0000
1010
0000
0010
0000
,  // measure 6
0100
0001
1000
0001
0100
0010
0000
1000
,  // measure 7
0100
0001
0100
1000
0001
1000
0000
0001
,  // measure 8
0010
1000
0010
0001
0100
0001
1000
0010
,  // measure 9
0100
0001
0100
0001
1000
0000
0000
0000
1001
0000
1000
0000
1010
0000
0010
0000
,  // measure 10
0110
0100
0001
0010
1000
0010
0000
0001
,  // measure 11
0100
1000
0100
0001
1000
0010
1000
0001
,  // measure 12
1000
0010
0000
1000
0001
0000
0100
0000
0000
0000
0010
0000
1000
0000
0001
0000
,  // measure 13
0100
0000
0010
0000
0100
0000
0001
0000
1000
0001
0000
1000
0001
0000
0100
0000
,  // measure 14
0010
0000
1010
0000
1000
1000
0001
0001
,  // measure 15
0010
0000
0011
0000
0001
0001
0100
0100
,  // measure 16
1000
0000
1100
0000
0100
0100
0001
0001
,  // measure 17
1000
0000
1010
0000
0010
0010
0100
0100
,  // measure 18
0001
1000
0001
0000
1010
0010
0110
0100
,  // measure 19
0101
0001
1000
0001
0011
0010
0110
0100
,  // measure 20
1100
1000
1001
0000
0101
0100
0110
0010
,  // measure 21
1000
0001
1000
0001
0010
0001
0010
0100
0010
0000
0000
0000
1001
0000
0000
0000
,  // measure 22
0001
0000
0100
0010
1000
0000
0010
0000
0100
0001
0010
0001
1000
0000
1000
0000
,  // measure 23
0001
0000
0100
0010
0100
0000
0010
0000
2000
0000
0000
0000
3002
0000
0000
0000
,  // measure 24
0103
0000
0000
0000
0000
0000
0000
0000
0000
0100
0000
0000
0010
0000
0000
0000
0000
0000
1000
0000
0000
0000
0000
0000
0001
0000
0000
0000
0010
0000
0000
0000
0001
0000
0000
0000
1000
0000
0000
0000
0000
0000
0000
0000
0000
0000
0000
0000
,  // measure 25
1001
0000
0001
0010
1000
0010
0001
0000
,  // measure 26
0100
0010
1000
0010
0100
0001
0010
0000
,  // measure 27
0001
1000
0100
1000
0001
0000
0100
0000
0110
0000
0010
0000
1010
0000
1000
0000
,  // measure 28
1001
0101
1010
1001
,  // measure 29
0001
0010
1000
0010
0001
0100
1000
0100
0001
0010
0100
1000
,  // measure 30
0001
0000
0000
0000
0000
0000
1000
0001
1000
0000
0000
0000
0010
0000
0000
0000
,  // measure 31
0110
0000
0010
1000
0001
0000
0101
0000
,  // measure 32
1001
1000
0100
0001
0100
0000
1100
0000
,  // measure 33
1001
0000
0000
0000
0011
0000
0000
0000
0110
0000
0000
0000
1000
0001
1000
0001
,  // measure 34
1000
0000
0100
0000
0001
0000
0100
0000
1000
0100
1000
0100
0010
0000
0000
0000
,  // measure 35
0001
0010
0001
0000
0010
0000
0100
0000
1000
0010
1000
0010
0100
0000
0000
0000
,  // measure 36
0011
0000
0000
0000
0000
0000
1000
0001
1000
0000
0000
0000
1001
0000
0000
0000
,  // measure 37
0201
0000
0000
0310
2000
0000
3002
0000
,  // measure 38
0103
0010
0100
0000
0010
1000
0010
0000
1000
0001
1000
0000
0001
0100
0001
0000
,  // measure 39
0100
0010
0100
0000
0010
1000
0010
0000
1000
0100
0010
0000
1001
0000
0000
0000
,  // measure 40
0001
0000
0010
0000
0100
1000
0100
0000
0010
0000
0001
0000
0010
0100
1000
0100
,  // measure 41
0010
0000
0001
0000
1000
0100
0010
0001
0010
0000
0010
0000
0100
0000
0100
0000
,  // measure 42
1000
0000
0001
0000
0010
0001
0100
0010
0100
0000
0001
0000
0010
0100
1000
0001
,  // measure 43
1000
0000
0010
0000
0100
0001
0010
0001
1000
0100
1000
0000
1001
0000
0000
0000
,  // measure 44
0001
0000
0010
0000
0001
1000
0001
1000
0100
0000
1000
0000
0010
0100
0010
0100
,  // measure 45
0001
0000
0000
0001
0000
0000
0010
0000
0000
0010
0000
0000
0100
0000
1000
0000
0001
0000
1000
0000
0010
0000
0000
0000
,  // measure 46
0110
0000
0101
0000
0001
0000
1000
0010
,  // measure 47
1000
0001
1000
0001
1000
0000
0000
0000
0001
0100
0001
0100
0001
0000
0000
0000
,  // measure 48
0110
0000
1001
0000
0001
0010
0100
1000
,  // measure 49
0010
0000
1000
0001
1000
0001
1000
0001
1000
0001
1000
0001
1000
0000
0100
0000
,  // measure 50
0001
0100
1000
0001
0010
0001
0100
0010
,  // measure 51
1000
0100
0010
0001
0010
0100
1000
0000
0000
0110
0000
0000
,  // measure 52
1001
0000
0011
0000
0100
1000
0010
0000
,  // measure 53
0100
0001
0100
0000
0001
0010
0001
0000
0010
0100
0010
0100
0010
0000
0000
0000
,  // measure 54
1001
0000
0000
1000
0001
0000
0101
0000
,  // measure 55
0100
0000
0010
1000
0100
0000
0101
0000
,  // measure 56
0100
0000
1000
0001
0100
0000
0001
0000
,  // measure 57
0100
0000
1000
0100
0001
0001
1000
1000
,  // measure 58
0010
0100
0000
0100
0001
0000
1000
0001
,  // measure 59
1000
0000
0001
1000
0001
0000
0100
0000
,  // measure 60
0110
1001
0011
1100
,  // measure 61
0001
0000
0000
0000
0010
0000
0000
0000
0100
0000
0000
0000
1000
0000
0000
0000
0001
0000
0000
0000
0010
0000
0000
0000
1000
0000
0000
0000
0010
0000
0000
0000
0001
0000
0000
0000
0100
0000
0000
0010
0000
0000
0100
0000
0000
0000
0000
0000
,  // measure 62
0001
1000
0100
0000
1000
0000
0001
0000
0101
0000
0000
0000
0011
0000
0000
0000
,  // measure 63
1100
1001
0110
0101
,  // measure 64
0010
0000
0100
0001
0100
0000
0001
0000
1000
0000
0100
0000
0010
0000
0001
0000
,  // measure 65
1000
0100
0010
0001
0010
0100
1000
0000
,  // measure 66
0001
0010
0001
0000
0010
0000
1000
0000
0010
0000
0001
0000
0100
0000
0100
0000
,  // measure 67
0010
0000
1000
0000
0100
0000
0010
0000
0001
0010
0001
0010
0100
1000
0100
1000
,  // measure 68
0001
0010
0001
0100
0010
1000
0010
1000
,  // measure 69
0101
0000
0100
0000
0010
0000
0010
0000
1000
0001
1000
0001
1000
0000
0010
0000
,  // measure 70
0100
0001
0100
0001
0100
0000
0010
0000
1000
0100
1000
0100
1000
0000
0001
0000
,  // measure 71
0100
1010
1001
0101
,  // measure 72
0100
0010
0100
0010
1000
0000
0001
0000
1000
0100
0010
0001
1000
0000
0010
0000
,  // measure 73
0100
0001
0010
0001
1000
0010
1000
0000
,  // measure 74
0001
0000
0010
0001
0010
0000
0001
0000
0100
0000
0100
0000
0010
0000
1000
0000
,  // measure 75
0000
0000
0001
1000
0010
0000
1000
0000
0001
0000
0100
0000
0010
0000
0100
0000
,  // measure 76
0001
0000
1000
0010
1000
0000
0100
0000
1001
0000
0001
0000
0010
0000
0100
0000
,  // measure 77
1100
1000
0001
1000
,  // measure 78
0001
0100
0001
0000
1000
0000
0010
0100
0010
0000
1000
0100
1000
0001
0010
0000
,  // measure 79
0001
0010
0100
1000
0001
0010
0100
1000
,  // measure 80
0001
0000
2002
0000
,  // measure 81
3003
0000
0000
0000
;
