#TITLE:Eliminator;
#SUBTITLE:;
#ARTIST:REDALiCE;
#TITLETRANSLIT:;
#SUBTITLETRANSLIT:;
#ARTISTTRANSLIT:;
#GENRE:;
#CREDIT:;
#BANNER:Eliminator.png;
#BACKGROUND:Eliminator-bg.png;
#LYRICSPATH:;
#CDTITLE:;
#MUSIC:Eliminator.ogg;
#OFFSET:-1.920000;
#SAMPLESTART:42.797981;
#SAMPLELENGTH:15.000000;
#SELECTABLE:YES;
#DISPLAYBPM:140.000000;
#BPMS:0.000000=140.020004
;
#STOPS:
;
#BGCHANGES:;
#KEYSOUNDS:;
#ATTACKS:;

//---------------dance-single - ----------------
#NOTES:
     dance-single:
     :
     Beginner:
     2:
     0.132866,0.169897,0.000000,0.000000,0.000000,101.000000,101.000000,0.000000,0.000000,0.000000,0.000000,0.132866,0.169897,0.000000,0.000000,0.000000,101.000000,101.000000,0.000000,0.000000,0.000000,0.000000:
0000
0000
0000
0000
,
0000
0000
0000
0000
,
0000
0000
0000
0000
,
1000
1000
1000
0000
,
0001
0000
0100
0000
,
0010
0000
0010
0000
,
1000
0000
0000
0000
,
0001
0000
0001
0000
,
0100
0000
0100
0000
,
0010
0000
0010
0000
,
1000
0000
1000
0000
,
0001
0000
0001
0000
,
0100
0000
0100
0000
,
0010
0000
0010
0000
,
1000
0000
0000
0000
,
1000
0000
0001
0000
,
1000
0000
0010
0000
,
0100
0000
0010
0000
,
1000
0000
0000
0000
,
0001
0000
0000
0001
,
0000
0000
0100
0000
,
0000
0100
0000
0000
,
0010
0000
0000
0000
,
0010
0000
0000
0000
,
1000
0000
1000
0000
,
0001
0000
0001
0000
,
0100
0000
0100
0000
,
0010
0010
0010
0000
,
1000
0000
0001
0000
,
1000
0000
0000
0000
,
0001
0000
0001
0000
,
0001
0000
0000
0000
,
0100
0000
0100
0000
,
0100
0000
0000
0000
,
0010
0000
0010
0000
,
1000
0000
1000
0000
,
0001
0000
0001
0000
,
0100
0000
0100
0000
,
0010
0000
0010
0000
,
1000
0000
1000
0000
,
0001
0000
0001
0000
,
1000
1000
1000
0000
,
0001
0000
0001
0000
,
0010
0000
0010
0000
,
0100
0000
0100
0000
,
1000
0000
1000
0000
,
0001
0000
0001
0000
,
1000
0000
1000
0000
,
0100
0000
0100
0000
,
0010
0000
0010
0000
,
0001
0000
0000
0000
,
0000
0000
0000
0000
,
1000
0000
0001
0000
,
1000
0000
0001
0000
,
1000
0000
0000
0000
,
0010
0000
0000
0000
,
1000
0000
0000
0000
,
0010
0000
0000
0000
,
0100
0000
0000
0000
,
0001
0000
0000
0000
,
0100
0000
0000
0000
,
0010
0000
1000
0000
;

//---------------dance-single - ----------------
#NOTES:
     dance-single:
     :
     Easy:
     4:
     0.199957,0.255882,0.000000,0.000000,0.000000,152.000000,152.000000,0.000000,0.000000,0.000000,0.000000,0.199957,0.255882,0.000000,0.000000,0.000000,152.000000,152.000000,0.000000,0.000000,0.000000,0.000000:
0000
0000
0000
0000
,
0000
0000
0000
0000
,
0000
0000
0000
0000
,
1000
0001
1000
0000
,
0001
0010
0001
0000
,
0100
0010
0100
0000
,
0010
0000
1000
0000
,
0010
0010
0010
0000
,
0100
0000
0001
1000
,
0001
0000
1000
0000
,
0010
0000
0100
0100
,
0001
0000
1000
0000
,
0001
0000
0010
0000
,
0001
0100
0001
0000
,
0100
0010
0100
0000
,
0010
0000
0010
0000
,
1000
0000
1000
0000
,
0001
0000
0001
0000
,
0100
0000
0100
0000
,
0010
0000
0010
0000
,
1000
0000
1000
0000
,
0001
1000
0001
0000
,
1000
0001
1000
0000
,
0010
0000
0000
0000
,
0100
0010
0100
0000
,
0010
0100
0010
0000
,
1000
0100
1000
0000
,
0100
0010
0100
0000
,
0010
0001
0010
0000
,
0001
0100
0001
0000
,
0100
0010
1000
0000
,
0100
0010
0001
1000
,
0001
0000
1000
0100
,
1000
0000
0000
0000
,
0001
1000
0001
1000
,
0001
0010
0001
0010
,
0001
0000
1000
0000
,
0001
0001
0001
0001
,
0100
0000
0100
0000
,
0010
0000
0010
0000
,
1000
0000
1000
0000
,
0001
0100
0001
0100
,
0010
0000
1000
0000
,
0010
0000
1000
0000
,
0100
0000
1000
0000
,
0100
0010
0100
0010
,
0001
0000
1000
0000
,
0001
0000
1000
1000
,
0010
0000
0100
0100
,
0010
1000
0010
0000
,
0100
0000
0000
0000
,
0000
0000
0000
0000
,
0001
0000
1000
0000
,
0001
1000
0001
0000
,
1000
0000
0010
0000
,
0100
0000
0010
0000
,
1000
0000
0001
0000
,
1000
0001
1000
0000
,
0010
0000
0100
0000
,
0010
0000
1000
0010
,
1000
0000
0001
1000
,
0001
1000
0001
1000
;

//---------------dance-single - ----------------
#NOTES:
     dance-single:
     :
     Medium:
     9:
     0.369657,0.510728,0.239422,0.000000,0.000000,281.000000,255.000000,26.000000,0.000000,0.000000,0.000000,0.369657,0.510728,0.239422,0.000000,0.000000,281.000000,255.000000,26.000000,0.000000,0.000000,0.000000:
0000
0000
0000
0000
,
0000
0000
0000
0000
,
0000
0000
0000
0000
,
1000
0000
1000
0000
1000
0000
0001
1000
,
0000
0001
1000
0000
0010
0000
1000
0000
,
0100
0000
0100
0000
0100
0000
0010
0100
,
0000
0010
0100
0000
0001
0000
1000
0000
,
0001
1000
0010
0100
,
0010
0000
0100
0000
0001
0000
1000
0001
,
0000
1000
0010
0000
0010
0000
0100
0000
,
0010
0000
1000
0000
0100
1000
0100
0000
,
0010
0000
0001
0000
1000
0000
0100
1000
,
0000
0100
1000
0100
,
0010
0000
0001
0000
0010
0001
0010
0000
,
0001
0100
0010
0100
,
0001
0000
1000
0000
0100
1000
0100
0000
,
1000
0010
0100
0010
,
0100
0000
0001
1000
0000
0001
1000
0000
,
0010
0100
0010
1000
,
0010
0000
0100
0000
0001
0000
0100
0010
,
0000
0010
0100
0000
0001
0000
1000
0000
,
0100
1000
0100
0000
0010
0000
0001
0000
,
0100
0010
0100
0010
0100
0000
0010
0000
,
1000
0000
0000
0000
,
1001
0001
0101
0100
,
0110
0000
0010
1000
0010
0000
1000
0000
,
0100
0010
0001
1000
,
0100
0000
1000
0100
1000
0000
0100
0000
,
0010
0001
0010
0001
,
0100
1000
0100
0001
,
0010
1000
0010
0001
,
0100
1000
0100
0001
,
1000
0000
0001
0000
1000
0000
0001
1000
,
0001
1000
0010
1010
,
1100
0101
1100
1001
,
0011
1010
0011
1001
,
1100
0101
1100
1001
,
0011
1100
0011
1100
,
1001
0110
1001
0110
,
0001
0000
0010
0000
0100
1000
0100
0000
,
1000
0000
0100
0000
0010
0001
0010
0000
,
0001
0001
0010
0010
0100
1000
0100
0000
,
0010
0100
0010
1000
,
0010
0000
0100
0000
0001
0010
0100
0000
,
1000
0000
0001
0000
1000
0001
1000
0000
,
0001
0010
1000
0010
,
0001
0000
0100
0000
1000
0100
0001
0000
,
0100
0000
1000
0000
0010
0001
0010
0000
,
1000
0000
0010
0000
0001
0010
1000
0000
,
0010
0001
0100
1000
,
1001
0000
0000
0000
,
0000
0000
0000
0000
,
1000
0001
1000
0010
,
1000
0010
1000
0000
0010
0000
0100
0000
,
0001
0100
0001
0010
,
0001
1000
0001
0000
1000
0000
0100
0001
,
0100
0000
1000
0000
0010
0001
0010
0000
,
1000
0100
0001
0100
,
1000
0100
0001
0100
,
1000
0000
0000
0000
0010
0100
0010
0100
,
0000
0000
0000
0010
0100
0010
0100
0010
,
0000
0100
0000
0010
0000
1010
0000
0000
;

//---------------dance-single - ----------------
#NOTES:
     dance-single:
     :
     Hard:
     11:
     0.531464,0.539102,0.128919,0.027626,0.179566,404.000000,390.000000,14.000000,3.000000,0.000000,0.000000,0.531464,0.539102,0.128919,0.027626,0.179566,404.000000,390.000000,14.000000,3.000000,0.000000,0.000000:
0000
0000
0000
0000
,
0000
0000
0000
0000
,
0000
0000
0000
0000
,
1001
0000
1001
0000
1001
0000
1000
0010
,
0000
0010
0100
0001
0100
0010
1000
0100
,
0010
0000
0011
0000
0011
0000
0001
0100
,
0000
1000
0100
0001
0010
0100
1000
0000
,
0010
0000
0100
0000
0010
0000
1000
0000
0010
0000
0100
0001
0000
0000
1000
0000
,
0000
0010
0001
1000
0100
0001
0100
1000
,
0000
0000
0010
0000
0001
0000
0010
0000
1000
0000
0100
0010
0000
0000
0001
0000
,
0000
0000
0100
0000
1000
0000
0100
0000
0001
0000
1000
0001
0000
0000
0100
0000
,
0000
0000
0010
0000
1000
0000
0001
0000
1000
0000
0010
0100
0000
0000
0010
0000
,
0000
0000
1000
0000
0100
0000
0001
0000
0100
0000
1000
0001
0000
0000
1000
0000
,
0000
0000
0010
0000
0001
0000
0010
0000
1000
0000
0001
1000
0000
0000
0010
0000
,
0000
0000
0100
0000
0001
0000
0010
0000
0001
0000
1000
0010
0000
0000
1000
0000
,
0000
0000
0001
1000
0000
0001
1000
0001
,
0100
0010
0100
0001
0101
0000
1001
0000
,
1000
0000
0100
0010
0000
0001
1000
0010
,
1000
0100
0010
0001
0100
0000
0010
0000
,
1000
0000
0100
1000
0000
0001
0100
0001
,
0010
0001
0100
0010
1000
0000
0001
0000
,
0000
0000
1000
0000
0010
0000
0100
0010
0000
0000
1000
0000
0100
0000
0001
0000
,
0100
1000
0010
1000
0001
1000
0010
0100
,
0001
0000
0000
0000
0000
0000
0000
1000
,
0001
0000
0000
0000
0000
0000
0001
0000
0100
0000
0000
0010
0100
0000
0010
0000
,
0000
0000
1000
0000
0100
0000
0001
0000
0100
0000
0000
1000
0000
0000
1000
0000
,
0010
0001
0000
0010
1000
0001
1000
0100
,
0010
0001
0100
0000
0001
1000
0001
0100
,
0010
0000
1000
0100
0001
0100
1000
0001
,
0000
0001
0010
0100
1000
0000
1000
0001
,
0100
0000
0001
0000
0010
0000
0001
1000
0000
0000
0010
0000
0100
0000
0002
0000
,
0000
0000
0103
0000
0000
0000
0000
0000
0010
0000
1000
0000
0100
0000
0010
0100
,
0000
1000
0001
0010
0001
1000
0001
0100
,
0001
1000
0001
1000
0001
1000
1001
0000
,
1010
0000
0000
0010
0100
0000
0000
0100
0001
0000
1000
0000
0001
0000
0000
0000
,
1010
0000
0000
0010
0100
0000
0000
0100
0001
0000
0010
0000
0001
0000
0000
0000
,
1001
0000
0000
1000
0100
0000
0000
0100
0001
0000
0100
0000
1000
0000
0000
0000
,
0011
0010
0100
1000
0001
1000
0010
0100
,
0001
0000
0100
0000
1000
0000
0100
0001
0000
0000
0001
0000
1000
0000
0000
0000
,
0100
0010
0000
0100
0010
0000
1000
0001
0000
1000
0001
0000
0100
0000
0000
0000
,
0010
0000
1000
0000
0100
0000
0010
0001
0000
0010
0001
0000
0100
0000
0010
0000
,
1000
0100
1000
0100
0010
0001
0010
0001
,
0100
0000
0010
0000
1000
0000
0000
0100
1000
0000
0001
0000
0100
0000
0000
0000
,
0010
0000
1000
0000
0100
0000
0001
0100
0000
0000
1000
0000
0010
0000
0000
0000
,
0100
0001
0000
0100
0000
0000
0001
0010
0000
0001
1000
0000
0010
0000
0010
0000
,
0100
0000
0000
0100
0001
0000
0000
0001
1000
0000
0000
1000
0010
0000
0000
0000
,
1010
0000
0000
0010
0100
0000
0001
0000
1000
0000
0001
0000
0100
0000
0000
0000
,
0010
0000
1000
0000
0100
0000
0010
0001
0000
0010
0001
0000
0100
0000
0000
0000
,
0010
0000
1000
0000
0001
0000
1000
0100
0000
1000
0010
0000
0100
0000
0000
0000
,
0001
0001
0100
0100
0010
0010
1000
1000
,
0001
0000
0000
0000
,
0000
0000
0000
0000
0000
0000
1000
0001
,
0000
1000
0001
0100
0001
0010
0200
0000
,
1300
0010
0002
0000
0013
0000
1000
0100
,
0000
0001
0100
1000
0000
0010
0100
0001
,
0100
0010
1000
0001
1000
0100
0000
0010
,
0001
0010
0100
1000
0001
0100
0001
0000
,
0100
0010
1000
0001
1000
0000
0010
0100
,
0001
0010
0001
1000
0100
1000
0010
0000
,
0100
0000
0001
1000
0001
0010
0100
1000
,
0000
0100
0000
0001
0100
1000
0010
1000
,
1000
0001
0001
0100
0100
1001
0000
0000
;

//---------------dance-single - ----------------
#NOTES:
     dance-single:
     :
     Challenge:
     14:
     0.645912,0.652597,0.119711,0.009209,0.451218,491.000000,478.000000,13.000000,1.000000,0.000000,0.000000,0.645912,0.652597,0.119711,0.009209,0.451218,491.000000,478.000000,13.000000,1.000000,0.000000,0.000000:
// measure 0
0000
0000
0000
0000
,  // measure 1
0000
0000
0000
0000
,  // measure 2
0000
0000
0000
0000
,  // measure 3
1001
0000
1001
0000
1001
0000
1000
0010
,  // measure 4
0000
0000
0010
0000
0100
0000
0001
0010
0001
0000
1000
0000
0001
0000
0100
0000
,  // measure 5
0110
0000
1001
0000
1001
0000
0001
0100
,  // measure 6
0000
1000
0100
0001
0010
0100
1000
0001
,  // measure 7
1000
0000
0010
0000
0100
0000
0001
0000
1000
0000
0100
1000
0100
0000
0010
0000
,  // measure 8
0000
0000
0010
0000
0001
0000
1000
0000
0100
0000
1000
0001
0010
0000
0001
0000
,  // measure 9
0000
0000
0010
0000
0100
0000
1000
0000
0100
0000
0010
0001
0100
0000
0001
0000
,  // measure 10
0000
0000
0010
0000
1000
0000
0010
0000
0001
0000
1000
0010
0100
0000
0001
0000
,  // measure 11
0000
0000
0100
0000
1000
0000
0100
0000
0001
0000
0010
1000
0010
0000
0001
0000
,  // measure 12
0000
0000
0100
0000
0010
0000
1000
0000
0100
0000
1000
0001
1000
0000
0010
0000
,  // measure 13
0000
0000
0010
0000
0001
0000
0010
0000
1000
0000
0001
1000
0100
0000
0010
0000
,  // measure 14
0000
0000
0001
0000
0100
0000
0010
0000
1000
0000
0001
0010
0001
0000
1000
0000
,  // measure 15
0000
1000
0100
0001
0000
0001
0100
1000
,  // measure 16
0100
0010
0100
0000
0010
0001
0010
0000
0001
0000
0100
0000
0010
0000
1000
0000
,  // measure 17
0001
0000
0000
0000
1000
0001
0010
0000
0000
0000
0001
0000
1000
0010
0100
0000
,  // measure 18
0010
0000
1000
0000
0100
0010
0001
0000
0100
0000
0010
0000
0110
0000
0000
0000
,  // measure 19
1000
0000
0000
0000
0100
1000
0100
0000
0000
0000
0010
0000
0001
0000
0100
0000
,  // measure 20
0010
1000
0001
0000
0100
0000
0001
0000
1000
0000
1000
0000
0010
0000
0100
0000
,  // measure 21
0000
0000
0001
0000
0100
0000
0001
1000
0010
0000
1000
0000
0100
0000
0010
0000
,  // measure 22
0001
1000
0001
0000
0100
0001
0100
0000
0001
0000
1000
0000
0010
0100
0010
0000
,  // measure 23
1001
0000
0000
0000
0000
0000
0000
0100
,  // measure 24
0110
0000
0000
0000
0000
0000
0001
0000
0100
0000
0000
0010
0100
0000
0010
0000
,  // measure 25
1000
0000
0001
0000
0100
0000
1000
0000
0100
0001
0000
0001
1000
0000
0010
0000
,  // measure 26
0100
0000
0001
0100
0010
0000
1000
0000
0001
0010
0001
0000
0100
0000
0001
0010
,  // measure 27
0001
0000
1000
0000
0100
0000
1000
0000
0001
0100
0000
0001
0100
0000
0010
0000
,  // measure 28
1000
0000
0001
0000
1000
0000
0100
0000
0010
0001
0000
1000
0001
0000
0100
0001
,  // measure 29
1000
0000
0001
0000
0010
0000
0100
0000
1000
0010
0000
0010
1000
0000
0001
0000
,  // measure 30
0100
0000
0001
0000
0010
0000
0001
1000
0100
0000
1000
0000
0001
1000
0002
0000
,  // measure 31
0000
0000
0103
0000
0010
0000
0000
0000
0010
0000
1000
0000
0100
0000
0010
0100
,  // measure 32
0010
0000
0001
0000
1000
0000
0010
0000
1000
0000
0001
0000
0010
0000
0001
0100
,  // measure 33
0001
0001
1000
1000
0001
0001
0110
0000
,  // measure 34
1000
0010
0000
1000
0100
0000
1000
0001
1000
0000
0001
0000
1000
0000
0000
0000
,  // measure 35
1000
0010
0000
1000
0001
0000
0100
0001
0010
0000
0001
0000
0011
0000
0000
0000
,  // measure 36
0001
1000
0000
0100
1000
0000
0100
0001
0000
0001
0100
0000
1000
0000
0000
0000
,  // measure 37
0001
0010
0001
0000
0100
0000
0010
1000
0000
0001
1000
0000
0010
0100
0010
0000
,  // measure 38
1000
0000
0100
0000
0001
0000
0100
1000
0000
0001
1000
0000
0001
1000
0010
0000
,  // measure 39
0100
0010
0000
0100
0010
0000
1000
0001
0100
0000
0001
0000
1000
0000
0000
0000
,  // measure 40
0010
1000
0001
0000
0010
0000
0001
0100
0000
0100
1000
0000
0100
0000
0001
1000
,  // measure 41
0010
0000
0100
0000
1000
0000
0100
0001
0000
1000
0001
0000
0010
0001
0100
0000
,  // measure 42
0010
1000
0010
0000
1000
0000
0100
1000
0000
0001
1000
0000
0010
0100
0001
0000
,  // measure 43
0100
0010
1000
0000
0010
0000
1000
0100
0000
0100
1000
0000
0010
0100
0001
0000
,  // measure 44
0100
0001
0010
0000
0001
0000
1000
0010
0000
1000
0100
0000
0010
0000
0001
0000
,  // measure 45
0100
0000
0000
0100
0001
0000
0000
0001
1000
0000
0000
1000
0010
0000
0000
0000
,  // measure 46
1000
0010
0000
0010
0100
0000
0001
1000
0000
1000
0001
0000
0100
0000
0000
0000
,  // measure 47
0010
1000
0001
0000
1000
0000
0001
0100
0010
0000
0100
0000
0001
0000
0000
0000
,  // measure 48
0010
0000
1000
0000
0010
0000
0001
0100
0000
1000
0100
0000
0001
0000
0000
0000
,  // measure 49
1000
1000
0010
0010
0100
0100
0001
0001
,  // measure 50
1100
0000
0000
0000
,  // measure 51
0000
0000
0000
0000
0000
0000
1000
0010
,  // measure 52
0000
0000
0010
0000
0100
0000
0001
0010
0001
0000
0100
0000
1000
0000
0000
0000
,  // measure 53
1000
0000
0100
0000
0001
0000
0010
0000
0000
0001
0000
0000
1000
0000
0100
1000
,  // measure 54
0001
0000
0100
0000
0001
0000
0010
0000
0000
0000
0010
0000
0100
1000
0001
0000
,  // measure 55
0100
0000
0001
0010
0001
0000
0100
0000
0010
0000
1000
0000
0000
0000
0100
0000
,  // measure 56
0010
0000
0001
0000
1000
0001
0100
0000
0001
1000
0100
1000
0001
0000
0000
0000
,  // measure 57
0100
0000
0010
1000
0001
0000
1000
0000
0010
0000
0000
0000
0010
0000
0100
0000
,  // measure 58
0000
0000
0100
0000
0001
1000
0001
0000
0100
0000
0010
0000
1000
0000
0001
0000
,  // measure 59
0100
0000
0000
0000
0001
0000
1000
0000
0001
0000
0010
0000
0100
1000
0000
1000
,  // measure 60
0100
0010
0001
0000
0100
0010
1000
0001
,  // measure 61
0001
0100
0100
0010
0010
1001
0000
0000
;
