#TITLE:Edge Of Control;
#SUBTITLE:;
#ARTIST:Jondi & Spesh;
#TITLETRANSLIT:;
#SUBTITLETRANSLIT:;
#ARTISTTRANSLIT:;
#GENRE:;
#CREDIT:;
#BANNER:Edge Of Control.png;
#BACKGROUND:Edge Of Control-bg.png;
#LYRICSPATH:;
#CDTITLE:;
#MUSIC:Edge of Control.ogg;
#OFFSET:-0.352000;
#SAMPLESTART:49.855999;
#SAMPLELENGTH:12.500000;
#SELECTABLE:YES;
#DISPLAYBPM:155.000000;
#BPMS:0.000000=155.005005
,224.000000=154.003998
;
#STOPS:
;
#BGCHANGES:;
#KEYSOUNDS:;
#ATTACKS:;

//---------------dance-single - ----------------
#NOTES:
     dance-single:
     :
     Beginner:
     3:
     0.158985,0.216397,0.010305,0.000000,0.000000,108.000000,107.000000,1.000000,0.000000,0.000000,0.000000,0.158985,0.216397,0.010305,0.000000,0.000000,108.000000,107.000000,1.000000,0.000000,0.000000,0.000000:
0000
0000
0000
0000
,
0000
0000
0000
0000
,
0000
0000
0000
0000
,
0000
0000
0000
0000
,
1000
0000
1000
0000
,
0001
0000
0001
0000
,
0100
0000
0000
0000
,
0100
0000
0000
0000
,
0010
0000
0010
0000
,
1000
0000
1000
0000
,
0001
0000
0000
0000
,
0001
0000
0001
0000
,
0100
0000
0100
0000
,
0010
0000
0000
0000
,
0010
0000
1000
0000
,
1000
0000
0000
0000
,
0001
0000
0001
0000
,
0100
0000
0100
0000
,
0010
0000
0010
0000
,
1000
0000
1000
0000
,
0001
0000
0001
0000
,
0100
0000
0100
0000
,
0010
0000
0010
0000
,
1000
0000
1000
0000
,
1001
0000
0001
0000
,
0001
0000
1000
0000
,
1000
0000
0010
0000
,
0010
0000
0001
0000
,
0001
0000
0010
0000
,
0010
0000
1000
0000
,
1000
0000
0001
0000
,
0001
0000
0001
0000
,
1000
0000
0010
0000
,
0100
0000
0001
0000
,
0010
0000
0100
0000
,
1000
0000
0001
0000
,
1000
0000
0001
0000
,
0100
0000
0001
0000
,
0100
0000
0000
0000
,
0010
0000
0010
0000
,
0100
0000
0100
0000
,
0001
0000
0001
0000
,
1000
0000
1000
0000
,
0010
0000
0010
0000
,
0100
0000
0100
0000
,
0001
0000
0001
0000
,
1000
0000
1000
0000
,
0001
0000
0001
0000
,
1000
0000
1000
0000
,
0010
0000
0010
0000
,
0100
0000
0100
0000
,
0001
0000
0001
0000
,
1000
0000
1000
0000
,
0001
0000
0001
0000
,
0010
0000
0010
0000
,
1000
0000
1000
0000
,
0010
0000
0000
0000
,
0010
0000
0000
0000
,
0100
0100
0100
0000
,
0001
0001
0001
0000
,
1000
0000
0000
0000
;

//---------------dance-single - ----------------
#NOTES:
     dance-single:
     :
     Easy:
     4:
     0.214925,0.309138,0.020609,0.494621,0.000000,146.000000,144.000000,2.000000,48.000000,0.000000,0.000000,0.214925,0.309138,0.020609,0.494621,0.000000,146.000000,144.000000,2.000000,48.000000,0.000000,0.000000:
0000
0000
0000
0000
,
0000
0000
0000
0000
,
0000
0000
0000
0000
,
0000
0000
0000
0000
,
1000
1000
0001
0001
,
0100
0000
0100
0000
,
0010
0010
1000
0000
,
1000
1000
0001
0000
,
1001
0000
1000
0010
,
1000
0000
0001
0100
,
0001
0000
0010
0100
,
0010
0000
0001
1000
,
0001
0000
1000
0010
,
1000
0000
0010
0100
,
0010
0000
0100
0001
,
0100
0000
0001
1000
,
0001
0000
1000
0000
,
1000
0000
0010
0000
,
0010
0000
0100
0000
,
0100
0000
0001
0000
,
0001
0000
0010
0000
,
0010
0000
0100
0000
,
0100
0100
1000
1000
,
0010
0010
0001
0001
,
0010
0000
0010
0010
,
1000
0000
1000
1000
,
0001
0000
0001
0001
,
0100
0000
0100
0100
,
1000
0000
1000
1000
,
0010
0000
0010
0010
,
0001
0000
0001
0001
,
0100
0000
0100
0100
,
2000
0000
3020
0000
,
0032
0000
0023
0000
,
2030
0000
3200
0000
,
0302
0000
0023
0000
,
2030
0000
3002
0000
,
0203
0000
0320
0000
,
0230
0000
0302
0000
,
2003
0000
3002
0000
,
0203
0000
0320
0000
,
2030
0000
3020
0000
,
0230
0000
0302
0000
,
2003
0000
3020
0000
,
2030
0000
3002
0000
,
0203
0000
0320
0000
,
0230
0000
0302
0000
,
2003
0000
3020
0000
,
2030
0000
3002
0000
,
0203
0000
0320
0000
,
0230
0000
0302
0000
,
2003
0000
3020
0000
,
2030
0000
3002
0000
,
0203
0000
0320
0000
,
0230
0000
0302
0000
,
2003
0000
3020
0000
,
1030
1000
0001
0001
,
0100
0000
0100
0100
,
0010
0010
1000
1000
,
0001
0001
0100
0100
,
1001
0000
0000
0000
;

//---------------dance-single - ----------------
#NOTES:
     dance-single:
     :
     Medium:
     9:
     0.432793,0.561086,0.267920,0.432793,0.000000,294.000000,268.000000,26.000000,42.000000,0.000000,0.000000,0.432793,0.561086,0.267920,0.432793,0.000000,294.000000,268.000000,26.000000,42.000000,0.000000,0.000000:
0000
0000
0000
0000
,
0000
0000
0000
0000
,
0000
0000
0000
0000
,
0000
0000
0000
0000
,
1000
0000
0100
1000
0100
0000
0010
0000
,
0001
0000
0100
0001
0100
0000
1010
0000
,
0100
0000
0010
0010
0010
0000
0001
0000
,
1000
0000
0001
0001
0001
0000
1000
0000
,
0100
1000
0000
0100
1000
0100
1000
0100
,
1000
0000
0000
0010
0000
0100
0010
0100
,
0010
0100
0000
0000
0010
1000
0010
1000
,
0010
1000
0000
0000
0010
1000
0010
1000
,
0010
0000
0100
0001
,
0011
0000
0010
0100
,
1100
0000
1000
0010
,
0011
0000
0010
1000
,
0100
0001
0000
0100
1000
0100
0000
0000
,
0010
0001
0000
0010
1000
0010
0000
0000
,
0001
0100
0000
1000
0100
0001
0000
0000
,
0100
1000
0000
0100
0001
0100
0000
0000
,
1000
0010
0000
0001
0010
1000
0000
0000
,
0010
0001
0000
0100
1000
0100
0000
0000
,
0001
0010
0100
1000
,
1001
0001
0001
0001
,
2002
3003
1010
0011
,
2020
3030
1100
0101
,
2200
3300
1010
0011
,
0220
0330
1100
0101
,
2200
3300
0011
1010
,
0022
0033
1100
0010
,
2002
3003
1000
0100
,
0022
0033
0100
0010
,
2020
0000
3030
0000
1000
0100
0010
0001
,
2000
0000
0000
0000
3001
0010
0100
1000
,
0002
0000
0000
0000
1003
0100
0001
0100
,
2000
0000
0000
0000
3001
0010
1000
0010
,
0002
0000
0000
0000
0103
0010
1000
0010
,
0200
0000
0000
0000
0301
0010
1000
0010
,
0002
0000
0000
0000
1003
0100
0001
0100
,
2000
0000
0000
0000
3010
0100
0001
0100
,
0020
0000
0000
0000
1030
0100
1000
0100
,
2000
0000
0000
0000
3001
0010
0001
0010
,
0002
0000
0000
0000
0103
0010
0100
0010
,
0100
0000
0000
0000
0010
1000
0010
1000
,
0020
0000
0000
0000
0130
0001
0100
0001
,
0200
0000
0000
0000
0301
1000
0001
1000
,
0002
0000
0000
0000
1003
0010
1000
0010
,
2000
0000
0000
0000
3100
0010
0100
0010
,
0002
0000
0000
0000
0013
0100
0010
0100
,
2000
0000
0000
0000
3100
0001
0100
1000
,
0020
0000
0000
0000
0130
0001
0010
0100
,
2000
0000
0000
0000
3001
0010
0001
0100
,
0020
0000
0000
0000
1030
0100
0001
0100
,
2000
0000
0000
0000
3001
0010
1000
0010
,
0002
0000
0000
0000
0103
0010
1000
0010
,
0200
0000
0000
0000
0310
0100
0001
0100
,
0010
0010
0000
1000
1000
0100
0100
0001
,
0100
0000
0000
1000
0010
0001
0010
1000
,
0001
0001
1000
1000
0010
0010
0100
0100
,
0001
0001
1000
1000
0100
0100
0010
0010
,
2002
0000
3003
0000
;

//---------------dance-double - ----------------
#NOTES:
     dance-double:
     :
     Beginner:
     1:
     0.182539,0.247310,0.030914,0.000000,0.000000,124.000000,121.000000,3.000000,0.000000,0.000000,0.000000,0.182539,0.247310,0.030914,0.000000,0.000000,124.000000,121.000000,3.000000,0.000000,0.000000,0.000000:
00000000
00000000
00000000
00000000
,
00000000
00000000
00000000
00000000
,
00000000
00000000
00000000
00000000
,
00000000
00000000
00000000
00000000
,
00000100
00000000
00000100
00000000
,
00010000
00000000
00010000
00000000
,
00001000
00000000
00001000
00000000
,
00100000
00000000
00100000
00000000
,
01000000
01000000
01000000
00000000
,
10000000
00000000
00000000
00000000
,
00010000
00010000
00010000
00000000
,
00100000
00000000
00000000
00000000
,
00001000
00000000
00010000
00000000
,
00000100
00000000
00001000
00000000
,
00000010
00000010
00000010
00000000
,
00001000
00000000
00000000
00000000
,
00000001
00000000
00000100
00000000
,
00001000
00000000
00010000
00000000
,
00100000
00000000
10000000
00000000
,
00010000
00000000
00100000
00000000
,
00001000
00001000
00000000
00010000
,
00010000
00010000
00000000
00000100
,
00000100
00000000
00010000
00000000
,
00001000
00001000
00001000
00000000
,
00011000
00000000
00000000
00000000
,
00000000
00000000
00000000
00000000
,
00000110
00000000
00000000
00000000
,
00000000
00000000
00000000
00000000
,
00000010
00000000
00001000
00000000
,
00000100
00000000
00010000
00000000
,
00001000
00000000
00100000
00000000
,
00010000
00000000
10000000
00000000
,
01000000
00000000
01000000
00000000
,
00100000
00000000
00100000
00000000
,
00001000
00000000
00010000
00010000
,
00010000
00000000
00000100
00000000
,
00001000
00000000
00000010
00000000
,
00000100
00000000
00000001
00000000
,
00001000
00001000
00001000
00000000
,
00000100
00000000
00010000
00000000
,
00001000
00000000
01000000
00000000
,
00010000
00000000
00010000
00000000
,
00100000
00000000
00100000
00000000
,
01000000
01000000
01000000
00000000
,
10000000
00000000
00010000
00000000
,
00100000
00000000
00001000
00000000
,
00010000
00000000
00000010
00000000
,
00001000
00001000
00001000
00000000
,
00000001
00000000
00000100
00000000
,
00000010
00000010
00000010
00000000
,
00001000
00000000
00000100
00000000
,
00010000
00010000
00010000
00000000
,
00001000
00000000
00100000
00000000
,
00010000
00010000
00010000
00000000
,
01000000
01000000
01000000
00000000
,
00100000
00100000
00100000
00000000
,
01000000
00000000
00010000
00000000
,
00100000
00000000
00001000
00000000
,
00010000
00010000
00010000
00000000
,
00001000
00001000
00001000
00000000
,
00011000
00000000
00000000
00000000
;

//---------------dance-double - ----------------
#NOTES:
     dance-double:
     :
     Easy:
     3:
     0.207564,0.313002,0.061828,0.247311,0.000000,141.000000,135.000000,6.000000,24.000000,0.000000,0.000000,0.207564,0.313002,0.061828,0.247311,0.000000,141.000000,135.000000,6.000000,24.000000,0.000000,0.000000:
00000000
00000000
00000000
00000000
,
00000000
00000000
00000000
00000000
,
00000000
00000000
00000000
00000000
,
00000000
00000000
00000000
00000000
,
10000000
00000000
00010000
00010000
,
00000000
00000000
00100000
00100000
,
00000000
00000000
00001000
00001000
,
00020000
00030000
00002000
00003000
,
00010000
00010000
00000000
00000000
,
00000100
00000100
00000000
00001000
,
00000001
00000001
00000000
00000000
,
00001000
00001000
00000000
00000010
,
00000100
00000100
00000000
00000000
,
00001000
00001000
00000000
00010000
,
00100000
00100000
00000000
00000000
,
01000000
01000000
00000000
00010000
,
10000000
00000000
20000000
30000000
,
00010000
00000000
02000000
03000000
,
00010000
00000000
00200000
00300000
,
00001000
00010000
00001000
00000000
,
00000100
00000000
00000002
00000003
,
00001000
00000000
00000200
00000300
,
00000010
00000000
00000100
00000000
,
00001000
00000001
00001000
00000001
,
00002002
00000000
00000000
00003003
,
00000200
00000000
00000000
00000300
,
00002000
00000000
00000000
00003000
,
00020000
00000000
00000000
00030000
,
00200000
00300000
01000000
00000000
,
00200000
00300000
00010000
00000000
,
00200000
00300000
10000000
00000000
,
02000000
03000000
00010000
00000000
,
00011000
00000000
00001000
00001000
,
00000100
00000000
00000010
00000010
,
00000100
00000000
00000001
00000001
,
00000100
00000000
00001000
00000000
,
00011000
00000000
00010000
00010000
,
00100000
00000000
01000000
01000000
,
00100000
00000000
10000000
10000000
,
00100000
00000000
00010000
00000000
,
00011000
00000000
00001000
00000000
,
00000010
00000000
00000001
00000010
,
00000200
00000300
00001000
00000000
,
00000010
00000000
00000001
00000010
,
00000200
00000300
00001000
00000000
,
00020000
00030000
00100000
00000000
,
20000000
30000000
01000000
00000000
,
00020000
00030000
00002000
00003000
,
00011000
00000000
00010000
00000000
,
00001000
00000000
00000100
00000100
,
00000001
00000000
00000100
00000100
,
00001000
00000000
00010000
00001000
,
00010000
00000000
01000000
00000000
,
10000000
00000000
00100000
00100000
,
01000000
00000000
00100000
00100000
,
00010000
00000000
00001000
00010000
,
00001000
00000000
00000000
00000100
,
00000001
00000000
00000000
00000100
,
00001000
00000100
00000001
00000100
,
00001000
00010000
00001000
00010000
,
00022000
00000000
00000000
00033000
;

//---------------dance-double - ----------------
#NOTES:
     dance-double:
     :
     Medium:
     5:
     0.362133,0.432793,0.226701,0.432793,0.000000,246.000000,224.000000,22.000000,42.000000,0.000000,0.000000,0.362133,0.432793,0.226701,0.432793,0.000000,246.000000,224.000000,22.000000,42.000000,0.000000,0.000000:
00000000
00000000
00000000
00000000
,
00000000
00000000
00000000
00000000
,
00000000
00000000
00000000
00000000
,
00000000
00000000
00000000
00000000
,
00000010
00000000
00000100
00000010
00000010
00000000
00001000
00000000
,
00000100
00000000
00001000
00000100
00000100
00000000
00000010
00000000
,
00000001
00001000
00000200
00000000
00000300
00000000
00010000
00000000
,
00001000
00100000
00020000
00000000
00030000
00000000
10000000
00000000
,
00010000
10000000
00000000
10000000
00010000
00000000
00100000
00000000
,
01000000
10000000
00000000
10000000
01000000
00000000
00010000
00000000
,
00001000
00010000
00000100
00000000
00001000
00000000
00000100
00000000
,
00010000
00001000
00100000
00000000
00010000
00000000
00100000
00000000
,
00001000
00010000
00000000
00010000
00001000
00000000
00000100
00000000
,
00000010
00000100
00000000
00000100
00000010
00000000
00001000
00000000
,
00000010
00000100
00000001
00000000
00000100
00000000
00000001
00000000
,
00000010
00000100
00001000
00000000
00000100
00000000
00001000
00000000
,
00000100
00010000
00000000
00002000
00000000
00000000
00003000
00000000
,
01000000
00010000
00000000
20000000
00000000
00000000
30000000
00000000
,
00100000
01000000
00000000
00020000
00000000
00000000
00030000
00000000
,
00100000
00001000
00000000
00020000
00000000
00000000
00030000
00001000
,
00010000
00001000
00000000
00000200
00000000
00000000
00000300
00000001
,
00000100
00000001
00000000
00000020
00000000
00000000
00000030
00000100
,
00010000
00000000
00001000
00010000
00000000
00001000
00100000
00000000
,
00010000
01000000
00000000
00100000
10000000
00000000
01000000
00100000
,
02000000
00000000
03000000
10010000
,
00200000
00000000
00300000
00011000
,
00002000
00000000
00003000
00000110
,
00000002
00000000
00001003
00001001
,
00000001
00000011
00000010
00001010
,
00001000
00011000
00010000
00110000
,
00100000
10100000
10000000
11000000
,
01000000
01100000
00100000
00110000
,
00020000
00000000
10030000
00100000
,
00020000
00000000
00130000
00010000
,
00002000
00000000
00013000
00001000
,
00000200
00000000
00000300
00000000
00000001
00000001
00001000
00001000
,
00000200
00000000
00000310
00000001
,
00000200
00000000
00000301
00000100
,
00002000
00000000
00003100
00001000
,
00020000
00000000
00000000
00000000
00031000
00001000
00010000
00010000
,
00200000
00000000
10300000
01000000
,
00200000
00000000
00310000
01000000
,
00002000
00000000
00013000
00000100
,
00002000
00000000
00003000
00000000
00000010
00000010
00000100
00000100
,
00000001
00000011
00000010
00000110
,
00000100
00011000
00000100
00011000
,
00010000
01010000
01000000
11000000
,
10000000
00110000
10000000
00110000
,
20020000
00000000
30030000
00000000
00100000
00010000
01000000
00000000
,
20000000
00000000
30000000
00000000
01000000
00010000
00100000
00000000
,
00002000
00000000
00003000
00000000
00010000
00000100
00001000
00000000
,
00000020
00000000
00000030
00000000
00000100
00000001
00000010
00000001
,
00000200
00000000
00000300
00000000
00000010
00001000
00000100
00000000
,
00000002
00000000
00000003
00000000
00000100
00001000
00000010
00000000
,
00020000
00000000
00030000
00000000
00001000
01000000
00010000
00000000
,
00200000
00000000
00300000
00000000
01000000
10000000
00100000
10000000
,
01000000
20000000
00000000
00000000
00000000
30010000
00000000
01000000
,
00100000
00020000
00000000
00000000
00000000
00031000
00000000
00010000
,
00002000
00003200
00000320
00000230
,
00002300
00023000
00230000
01300000
,
01100000
00000000
00000000
00000000
;

//---------------dance-double - ----------------
#NOTES:
     dance-double:
     :
     Hard:
     7:
     0.537311,0.558767,0.257615,0.206092,0.000000,365.000000,340.000000,25.000000,20.000000,0.000000,0.000000,0.537311,0.558767,0.257615,0.206092,0.000000,365.000000,340.000000,25.000000,20.000000,0.000000,0.000000:
00000000
00000000
00000000
00000000
,
00000000
00000000
00000000
00000000
,
00000000
00000000
00000000
00000000
,
00000000
00000000
00000000
00000000
,
00100000
00011000
01000000
00011000
,
00000010
00011000
00000100
00011000
,
00100000
10010000
01000000
00011000
,
00000010
00001001
00000100
00011000
,
00022000
00000000
00033000
00000000
00010000
01000000
10000000
00010000
,
10000000
10000000
00000000
00100000
00010000
00100000
10000000
00010000
,
10000000
10000000
00000000
01000000
00010000
00001000
00000100
00000010
,
00000100
00000100
00000000
00001000
00010000
01000000
00010000
00001000
,
00010000
00010000
00000000
00000100
00001000
00000010
00000100
00000001
,
00001000
00001000
00000000
00000001
00000100
00000010
00001000
00000100
,
00001000
00001000
00000000
00000100
00010000
00001000
00100000
00010000
,
00100000
00100000
00000000
01000000
00100000
01000000
00010000
00001000
,
00010000
00010000
00000000
00001000
00000100
00000100
00000001
00000100
,
00000010
00000010
00000000
00001000
00000010
00000010
00001000
00000100
,
00010000
00010000
00000000
00001000
01000000
01000000
00100000
10000000
,
00100000
00100000
00000000
10000000
01000000
01000000
00100000
00010000
,
00100000
00100000
00000000
00001000
00010000
00010000
00000010
00000100
,
00000010
00000010
00000000
00001000
00000001
00000001
00000100
00000010
,
00001000
00000100
00000100
00000100
00010000
00010000
00010000
00001000
,
00001000
00001000
01000000
01000000
01000000
00100000
00100000
00100000
,
10010000
00000000
01000000
00000000
10010000
00000000
00100000
00010000
,
02000000
00000000
00100000
00000000
03010000
00000000
01000000
00001000
,
00011000
00000000
00100000
00000000
00011000
00000000
00000100
00001000
,
00000020
00000000
00000100
00000000
00001030
00000000
00000010
00010000
,
00011000
00000000
00000010
00000000
00011000
00000000
01000000
00100000
,
00010000
00000000
10010000
00000000
01000000
00000000
00100000
10000000
,
01000000
00000000
00110000
00000000
01000000
00000000
00010000
00001000
,
00000100
00000000
00000101
00000000
00001000
00000000
00000001
00000010
,
00002000
00000000
00000000
00003000
00010000
00001000
00010000
00001000
,
02000000
00000000
00000000
03000000
00100000
01000000
00100000
01000000
,
00002000
00000000
00000000
00003000
00010000
00001000
00010000
00001000
,
00000200
00000000
00000000
00000300
00000010
00000100
00000010
00000100
,
00000002
00000000
00002003
00000000
00003010
00001000
00000100
00000010
,
00002000
00000000
00023000
00000000
00031000
00010000
00100000
01000000
,
00020000
00000000
20030000
00000000
31000000
10000000
00100000
01000000
,
20000000
00000000
32000000
00000000
03100000
00010000
00001000
00000100
,
00000020
00000000
00000032
00000000
00000013
00001000
00000100
00000010
,
00000001
00000000
00000000
00000000
00000100
00001000
00010000
00100000
,
10000000
00000000
00000000
00000000
00001000
00010000
00100000
01000000
,
10000000
00000000
00000000
00000000
01000000
00010000
00001000
00000010
,
00000001
00000000
00001000
00000000
00010000
00001000
00000010
00000100
,
00000001
00000000
00001000
00000000
00000100
00001000
00010000
01000000
,
10000000
00000000
00010000
00000000
00001000
00010000
00100000
01000000
,
10000000
00000000
00010000
00000000
01000000
00100000
00010000
00001000
,
00000100
00000000
00000101
00000000
00000010
00000100
00000001
00000010
,
00000100
00000000
00001100
00000000
00010000
00001000
00100000
00010000
,
01000000
00000000
10100000
00000000
01000000
00010000
00100000
01000000
,
10000000
00000000
11000000
00000000
00100000
00010000
01000000
00001000
,
00010000
00010000
00010000
00000000
00001000
00010000
00000100
00001000
,
00000010
00000010
00001001
00000000
00000001
00000010
00000001
00000100
,
00001000
00001000
00001000
00000000
00010000
00001000
00100000
00010000
,
01000000
01000000
10010000
00000000
00100000
00100000
00100000
00100000
,
10000000
00010000
00000000
10000000
00010000
10000000
01000000
00010000
,
00001000
00001000
00000000
00010000
00001000
00000100
00000001
00001000
,
00000100
00000100
00010000
00010000
00001000
00001000
01000000
01000000
,
00001000
00001000
00010000
00010000
00000010
00000010
00010000
00010000
,
00022000
00033000
00000000
00000000
;

//---------------dance-single - ----------------
#NOTES:
     dance-single:
     :
     Hard:
     12:
     0.566753,0.592257,0.072132,0.288529,0.170026,385.000000,378.000000,7.000000,28.000000,0.000000,0.000000,0.566753,0.592257,0.072132,0.288529,0.170026,385.000000,378.000000,7.000000,28.000000,0.000000,0.000000:
// measure 0
0000
0000
0000
0000
,  // measure 1
0000
0000
0000
0000
,  // measure 2
0000
0000
0000
0000
,  // measure 3
0000
0000
0000
0000
,  // measure 4
0001
0000
0100
0100
0010
0000
1010
0000
,  // measure 5
1000
0000
0000
0000
0001
0000
0100
0001
0100
0000
0000
0000
0010
0000
0010
0000
,  // measure 6
1001
0000
0000
0000
0001
0000
0100
0000
0010
0100
0000
0000
0010
0000
0010
0000
,  // measure 7
1000
0000
0000
0000
1001
0000
0000
0000
0001
0100
0000
0000
0010
0100
0010
0000
,  // measure 8
1000
0001
0000
0100
0001
0010
0100
1000
,  // measure 9
0010
0000
0010
0000
0000
0000
0100
0000
0001
0000
1000
0000
0001
0000
0010
0100
,  // measure 10
1000
0001
0000
0100
0010
1000
0010
0100
,  // measure 11
0001
0100
0000
0001
1000
0010
1000
0010
,  // measure 12
0100
0001
0000
0100
0010
1000
0010
0100
,  // measure 13
0010
0000
1000
0000
0000
0000
0001
0000
0100
0000
0010
0000
0100
0000
0001
0100
,  // measure 14
0001
0000
1000
0000
0000
0000
0010
0000
1000
0000
0001
0000
1000
0000
0010
0100
,  // measure 15
0010
0000
0100
0000
0000
0000
0010
0100
0001
0000
1000
0000
0001
0100
0010
0000
,  // measure 16
0100
0100
0010
1000
0010
0100
0000
0001
,  // measure 17
0100
0001
0000
1000
0010
0100
0010
1000
,  // measure 18
0001
0100
0000
0001
0100
1000
0100
1000
,  // measure 19
0100
0001
0000
1000
0100
0010
0001
1000
,  // measure 20
0010
1000
0000
0010
0100
0001
1000
0001
,  // measure 21
0100
0000
0010
0000
0000
0000
1000
0000
0100
0000
0010
0000
0001
0000
1000
0100
,  // measure 22
0010
0010
0001
0001
0010
0010
0100
0100
,  // measure 23
1000
1000
0100
0100
0001
0001
0100
0100
,  // measure 24
2001
0000
0000
0000
0000
0000
0000
0000
3001
0010
0000
0001
0100
0000
0010
0000
,  // measure 25
2000
0000
0000
0000
3001
0000
0000
0000
0001
0100
0000
0001
1000
0000
0010
0000
,  // measure 26
2000
0000
0000
0000
3010
0000
0000
0000
0010
0100
0000
0001
0100
0000
0010
0000
,  // measure 27
2000
0000
0000
0000
3001
0000
0000
0000
0100
0010
0000
1000
0010
0000
0100
0000
,  // measure 28
0002
0000
0000
0000
1003
0000
0000
0000
0010
0100
0000
0001
0100
0000
0010
0000
,  // measure 29
0200
0000
0000
0000
0301
0000
0000
0000
0010
0100
0000
0010
1000
0000
0010
0000
,  // measure 30
0002
0000
0000
0000
0103
0000
0000
0000
0010
1000
0000
0010
0100
0000
0001
0000
,  // measure 31
0200
0000
0000
0000
0310
0000
0000
0000
0100
0001
0100
0000
0010
0000
1000
0000
,  // measure 32
0102
0100
0000
0100
0103
0010
0010
1000
,  // measure 33
1000
0000
0001
0000
0000
0000
0100
0000
0100
0000
0010
0000
0010
0000
1000
0001
,  // measure 34
1000
0001
0000
0100
0010
0010
0010
0010
,  // measure 35
1000
0000
1002
0000
0000
0000
0000
0000
0010
0000
0010
0000
0010
0000
0013
0100
,  // measure 36
0010
2000
0000
0000
3001
0001
0100
0100
,  // measure 37
0020
0000
0000
0000
0000
0000
0000
0000
1030
0000
1000
0000
1000
0000
0001
0100
,  // measure 38
0002
0000
0100
0000
0000
0000
0000
0000
0103
0000
0100
0000
0100
0000
0010
1000
,  // measure 39
0010
1000
0000
0000
0001
0100
1000
0100
,  // measure 40
0002
0000
0000
0000
1003
0010
0001
0010
,  // measure 41
2000
0000
0000
0000
3001
0010
1000
0010
,  // measure 42
0002
0000
0000
0000
0103
0010
1000
0010
,  // measure 43
0200
0000
0000
0000
0301
0010
0100
0010
,  // measure 44
0002
0000
0000
0000
1003
0100
0010
0100
,  // measure 45
2000
0000
0000
0000
3001
0100
1000
0100
,  // measure 46
0002
0000
0000
0000
1003
0010
0001
0010
,  // measure 47
2000
0000
0000
0000
0000
0000
0000
0000
3010
0000
0100
0000
0001
0100
0001
0100
,  // measure 48
0010
0100
0000
0000
0010
0010
1000
1000
,  // measure 49
0002
0000
0000
0000
0103
0100
0010
0010
,  // measure 50
2000
0001
0000
0000
3010
0010
0100
0100
,  // measure 51
0002
1000
0000
0010
0013
0100
0100
0001
,  // measure 52
0001
1000
0000
0010
0100
0001
0100
0010
,  // measure 53
1000
0010
0000
0100
0001
1000
0001
0100
,  // measure 54
0020
0000
0000
0000
1030
1000
0001
0001
,  // measure 55
0200
0000
0000
0000
0000
0000
0000
0000
0310
1000
0010
0000
0010
1000
0010
0000
,  // measure 56
1000
0001
0000
1000
0001
0100
0001
0010
,  // measure 57
0100
1000
0000
0010
0100
0010
1000
0100
,  // measure 58
0001
0001
0100
0100
1000
1000
0001
0001
,  // measure 59
0100
0100
0010
0010
1000
1000
0001
0001
,  // measure 60
0202
0000
0303
0000
;

//---------------dance-single - ----------------
#NOTES:
     dance-single:
     :
     Challenge:
     14:
     0.694825,0.803759,0.309138,0.237006,0.515230,472.000000,442.000000,30.000000,23.000000,76.000000,0.000000,0.694825,0.803759,0.309138,0.237006,0.515230,472.000000,442.000000,30.000000,23.000000,76.000000,0.000000:
0000
0000
0000
0000
,
0000
0000
0000
0000
,
0000
0000
0000
0000
,
0000
0000
0000
0000
,
1000
0000
0010
0010
0101
0000
MMMM
0000
,
1001
0000
0000
0000
0001
0000
0100
0001
0100
0001
1000
0000
MMMM
0000
0100
0000
,
1001
0000
0000
0000
0001
0000
0100
0000
0010
1000
0010
0000
0100
0000
0001
0000
,
1001
0000
0000
0000
MMMM
0000
0000
0100
0001
0100
0000
0000
0001
1000
0001
0100
,
0010
0000
1100
0000
0000
0000
0100
0000
0001
0010
0001
0000
0100
0000
1000
0000
,
0100
0000
MMMM
0000
0000
0000
0100
0000
0010
0000
1000
0000
0010
0000
0100
0001
,
1000
0000
0001
0000
0000
0000
1000
0000
0100
0000
0010
0000
1000
0000
0010
0001
,
0010
0000
0100
0000
0000
0000
1000
0000
0001
0000
0010
0000
0001
1000
0010
0000
,
1000
0000
0001
0000
0000
0000
0100
0000
0010
1000
0001
0000
0010
0000
0100
0000
,
MMMM
0000
0001
0000
0000
0000
0001
0000
1000
0000
0010
0000
1000
0000
0001
0100
,
0010
0000
1000
0000
0000
0000
0010
0000
0100
0000
0001
0000
0010
0000
0100
1000
,
0100
0000
0010
0000
0000
0000
0001
1000
0100
0000
1000
0000
0001
0100
0010
0000
,
1000
1010
MMMM
0001
0010
0100
1000
0001
,
0100
0000
MMMM
0000
1000
0000
0001
0000
0010
0000
0100
0000
0010
0000
0001
1000
,
0010
0100
0000
0001
0100
1000
0100
0001
,
1000
0000
1001
0000
0000
0000
1000
0000
0100
0000
0010
0000
0001
1000
0001
0000
,
0010
0011
0000
0010
0100
1000
0001
MMMM
,
0010
0000
0100
0000
0000
0000
0100
0000
0001
0000
0010
0000
0100
0000
1000
0100
,
0010
0010
0100
0100
0010
MMMM
1000
1000
,
0001
0001
0100
MMMM
0010
0010
0001
0001
,
2002
0000
0000
0000
0000
0000
3003
0000
0001
0100
0000
0001
0100
0000
0010
0000
,
1000
0001
0000
1000
0001
0000
0000
0000
0001
0100
0000
0001
1000
0000
0010
0000
,
1000
0100
0000
0010
0001
0000
0100
0000
0010
0100
0000
0001
0100
0000
0010
0000
,
1000
0100
0000
1000
0001
0000
0000
0100
0000
0100
0000
0010
1000
0000
0100
0000
,
2100
0000
0000
0000
3001
0000
0000
0000
0010
1000
0000
0001
1000
0000
0010
0000
,
1000
0010
0000
1000
0001
0000
0000
0000
0010
0100
0000
0010
1000
0000
0010
0000
,
0002
0000
0100
0000
0103
0000
0000
0000
0010
1000
0000
0010
0100
0000
0001
0000
,
0200
0000
0010
0000
0310
0000
0000
0000
0100
0001
0100
0000
0010
0000
1000
0000
,
0101
0100
MMMM
0100
0100
0010
0010
1000
,
1000
0000
MMMM
0000
0000
0000
0100
0000
0100
0000
0010
0000
0010
0000
1000
0001
,
1000
MMMM
0000
0100
0010
0010
1100
1000
,
0001
0000
1002
0000
0000
0000
0000
0000
0010
0000
0010
0000
0013
0100
0010
0100
,
0010
0100
2000
0000
0000
0000
0000
0000
3001
0000
0001
0000
1000
0010
0100
0000
,
0020
0000
0100
0000
0000
0000
0000
0000
1030
0000
1000
0000
1000
0000
0001
0100
,
0020
0000
0100
0000
0000
0000
0000
0000
0130
0000
0100
0000
0001
1000
0010
1000
,
0010
0000
MMMM
0000
0000
0000
0000
0000
0001
0000
0010
0000
0100
1000
0010
1000
,
0200
0000
0010
0000
0000
0000
0010
0000
0301
1000
0010
0000
1010
0000
0010
0000
,
2010
0000
0010
0000
0000
0000
0000
0000
3100
0001
0010
0000
0001
0000
1000
0000
,
1002
0000
1000
0000
0000
0000
0000
0000
0103
0010
0001
0000
1000
0000
0010
0000
,
0210
0000
0010
0000
0000
0000
0000
0000
0310
1000
0010
1000
0100
0010
0100
0010
,
0002
0000
0000
0000
0000
0000
0000
0000
0103
0010
0100
0010
1000
0001
1000
0001
,
2000
0000
0000
0000
0000
0000
0000
0000
3001
0100
0001
0100
0010
1000
0010
1000
,
0002
0000
0000
0000
0000
0000
0000
0000
1003
0100
1000
0100
0010
0001
0010
0001
,
2000
0000
0001
0000
0000
0000
0000
0000
3100
0000
0110
0000
0010
0001
1000
0100
,
0010
0000
MMMM
0000
0000
0000
0000
0000
0010
0100
0010
0000
1000
0001
1000
0000
,
2020
0000
0000
0000
0000
0000
3030
0000
0100
0001
0100
0001
0010
0100
0010
0100
,
2000
0000
0100
0000
0000
0000
0000
0000
3010
0001
0010
0001
0100
0010
0100
0010
,
2000
0000
0000
0010
3100
0101
0100
0001
,
0011
1001
0000
0010
0100
0001
0010
0100
,
1000
0010
1000
0000
0000
0000
0100
0000
0010
0001
0010
0100
1000
0100
0010
0001
,
0020
0000
0001
0000
0000
0000
0000
0000
0130
0001
0100
0010
0100
1000
0100
0001
,
0200
0000
0010
0000
0000
0000
0000
0000
1300
0100
0010
0001
1000
0100
0010
0001
,
0100
0000
MMMM
0000
0000
0000
1000
0000
0001
0100
0001
0000
MMMM
0000
0010
0000
,
0100
0000
0001
0000
MMMM
0000
0010
0000
0100
0001
0100
0000
0010
1000
0100
0000
,
1001
0001
0110
0010
1100
1000
0011
0001
,
0110
0100
1010
0010
1001
1000
0101
0001
,
MMMM
0000
0000
0000
;
