#VERSION:0.83;
#TITLE:EVOLUTION;
#SUBTITLE:;
#ARTIST:TËЯRA;
#TITLETRANSLIT:;
#SUBTITLETRANSLIT:;
#ARTISTTRANSLIT:;
#GENRE:;
#ORIGIN:;
#CREDIT:;
#BANNER:EVOLUTION.png;
#BACKGROUND:EVOLUTION-bg.png;
#PREVIEWVID:;
#JACKET:EVOLUTION-jacket.png;
#CDIMAGE:;
#DISCIMAGE:;
#LYRICSPATH:;
#CDTITLE:;
#MUSIC:EVOLUTION.ogg;
#OFFSET:-1.629998;
#SAMPLESTART:37.051868;
#SAMPLELENGTH:15.000001;
#SELECTABLE:YES;
#DISPLAYBPM:82.500000:165.000000;
#BPMS:0.000=82.500,
15.000=165.000,
180.000=82.500,
189.000=167.000,
204.000=165.000;
#STOPS:15.000=0.182,
15.500=0.182,
180.000=0.727;
#DELAYS:;
#WARPS:;
#TIMESIGNATURES:0.000=4=4;
#TICKCOUNTS:0.000=4;
#COMBOS:0.000=1;
#SPEEDS:0.000=1.000=0.000=0;
#SCROLLS:0.000=1.000;
#FAKES:;
#LABELS:0.000=Song Start;
#BGCHANGES:;
#KEYSOUNDS:;
#ATTACKS:
;

//---------------dance-single - ----------------
#NOTEDATA:;
#CHARTNAME:;
#STEPSTYPE:dance-single;
#DESCRIPTION:;
#CHARTSTYLE:;
#DIFFICULTY:Easy;
#METER:7;
#RADARVALUES:0.287197,0.414588,0.025025,0.175178,0.000000,241.000000,238.000000,3.000000,21.000000,0.000000,0.000000,0.000000,0.000000,0.000000,0.287197,0.414588,0.025025,0.175178,0.000000,241.000000,238.000000,3.000000,21.000000,0.000000,0.000000,0.000000,0.000000,0.000000;
#CREDIT:;
#DISPLAYBPM:82.500000:165.000000;
#NOTES:
0000
0000
0000
0000
,
0000
0000
0000
0000
,
1001
1000
0010
0100
,
0110
0010
1000
0001
,
1000
0001
1000
0000
,
0001
0010
0001
0000
,
0100
0010
0000
0000
,
0100
0010
0100
0000
,
0010
1000
0010
0000
,
1000
0100
0010
0000
,
0001
0100
0010
0100
,
0001
0000
1000
0000
,
0010
0100
0010
0000
,
1000
0100
1000
0000
,
0001
0010
0001
0000
,
1000
1000
1000
0000
,
0001
0001
0100
0000
,
0010
0010
0100
0000
,
0100
0100
0010
0010
,
1000
0000
0001
0000
,
1000
0000
0001
0000
,
0100
0010
0100
0001
,
0010
0000
0001
0100
,
0020
0000
0130
0010
,
1000
0010
0100
0001
,
0010
0001
0100
0010
,
1000
0010
0100
0001
,
0010
0001
1000
0100
,
1000
0010
0100
0010
,
1000
0100
1000
0100
,
0010
0001
0010
0001
,
0100
0010
0100
0010
,
1000
0000
0001
0000
,
1000
0001
1000
0001
,
0010
0001
0010
0100
,
1000
0000
0100
1000
,
0010
0100
0010
1000
,
0200
0000
0320
0000
,
0031
0100
2000
0000
,
3200
0000
0302
0000
,
0013
1000
0020
0000
,
0032
0000
0103
0100
,
1000
0100
0001
0000
,
0200
0000
2300
0000
,
3020
0000
0032
0000
,
1003
0000
1000
0000
0001
1000
0001
0000
,
0100
0010
0100
0000
0010
1000
0010
1000
,
0001
0100
0001
0000
0001
0000
1000
0000
,
1000
0010
0010
0100
,
0100
0010
0010
1000
,
1000
0001
0100
0010
,
0100
0001
1000
0001
,
0100
0010
0100
0001
,
1000
0001
1000
0001
,
0010
0002
0000
0013
,
0010
0100
0100
1000
,
0001
1000
0010
0100
,
0010
2000
3001
0100
,
0010
0200
0301
0010
,
0001
0100
0010
0100
,
0001
0010
0001
1000
,
0100
1000
0010
0100
,
0010
2000
3000
0002
,
0003
0100
0010
0100
,
0001
0010
0001
1000
,
0010
0200
0300
0020
,
0030
2000
3000
0002
,
0003
1000
0000
0100
,
1000
0100
0010
0001
,
0010
0100
1000
1000
,
0001
0001
1000
0001
,
1001
0000
0000
0000
;

//---------------dance-single - ----------------
#NOTEDATA:;
#CHARTNAME:;
#STEPSTYPE:dance-single;
#DESCRIPTION:;
#CHARTSTYLE:;
#DIFFICULTY:Beginner;
#METER:3;
#RADARVALUES:0.159686,0.266521,0.008342,0.000000,0.000000,134.000000,133.000000,1.000000,0.000000,0.000000,0.000000,0.000000,0.000000,0.000000,0.159686,0.266521,0.008342,0.000000,0.000000,134.000000,133.000000,1.000000,0.000000,0.000000,0.000000,0.000000,0.000000,0.000000;
#CREDIT:;
#DISPLAYBPM:82.500000:165.000000;
#NOTES:
0000
0000
0000
0000
,
0000
0000
0000
0000
,
1000
0001
1000
0010
,
1000
0100
1000
0001
,
0000
0000
0001
0000
,
1000
0000
0001
0000
,
0100
0000
0010
0000
,
0100
0000
0100
0000
,
0010
0000
0010
0000
,
1000
0000
1000
0000
,
0001
0000
0001
0000
,
0100
0000
0100
0000
,
0010
0000
0010
0000
,
1000
0000
1000
0000
,
0001
0000
0001
0000
,
0100
0000
0010
0000
,
1000
0000
0010
0000
,
0100
0000
0001
0000
,
0100
0000
0100
0000
,
0010
0000
1000
0000
,
0010
0000
0000
0000
,
0100
0000
0001
0000
,
0100
0000
0010
0000
,
1000
0000
1000
0000
,
0001
0000
0000
0000
,
0001
0000
0000
0000
,
0010
0000
0000
0000
,
0001
0000
0000
0000
,
0100
0000
0000
0000
,
0010
0000
0000
0000
,
0100
0000
0000
0000
,
0010
0000
0000
0000
,
1000
0000
1000
0000
,
0001
0000
0001
0000
,
0100
0000
0100
0000
,
0010
0000
0000
0000
,
0010
0000
0000
0000
,
0010
0000
1000
0000
,
0010
0000
0100
0000
,
0010
0000
1000
0000
,
0001
0000
1000
0000
,
0001
0000
0010
0000
,
0001
0000
0100
0000
,
0010
0000
0010
0000
,
0010
0000
0010
0000
,
0001
1000
0001
0010
,
0001
1000
1000
0001
,
0001
0100
0000
0100
,
0000
0010
0000
0010
,
0000
1000
0000
1000
,
0000
1001
0000
0000
,
0001
0000
0000
1000
,
0000
1000
0000
0010
,
0000
0010
0000
0100
,
0000
0100
0000
0001
,
0000
0001
0000
1000
,
0000
1000
0000
0010
,
0000
0010
0000
0100
,
0000
0100
0000
0001
,
0000
0001
0000
0000
,
0000
1000
0000
1000
,
0000
0010
0000
0010
,
0000
0100
0000
0100
,
0000
0001
0000
0001
,
0000
0010
0000
0010
,
0000
0100
0000
0000
,
0000
1000
0000
1000
,
0000
0001
0000
1000
,
0000
0001
0000
0010
,
0000
0001
0000
0001
,
0000
0001
0000
1000
,
1000
0000
0000
0000
;

//---------------dance-single - ----------------
#NOTEDATA:;
#CHARTNAME:;
#STEPSTYPE:dance-single;
#DESCRIPTION:;
#CHARTSTYLE:;
#DIFFICULTY:Medium;
#METER:10;
#RADARVALUES:0.377765,0.566618,0.141811,0.133469,0.000000,317.000000,300.000000,17.000000,16.000000,0.000000,0.000000,0.000000,0.000000,0.000000,0.377765,0.566618,0.141811,0.133469,0.000000,317.000000,300.000000,17.000000,16.000000,0.000000,0.000000,0.000000,0.000000,0.000000;
#CREDIT:;
#DISPLAYBPM:82.500000:165.000000;
#NOTES:
// measure 0
0000
0000
0000
0000
,  // measure 1
0000
0000
0000
0000
,  // measure 2
1001
0001
0100
0010
0100
0001
0010
0001
,  // measure 3
1000
0100
0010
0001
1000
1000
1001
0001
,  // measure 4
0100
0010
0100
0010
,  // measure 5
1000
0100
1000
0001
,  // measure 6
0010
0001
0100
0010
,  // measure 7
0100
0010
0100
0000
0010
0000
1000
0000
,  // measure 8
0100
0001
0100
1000
,  // measure 9
0010
0001
0010
1000
,  // measure 10
0001
0000
0100
0000
0010
0000
0100
0010
,  // measure 11
0100
0010
1000
0100
,  // measure 12
1000
0001
0101
0100
,  // measure 13
0010
1000
1001
0010
,  // measure 14
0100
0010
1000
0100
,  // measure 15
1000
0001
0010
0000
,  // measure 16
0001
0100
0010
0100
,  // measure 17
0001
1000
0100
1000
,  // measure 18
0010
0000
0100
0010
,  // measure 19
1000
0010
0100
0001
,  // measure 20
1001
0000
0000
0000
,  // measure 21
1000
0000
0100
0000
1000
0100
1000
0000
,  // measure 22
0100
0010
0001
1000
,  // measure 23
0100
0000
1000
0000
0010
0100
0010
0000
,  // measure 24
0100
0001
0010
0001
,  // measure 25
1000
0100
1000
0010
,  // measure 26
0110
0100
0001
0011
,  // measure 27
0010
0100
1000
0100
,  // measure 28
0010
0001
1000
0001
,  // measure 29
0100
0000
0010
0000
1000
0100
1000
0000
,  // measure 30
0001
0010
0001
0100
,  // measure 31
0010
0000
1000
0000
0100
0000
0001
0100
,  // measure 32
1000
0000
0100
0001
0010
0000
1000
0000
,  // measure 33
0010
0001
0100
1000
,  // measure 34
0100
0001
1000
0010
,  // measure 35
0200
0310
1000
0001
,  // measure 36
0100
0001
0010
0001
,  // measure 37
0200
0000
0320
0000
,  // measure 38
1030
0100
1000
0000
0002
0000
0000
0000
,  // measure 39
0203
0000
0320
0000
,  // measure 40
1030
0100
1000
0100
2000
0000
0000
0000
,  // measure 41
3002
0000
0000
0000
0103
0010
0100
0010
,  // measure 42
0100
0010
0100
0010
0200
0000
0000
0000
,  // measure 43
0302
0000
2003
0000
,  // measure 44
3001
1001
0110
1001
,  // measure 45
0110
0000
1000
0001
1000
0010
0100
0010
,  // measure 46
1000
0001
0100
0010
0100
0001
1001
1001
,  // measure 47
1000
0100
0010
0001
0100
0000
0010
1000
,  // measure 48
0100
0000
1000
0001
1000
0000
0001
0000
,  // measure 49
0100
0010
1000
0100
,  // measure 50
1000
1001
1001
1001
,  // measure 51
0000
0001
0100
0010
,  // measure 52
0100
0001
1000
0100
,  // measure 53
0010
0001
1000
0001
,  // measure 54
0100
0010
0100
0000
0010
0100
0010
0000
,  // measure 55
1000
0100
0001
0100
,  // measure 56
1000
0010
0001
0010
,  // measure 57
1000
0200
0300
1000
,  // measure 58
0010
2000
3000
0001
,  // measure 59
0100
0010
0100
0001
,  // measure 60
0010
0001
1000
0100
,  // measure 61
1000
0001
1000
0000
0001
0000
0010
0000
,  // measure 62
0001
0100
0001
0000
0100
0010
0100
0000
,  // measure 63
0010
1000
0100
0010
,  // measure 64
0001
0100
1000
0100
,  // measure 65
0001
0010
1000
0010
,  // measure 66
0001
0100
1000
0100
,  // measure 67
0001
0020
0000
0130
,  // measure 68
1000
0100
1000
0100
,  // measure 69
0010
0000
0001
0000
0100
0010
0100
0000
,  // measure 70
0010
1000
0100
0010
0100
0010
0001
0000
,  // measure 71
2002
0000
3003
0000
;

//---------------dance-single - ----------------
#NOTEDATA:;
#CHARTNAME:;
#STEPSTYPE:dance-single;
#DESCRIPTION:;
#CHARTSTYLE:;
#DIFFICULTY:Hard;
#METER:12;
#RADARVALUES:0.612527,0.835746,0.108444,0.200204,0.196033,514.000000,501.000000,13.000000,24.000000,0.000000,0.000000,0.000000,0.000000,0.000000,0.612527,0.835746,0.108444,0.200204,0.196033,514.000000,501.000000,13.000000,24.000000,0.000000,0.000000,0.000000,0.000000,0.000000;
#CREDIT:;
#DISPLAYBPM:82.500000:165.000000;
#NOTES:
// measure 0
0000
0000
0000
0000
,  // measure 1
0000
0000
0000
0000
,  // measure 2
0110
0000
0010
1000
0001
1000
0010
0000
0100
0001
0010
0000
0001
1000
0010
0000
,  // measure 3
1000
0100
0010
0000
0001
1000
0010
0000
0100
0001
0100
0001
1000
0000
1001
0000
,  // measure 4
1000
0010
0100
0010
1000
0001
1000
0000
,  // measure 5
0010
0100
0001
0100
0010
1000
0100
0000
,  // measure 6
1000
0001
0010
0001
0100
1000
0000
0100
,  // measure 7
0001
0010
1000
0010
0001
0000
0100
0010
,  // measure 8
1000
0010
0100
0001
0020
0000
0130
1000
,  // measure 9
0001
0100
0001
1000
0020
0000
0130
0001
,  // measure 10
1000
0001
0100
0010
1000
0100
0010
0001
,  // measure 11
1000
0000
0001
0000
1000
0000
0001
0100
0001
0000
0010
0000
0100
1000
0100
0000
,  // measure 12
1000
0100
0010
0002
0000
1003
0100
0001
,  // measure 13
0100
0000
0000
1000
0000
0000
1001
0000
0000
0000
0001
0000
0010
0000
1000
0000
,  // measure 14
0010
0001
0100
1000
0100
0001
1000
0010
,  // measure 15
0100
0001
0100
0001
1000
0000
0010
0100
,  // measure 16
0001
0100
0010
2000
0000
3001
1000
0010
,  // measure 17
1000
0100
0010
0001
0100
0010
0100
0001
,  // measure 18
0020
0000
0030
0001
0100
1000
0100
0001
,  // measure 19
0020
0000
0000
0000
0031
0000
0000
0000
1000
0000
0001
0000
1000
0001
1000
0000
,  // measure 20
0010
0000
0101
0000
0010
1000
0100
1000
,  // measure 21
0001
0100
0001
0000
1000
0010
0001
0010
,  // measure 22
1000
0001
1000
0100
0000
1000
0010
0100
,  // measure 23
0020
0000
0030
1000
0010
1000
0100
1000
,  // measure 24
0000
0001
0100
0010
0100
0001
1000
0001
,  // measure 25
0000
0001
0010
0000
0100
1000
0010
2000
,  // measure 26
0000
3001
0100
0020
0000
0130
0001
2000
,  // measure 27
0000
0000
3001
0000
0010
0000
0002
0000
0000
0000
0103
0000
0010
0100
0010
0000
,  // measure 28
1000
0100
1000
0002
0000
0103
0000
0010
,  // measure 29
1000
0000
0000
0100
0000
0000
1000
0000
0001
0000
0000
0010
0000
0000
0001
0000
,  // measure 30
1000
0000
0000
0010
0000
0000
1000
0000
0001
0000
0000
0100
0000
0000
0010
0000
,  // measure 31
1000
0000
0000
0001
0000
0000
1000
0000
0100
0000
0000
0000
0010
0000
0001
0000
,  // measure 32
2000
0000
0000
0000
3010
0000
0000
0010
0100
0000
0000
0100
0001
0000
1000
0000
,  // measure 33
0001
0000
0000
0100
0000
0000
0010
0000
1000
0000
0000
1000
0000
0000
0001
0000
,  // measure 34
0100
0000
0000
0100
0000
0000
0010
0000
1000
0000
0100
0000
1000
0000
0001
0000
,  // measure 35
1000
0000
0000
0010
1000
0001
1000
0001
,  // measure 36
0100
0000
0010
0000
1000
0000
0000
0010
1000
0000
0010
0000
1000
0001
1000
0000
,  // measure 37
0001
0100
0010
0100
0000
0001
0010
0100
,  // measure 38
1000
0100
1000
0010
0200
0000
0301
0010
,  // measure 39
0001
1000
0100
1000
0010
0100
0001
0100
,  // measure 40
0010
1000
0100
0010
0001
1000
0001
0100
,  // measure 41
0020
0000
1030
0000
0001
1000
0001
1000
,  // measure 42
0010
0100
0010
0100
0002
0000
1003
0000
,  // measure 43
1000
0001
1000
0001
0100
0001
0100
0001
,  // measure 44
1000
0010
1000
0010
0100
0001
0010
0100
,  // measure 45
1000
0000
0001
1000
0001
0000
0001
0000
0110
0000
0100
0001
0010
0000
0001
1000
,  // measure 46
0100
0000
1000
0010
0100
0010
1000
0001
0100
0001
1000
0000
0001
0100
0010
0100
,  // measure 47
0001
0000
0000
1000
0100
0000
0010
0000
0001
0000
0000
0000
0100
0000
0000
0000
0010
0000
0000
0000
1000
0000
0000
0000
0010
0000
0000
0000
0100
0000
0000
0000
,  // measure 48
0001
0000
0000
0000
0100
0000
0010
0000
1000
0000
0010
0000
0100
0000
0000
0100
,  // measure 49
0000
0000
0001
0000
0010
0000
0000
0010
0000
0000
0100
0000
1000
0000
0000
1000
,  // measure 50
0000
0000
0001
0000
0011
0000
0000
0101
0000
0000
0100
0000
0010
0000
0000
0000
,  // measure 51
0000
0000
1000
0100
1000
0000
0010
0001
,  // measure 52
0010
0000
1000
0000
0100
0000
0000
0001
0000
0000
1000
0000
0010
0000
0000
0001
,  // measure 53
0000
0000
0100
0000
0010
0000
0000
0100
0000
0000
0010
0000
1000
0000
0000
0000
,  // measure 54
0010
0100
0002
0000
1003
0010
0200
0010
,  // measure 55
0300
1000
0001
0100
0001
0010
0100
1000
,  // measure 56
0001
0100
0010
0100
0001
1000
0000
0010
,  // measure 57
0100
0001
0010
0001
0000
1000
0100
0010
,  // measure 58
0001
0010
0100
1000
0000
0100
0001
0100
,  // measure 59
1000
0010
0100
0001
0100
0010
1000
0001
,  // measure 60
0010
0001
0100
0010
1000
0010
0100
0001
,  // measure 61
0010
0001
1000
0100
0010
0001
1000
0100
,  // measure 62
1000
0010
0200
0000
0301
1000
0020
0000
,  // measure 63
0130
0000
0001
0000
0010
0000
0000
0110
0000
0000
0100
0000
1000
0000
0000
1001
,  // measure 64
0000
0001
0010
0001
0100
0020
0000
1030
,  // measure 65
0010
0100
0020
0000
1030
0001
0100
0001
,  // measure 66
0010
0001
1000
0001
0000
1000
0100
0010
,  // measure 67
0100
1000
1001
0000
0000
0001
0010
0100
,  // measure 68
1000
0001
1000
0010
0100
0001
0010
1000
,  // measure 69
0010
0001
1001
0000
1000
0010
1000
0000
,  // measure 70
0010
0000
0100
0000
0001
0010
0001
0010
0001
0000
1000
0000
1100
0000
0000
0000
,  // measure 71
2002
0000
0000
0000
0000
0000
0000
0000
0000
3003
0000
0000
0000
0000
0000
0000
;
