#TITLE:Drive Me Crazy;
#SUBTITLE:;
#ARTIST:kors k feat. Furukawa Misuzu;
#TITLETRANSLIT:;
#SUBTITLETRANSLIT:;
#ARTISTTRANSLIT:;
#GENRE:;
#CREDIT:;
#BANNER:Drive Me Crazy.png;
#BACKGROUND:Drive Me Crazy-bg.png;
#LYRICSPATH:;
#CDTITLE:;
#MUSIC:Drive Me Crazy.ogg;
#OFFSET:-3.040000;
#SAMPLESTART:52.179844;
#SAMPLELENGTH:12.000000;
#SELECTABLE:YES;
#BPMS:0.000000=180.020004
;
#STOPS:
;
#BGCHANGES:;
#KEYSOUNDS:;
#ATTACKS:;

//---------------dance-single - ----------------
#NOTES:
     dance-single:
     :
     Beginner:
     3:
     0.115920,0.173624,0.000000,0.000000,0.000000,85.000000,85.000000,0.000000,0.000000,0.000000,0.000000,0.115920,0.173624,0.000000,0.000000,0.000000,85.000000,85.000000,0.000000,0.000000,0.000000,0.000000:
0000
0000
0000
0000
,
0000
0000
0000
0000
,
0000
0000
0000
0000
,
0000
1000
0000
0000
0000
0000
0000
0000
,
1000
0000
0000
0000
,
0001
0000
0000
0000
,
0001
0000
0000
0000
,
0100
0000
0000
0000
,
0100
0000
0000
0000
,
0010
0000
0000
0000
,
0010
0000
0000
0000
,
1000
0000
0000
0000
,
1000
0000
0000
0000
,
0001
0000
0000
0000
,
0001
0000
0000
0000
,
0100
0000
0000
0000
,
0010
0000
0000
0000
,
0100
0000
0000
0000
,
0001
0000
0000
0000
,
1000
0000
0000
0000
,
1000
0000
0000
0000
,
0010
0000
0000
0000
,
0010
0000
0000
0000
,
0100
0000
0000
0000
,
0100
0000
0000
0000
,
0001
0000
0000
0000
,
0001
0000
0000
0000
,
1000
0000
0000
0000
,
1000
0000
0000
0000
,
0100
0000
0000
0000
,
0100
0000
0000
0000
,
0010
0000
0000
0000
,
0010
0000
0000
0000
,
0001
0000
0000
0000
,
0001
0000
0000
0000
,
0010
0000
0000
0000
,
0010
0000
0000
0000
,
1000
0000
0000
0000
,
1000
0000
0000
0000
,
0001
0000
0000
0000
,
0001
0000
0000
0000
,
0100
0000
0100
0000
,
0010
0000
0000
0000
,
0010
0000
0010
0000
,
1000
0000
0000
0000
,
0001
0000
0000
0000
,
0001
0000
0000
0000
,
0100
0000
0100
0000
,
0100
0000
0000
0000
,
0010
0000
0010
0000
,
0010
0000
0010
0000
,
1000
0000
1000
0000
,
0001
0000
0001
0000
,
0100
0000
0000
0000
,
0100
0000
0000
0000
,
0010
0000
0000
0000
,
0010
0000
0000
0000
,
1000
0000
0000
0000
,
1000
0000
0000
0000
,
0001
0000
0001
0000
,
0001
0000
0000
0000
,
0100
0000
0100
0000
,
0100
0000
0000
0000
,
0010
0000
0010
0000
,
0010
0000
0000
0000
,
1000
0000
1000
0000
,
1000
0000
0000
0000
,
0001
0000
0001
0000
,
0001
0000
0000
0000
,
0100
0000
0100
0000
,
0010
0000
0010
0000
,
1000
0000
0000
0000
,
0001
0000
0000
1000
;

//---------------dance-single - ----------------
#NOTES:
     dance-single:
     :
     Easy:
     5:
     0.312302,0.347249,0.047732,0.019093,0.000000,229.000000,224.000000,5.000000,2.000000,0.000000,0.000000,0.312302,0.347249,0.047732,0.019093,0.000000,229.000000,224.000000,5.000000,2.000000,0.000000,0.000000:
0000
0000
0000
0000
,
0000
0000
0000
0000
,
0000
0000
0000
0000
,
0000
1000
0000
0000
,
0001
1000
0001
0000
,
0100
0000
0010
0000
,
0100
0100
0100
0100
,
0001
0000
1000
0000
,
0001
0010
0001
0000
,
0100
0010
0100
0000
,
0001
1000
0001
0000
,
1000
0100
1000
0000
,
0010
0100
0010
0000
,
0100
0001
0100
0000
,
0001
0010
0001
0000
,
1000
0100
1000
0100
,
1000
0000
0010
0000
,
0100
0000
0010
0000
,
1000
0001
1000
0000
,
0001
0100
0001
0100
,
0001
0000
0100
0000
,
0010
1000
0010
0000
,
1000
0000
0100
0000
,
0010
0001
0010
0000
,
0001
0100
0001
0100
,
0001
0000
1000
0000
,
0010
0000
0100
0010
,
0100
0000
0010
0000
,
1000
0100
1000
0100
,
0020
0000
0031
0001
,
0200
0000
0310
0010
,
1000
1000
0100
0100
,
0010
0010
0001
0000
,
0001
0001
0010
0010
,
1000
1000
0010
0001
,
0100
1000
0100
0001
,
0010
1000
0000
0000
,
0010
0001
0100
0010
,
1000
0100
1000
0100
,
0010
0001
0010
0001
,
0100
0010
0100
0000
,
0001
0001
1000
1000
,
0100
0000
0100
0000
,
0010
0010
0001
0000
,
0001
0001
0100
0000
,
1000
0100
0001
0010
,
1000
0010
0001
0000
,
0100
1000
0100
0001
,
0010
0100
1000
0000
,
0001
1000
0001
0000
,
1000
0100
1000
0000
,
0010
0100
0010
0100
,
0010
0100
0010
0000
,
1000
0001
1000
0000
,
0001
1000
1001
0001
,
0100
0010
0100
0000
,
0010
1000
1100
0100
,
0010
0001
0100
1000
,
0100
0001
0010
0000
,
1000
0010
0001
0000
,
0100
1000
0100
0000
,
1001
1000
0100
0010
,
0001
1000
0001
0000
,
1000
0100
0001
0000
,
0100
1000
0010
0000
,
0001
0010
1000
0100
,
1000
0010
0001
0100
,
1000
0100
0001
0010
,
1000
0010
0001
0100
,
1000
0100
0001
0010
,
1000
0010
0001
0000
,
1001
1000
0100
0000
,
0110
0010
0001
1000
;

//---------------dance-single - ----------------
#NOTES:
     dance-single:
     :
     Medium:
     9:
     0.405038,0.451423,0.248205,0.038185,0.000000,297.000000,271.000000,26.000000,4.000000,0.000000,0.000000,0.405038,0.451423,0.248205,0.038185,0.000000,297.000000,271.000000,26.000000,4.000000,0.000000,0.000000:
0000
0000
0000
0000
,
0000
0000
0000
0000
,
0000
0000
0000
0000
,
0000
1000
0000
0000
0010
0000
1000
0000
,
0010
0100
0001
0010
,
0000
0001
0100
0010
,
0100
0001
0010
0001
,
0011
0000
0010
0000
0100
0000
1000
0100
,
1000
0001
0010
0001
,
0100
0000
0010
0100
0010
0000
0100
0000
,
0001
0010
0001
0000
,
1000
0100
1000
0100
,
0010
0000
0001
0010
0001
0000
0100
0000
,
0010
0100
0001
0010
,
0001
0001
1000
1001
,
0001
0100
0010
0100
,
0001
0010
1000
0010
,
0001
0100
1000
0100
,
0001
0000
1000
0000
0010
1000
0010
0000
,
1000
0100
1000
0010
,
0100
0010
1000
0100
,
0010
0001
0100
0001
,
0100
0010
1000
0100
,
1000
0100
0010
0100
,
0010
0100
1000
0100
,
0010
0001
0010
1000
,
0010
0000
0001
0000
0100
1000
0100
0000
,
0002
0013
2000
3000
,
0010
0001
0100
1000
,
0200
0000
0301
0010
,
0001
0010
0100
1000
,
0001
0010
0001
0000
0100
0010
0100
0000
,
0010
1000
0010
0000
1000
0000
0000
0000
,
0100
0010
0100
0000
0010
0001
0010
0000
,
0001
1000
0001
0000
1001
0000
0000
0000
,
0100
0010
0001
0100
,
0020
0000
0030
0000
,
1100
0000
0001
0000
0010
0000
0001
0010
,
0000
0001
0000
0100
0000
0000
0000
0000
,
0010
0000
1000
0000
0100
0000
1000
0100
,
0000
1000
0000
0100
0000
0000
0000
0000
,
0110
0010
0001
0100
,
0010
0000
0100
0010
0000
0000
0000
0000
,
1000
0100
1000
0000
,
0001
0100
0001
0100
0001
0000
0000
0000
,
0110
0000
1000
0000
0010
0000
1000
0010
,
0000
0100
0000
0001
0000
0000
0000
0000
,
0010
0000
0100
0000
1000
0000
0100
0010
,
0000
0001
0000
0010
0000
0000
0000
0000
,
1100
1001
0110
0000
,
0011
0110
1100
0000
,
1000
0100
0000
0010
0100
1000
0000
0001
,
0100
0010
0100
0001
1000
0000
0001
0000
,
0100
0010
0110
0000
,
1001
0000
0000
0000
,
1100
0000
0100
0000
0010
0000
0001
0010
,
0001
0100
0010
0100
,
0010
1000
0100
0010
,
0011
0001
0101
0000
,
0110
0010
1010
0000
,
1000
0100
0001
0100
1000
0000
0010
0000
,
0001
0010
1000
0100
,
1001
1010
1001
0110
,
0001
0000
1000
0000
0100
0000
1000
0100
,
0000
0010
0000
0001
0000
0000
0000
0000
,
0100
0000
0010
0000
1000
0000
0010
1000
,
0000
0010
0000
1000
0000
0000
0000
0000
,
0001
0000
0100
0000
0010
0000
0100
0010
,
0100
0001
0010
0000
,
1001
1000
0100
0000
,
0110
0010
0001
0000
,
0101
0000
0100
0000
0010
0000
1000
0010
,
0000
1000
0000
0010
0000
0000
0100
0000
;

//---------------dance-single - ----------------
#NOTES:
     dance-single:
     :
     Hard:
     12:
     0.647789,0.592351,0.410493,0.248205,0.014320,475.000000,432.000000,43.000000,26.000000,0.000000,0.000000,0.647789,0.592351,0.410493,0.248205,0.014320,475.000000,432.000000,43.000000,26.000000,0.000000,0.000000:
// measure 0
0000
0000
0000
0000
,  // measure 1
0000
0000
0000
0000
,  // measure 2
0000
0000
0000
0000
,  // measure 3
0000
0001
0000
0100
0100
0010
1000
0001
,  // measure 4
1000
0100
0001
0100
1000
0010
0001
0000
,  // measure 5
0011
1010
1001
0101
,  // measure 6
0110
0011
0110
1001
,  // measure 7
2000
0000
3100
0001
0100
0000
1000
0020
,  // measure 8
0000
0031
0010
1000
0002
0000
0103
0000
,  // measure 9
1000
0000
0100
0001
0010
0001
1000
0010
,  // measure 10
0100
0001
0010
0001
1000
0000
1010
0000
,  // measure 11
0010
0000
0100
0001
0020
0000
0130
1000
,  // measure 12
0010
0100
0010
1000
0002
0000
1003
0010
,  // measure 13
0100
0000
0110
0000
1000
0001
0000
0001
,  // measure 14
0100
0010
1000
0100
0010
0000
0011
0000
,  // measure 15
0001
0010
0001
0100
0010
0100
0001
0100
,  // measure 16
0000
0010
1000
0100
1000
0010
0100
0010
,  // measure 17
0000
1000
0100
0001
0000
0100
1000
0010
,  // measure 18
0000
0001
0010
1000
0001
0100
0001
0010
,  // measure 19
0000
0100
1000
0001
1000
0010
0100
0010
,  // measure 20
0000
0100
0000
0101
0000
0001
0010
0100
,  // measure 21
0010
0000
1001
0000
1010
0000
0010
0100
,  // measure 22
0001
0000
0010
0001
0000
0010
0100
1000
,  // measure 23
0100
0001
0100
1000
0100
0001
0100
1000
,  // measure 24
0000
0010
0100
0001
0100
0010
0100
0001
,  // measure 25
0100
0010
1000
0100
0000
0010
0001
0100
,  // measure 26
0000
1000
0100
0010
1000
0010
0001
0010
,  // measure 27
0200
0000
0300
0001
0001
0000
1000
0000
,  // measure 28
0101
0000
0100
0010
1000
0010
0100
0001
,  // measure 29
0010
0000
0000
0000
0100
0000
0000
1000
0000
0001
0000
0000
0100
0000
0002
0000
,  // measure 30
0000
0013
0100
0010
0100
1000
1001
0000
,  // measure 31
0001
0100
0001
0100
1000
0100
1000
0100
,  // measure 32
0001
0010
0001
0010
0100
0010
0100
1000
,  // measure 33
0010
0100
0010
0001
0010
0000
0100
0000
,  // measure 34
0010
1000
0100
0010
0001
1000
0010
0100
,  // measure 35
0001
0001
1000
1000
0010
0010
0100
0100
,  // measure 36
0002
0000
0000
0000
0003
1000
0010
1000
,  // measure 37
0001
1100
0110
0011
,  // measure 38
0001
0100
1000
0200
0000
0301
2000
0000
,  // measure 39
3001
0010
0100
0010
0001
0010
0100
1000
,  // measure 40
0000
0101
0000
0110
0000
0010
1000
0100
,  // measure 41
1000
0010
0100
0001
0010
0001
0100
0020
,  // measure 42
0000
1030
0100
0002
0000
0103
1000
0001
,  // measure 43
0010
0001
0100
0010
0000
0010
0100
0001
,  // measure 44
0010
0001
1000
0100
0000
0100
1000
0001
,  // measure 45
0010
0011
0101
0110
,  // measure 46
0010
1000
0100
1000
0001
0000
0101
0000
,  // measure 47
0100
0010
1000
0000
0100
0010
0001
0200
,  // measure 48
0000
0320
0000
2030
0000
3100
0001
0100
,  // measure 49
1000
0010
0001
0010
1000
0002
0000
0103
,  // measure 50
0100
0010
1000
0010
0100
0002
0000
0013
,  // measure 51
0100
2000
0000
3001
1000
0200
0000
0310
,  // measure 52
0002
0000
0000
0000
0203
0000
0000
0000
0310
0000
0000
1010
0000
0000
1000
0000
,  // measure 53
0100
0000
0110
0000
0011
0000
0000
1001
,  // measure 54
0000
1010
0000
0010
0100
0001
0100
0010
,  // measure 55
1000
0000
0100
0001
0100
0000
1000
0100
,  // measure 56
0010
1000
0010
0001
0100
0000
0010
1000
,  // measure 57
0100
0000
0010
0001
0010
0100
0001
0100
,  // measure 58
1000
0010
0001
0010
1000
0000
1001
0000
,  // measure 59
0002
0000
0103
1000
0200
0000
0301
0010
,  // measure 60
0100
1000
0100
0010
0002
0000
0103
0000
,  // measure 61
1010
1010
0101
0101
,  // measure 62
0011
0011
1100
1100
,  // measure 63
0001
0100
0010
0100
0001
0000
1000
0000
,  // measure 64
0100
0010
0002
0000
0003
0010
0100
0100
,  // measure 65
0010
0001
0100
1000
0100
0000
0001
0001
,  // measure 66
0000
1001
0000
1000
1000
0100
0010
1000
,  // measure 67
0010
0100
0010
0001
0100
0010
1000
0010
,  // measure 68
0100
0001
0010
0100
1000
0000
0010
0100
,  // measure 69
0001
0100
0010
1000
0000
0010
0001
0010
,  // measure 70
1000
0100
0010
0001
0000
0100
1000
0100
,  // measure 71
0001
0000
1001
0000
0010
0010
0000
0101
,  // measure 72
0000
0011
0000
1000
0100
0010
0002
0000
,  // measure 73
0003
0000
0000
0000
;

//---------------dance-single - ----------------
#NOTES:
     dance-single:
     :
     Challenge:
     14:
     0.741888,0.801417,0.525050,0.095464,0.190927,544.000000,489.000000,55.000000,10.000000,44.000000,0.000000,0.741888,0.801417,0.525050,0.095464,0.190927,544.000000,489.000000,55.000000,10.000000,44.000000,0.000000:
// measure 0
0000
0000
0000
0000
,  // measure 1
0000
0000
0000
0000
,  // measure 2
0000
0000
0000
0000
,  // measure 3
0000
1001
0000
1000
0010
0001
0010
1000
,  // measure 4
0100
0001
0100
1000
0001
0100
MMMM
0000
,  // measure 5
1001
1001
0110
0110
,  // measure 6
1100
0000
0000
0000
MMMM
0000
0000
0000
0011
0000
0001
1000
0001
0000
0000
0000
,  // measure 7
0110
0000
0000
0000
0100
0001
0100
0000
0020
0000
0000
0000
1030
0000
0100
0000
,  // measure 8
0000
0000
0010
0001
0100
0000
0001
0000
1000
0000
0010
0000
1000
0000
0000
0000
,  // measure 9
1001
0000
0000
0000
0001
0000
0100
0010
0100
0000
0001
1000
0001
0000
0100
0000
,  // measure 10
0010
1000
0010
0000
1000
0000
0100
0000
0010
0000
1000
0000
0010
0000
0100
0000
,  // measure 11
0101
0000
0000
0000
1000
0001
1000
0001
0100
0000
0000
0000
0010
0000
1000
0000
,  // measure 12
0100
0000
1000
0000
0001
0010
0001
0010
0100
0000
0010
0000
0001
0000
0100
0000
,  // measure 13
0110
0000
0101
0000
0001
1001
0000
1000
,  // measure 14
0100
0010
0001
0100
0020
0000
0000
0000
,  // measure 15
0130
0001
0010
0001
0100
0001
0010
0001
,  // measure 16
0000
0100
0010
1000
0010
0100
0010
1000
,  // measure 17
0000
0100
0001
0100
0000
1000
0010
0001
,  // measure 18
0000
0000
0010
0000
1000
0000
0100
0000
0010
0001
0010
0000
0001
0100
0001
0000
,  // measure 19
1000
0010
0100
0010
1000
0001
0010
0001
,  // measure 20
0000
0100
0000
0010
1000
0100
1000
0001
,  // measure 21
0000
0000
0000
0000
1001
0000
0000
0000
1100
0000
0000
0000
0100
0000
0010
0001
,  // measure 22
0010
0000
0100
1000
0000
1000
0001
0100
,  // measure 23
0001
0010
1000
0010
0001
0010
1000
0010
,  // measure 24
0000
0001
0100
1000
0100
0001
0100
1000
,  // measure 25
0000
1000
0100
0010
0000
0001
0010
0100
,  // measure 26
0000
0000
0100
0000
0001
0000
0100
0000
0010
0000
1000
0000
0010
1000
0010
0000
,  // measure 27
0200
0000
0300
0001
0001
0010
0001
0100
,  // measure 28
0010
0000
0010
1000
0100
0010
0001
0100
,  // measure 29
0001
0000
1000
1000
0001
0001
0100
0002
,  // measure 30
0000
0000
0013
0000
0100
0000
1000
0000
0100
0010
0100
0000
MMMM
0000
0000
0000
,  // measure 31
0011
0010
0110
0100
1100
1000
1001
0001
,  // measure 32
0100
0000
0010
0000
1000
0000
0010
0000
0100
0000
0001
0000
1000
0010
1000
0000
,  // measure 33
0010
0200
0000
0301
0100
1000
0100
0010
,  // measure 34
1000
0000
0100
0000
0010
0000
0001
0000
1000
0000
0001
0000
0100
0010
0100
0010
,  // measure 35
1000
0010
0100
0100
0001
0001
0010
0010
,  // measure 36
0100
1000
0100
1000
0100
1000
0100
1000
0100
0000
1000
0000
0001
0000
0000
0000
,  // measure 37
0001
0100
1000
0100
0001
0010
MMMM
1000
,  // measure 38
0010
0001
0010
0100
0100
0010
MMMM
0001
,  // measure 39
1000
0100
0010
1000
0010
0001
0100
0010
,  // measure 40
0000
1010
0000
1100
0000
0100
0010
0001
,  // measure 41
0010
1000
0010
0001
0100
1000
0100
0001
,  // measure 42
0100
0010
1000
0001
0000
0010
0100
1000
,  // measure 43
0010
0100
0010
1000
0000
0001
0010
0001
,  // measure 44
1000
0000
1000
0000
0100
0000
0100
0000
0010
0000
0001
0000
0100
0001
0100
0000
,  // measure 45
MMMM
0000
1000
0100
0010
0001
0100
0100
,  // measure 46
0010
0000
1000
0000
0100
0000
1000
0000
0001
0000
0100
0010
0100
0000
0001
0000
,  // measure 47
0010
0001
0100
0010
0100
0001
1000
0020
,  // measure 48
0000
1030
0100
1000
0010
0100
0001
0010
,  // measure 49
0001
0000
0100
0000
0010
0000
1000
0000
0001
0000
0100
0001
0100
0000
0001
0000
,  // measure 50
1000
0000
0100
0000
0010
0000
0001
0000
0010
0100
0010
0000
0001
0000
1000
0000
,  // measure 51
1000
0000
0001
0000
0000
0000
0100
0000
0010
0100
0010
0000
MMMM
0000
1001
0000
,  // measure 52
MMMM
0110
MMMM
1001
MMMM
0110
MMMM
1001
,  // measure 53
1001
0000
0101
0000
0110
0110
0000
1010
,  // measure 54
0000
1100
0000
0100
0010
0001
0010
0001
,  // measure 55
0100
0000
0000
0000
0010
1000
0010
1000
0100
0000
0000
0000
1000
0000
0010
0000
,  // measure 56
0100
0000
0010
0000
0001
0010
0001
0000
0010
0000
0000
0010
1000
0000
0000
0000
,  // measure 57
1100
0000
0000
0000
1000
0000
0100
0000
0001
0000
0100
0000
1000
0000
0001
0010
,  // measure 58
0001
0100
0010
1000
1100
0000
0110
0000
,  // measure 59
0011
0000
0000
0000
0001
0100
0001
0000
1000
0000
0000
0000
0010
0000
0100
0000
,  // measure 60
0010
0000
1000
0000
0100
0010
0100
0010
0001
0000
0000
0000
0101
0000
0000
0000
,  // measure 61
0110
1010
1100
0110
,  // measure 62
1001
0000
0000
0000
1001
0000
0000
0000
0001
0000
1000
0010
1000
0000
0000
0000
,  // measure 63
0012
0000
0000
0000
,  // measure 64
2003
0000
0000
0000
0000
3100
0100
0010
,  // measure 65
0010
1000
1000
0010
0001
0000
0101
0101
,  // measure 66
0000
1010
0000
1100
0100
0010
0001
0100
,  // measure 67
0010
1000
0100
1000
0001
0010
0001
0100
,  // measure 68
0010
1000
0100
0010
0000
0001
0100
1000
,  // measure 69
0100
0001
1000
0001
0000
0100
0010
1000
,  // measure 70
0010
0100
0010
0000
1000
0000
0100
0000
0010
0000
0001
1000
0001
1000
0001
0000
,  // measure 71
1001
0000
0101
0000
0110
0110
0000
1100
,  // measure 72
0000
0000
0110
0000
0000
0000
0010
0000
0001
1000
0001
0000
0202
0000
0000
0000
,  // measure 73
0303
0000
0000
0000
;
