#TITLE:DAZZLING SEASON;
#SUBTITLE:;
#ARTIST:jun;
#TITLETRANSLIT:;
#SUBTITLETRANSLIT:;
#ARTISTTRANSLIT:;
#GENRE:;
#CREDIT:;
#BANNER:DAZZLING SEASON.png;
#BACKGROUND:DAZZLING SEASON-bg.png;
#LYRICSPATH:;
#CDTITLE:;
#MUSIC:DAZZLING SEASON.ogg;
#OFFSET:-2.080000;
#SAMPLESTART:38.020008;
#SAMPLELENGTH:15.000000;
#SELECTABLE:YES;
#DISPLAYBPM:180.000000;
#BPMS:0.000000=180.000000
;
#STOPS:
;
#BGCHANGES:;
#KEYSOUNDS:;
#ATTACKS:;

//---------------dance-single - ----------------
#NOTES:
     dance-single:
     :
     Beginner:
     2:
     0.116328,0.177535,0.000000,0.000000,0.000000,86.000000,86.000000,0.000000,0.000000,0.000000,0.000000,0.116328,0.177535,0.000000,0.000000,0.000000,86.000000,86.000000,0.000000,0.000000,0.000000,0.000000:
0000
0000
0000
0000
,
0000
0000
0000
0000
,
0000
0000
0000
0000
,
1000
0000
0000
0000
,
1000
0000
0000
0000
,
0001
0000
0000
0000
,
0001
0000
0000
0000
,
0100
0000
0000
0000
,
0100
0000
0000
0000
,
0010
0000
0010
0000
,
0010
0000
0000
0000
,
1000
0000
0000
0000
,
0001
0000
0000
0000
,
1000
0000
0000
0000
,
1000
0000
0000
0000
,
0001
0000
0000
0000
,
0100
0000
0000
0000
,
0010
0000
0000
0000
,
0100
0000
0000
0000
,
0001
0000
1000
0000
,
0001
0000
0000
0000
,
0010
0000
0000
0000
,
0100
0000
0000
0000
,
1000
0000
0100
0000
,
1000
0000
0000
0000
,
0001
0000
0000
0000
,
0010
0000
0000
0000
,
0001
0000
0100
0000
,
0001
0000
0000
0000
,
1000
0000
0000
0000
,
0010
0000
0000
0000
,
1000
0000
0000
0000
,
0100
0000
0000
0000
,
0010
0000
0000
0000
,
0001
0000
1000
0000
,
0001
0000
0000
0000
,
0100
0000
0000
0000
,
0010
0000
0000
0000
,
0100
0000
0000
0000
,
0001
0000
1000
0000
,
0001
0000
1000
0000
,
0010
0000
0000
0000
,
0100
0000
0000
0000
,
0010
0000
1000
0000
,
0010
0000
0000
0000
,
1000
0000
0001
0000
,
1000
0000
0000
0000
,
0010
0000
0000
0000
,
0100
0000
0000
0000
,
0010
0000
0000
0000
,
1000
0000
0000
0000
,
0001
0000
0000
0000
,
0010
0000
0000
0000
,
0001
0000
0000
0000
,
0100
0000
0010
0000
,
1000
0000
0000
0000
,
0010
0000
0000
0000
,
0100
0000
0000
0000
,
0001
0000
0000
0000
,
0010
0000
0000
0000
,
0001
0000
0000
0000
,
0100
0000
0000
0000
,
0010
0000
0000
0000
,
1000
0000
0000
0000
,
0001
0000
0000
0000
,
1000
0000
0000
0000
,
0100
0000
0000
0000
,
0010
0000
0000
0000
,
0001
0000
0000
0000
,
0100
0000
0010
0000
,
0100
0000
0001
0000
,
1000
0000
0000
0000
,
0001
0000
0000
0000
,
0100
0000
0010
0000
,
0100
0000
0000
0000
,
0001
0000
0000
0000
;

//---------------dance-single - ----------------
#NOTES:
     dance-single:
     :
     Easy:
     5:
     0.304346,0.319563,0.009469,0.160965,0.000000,225.000000,224.000000,1.000000,17.000000,0.000000,0.000000,0.304346,0.319563,0.009469,0.160965,0.000000,225.000000,224.000000,1.000000,17.000000,0.000000,0.000000:
0000
0000
0000
0000
,
0000
0000
0000
0000
,
0000
0000
0000
0000
,
0001
0010
0001
0000
,
1000
0100
0001
0000
,
1000
0010
0001
0000
,
1000
0001
1000
0000
,
0001
0100
0001
0000
,
1000
0010
1000
0000
,
0001
0010
1000
0010
,
0001
1000
0001
0100
,
0020
0000
0000
0000
,
2030
0000
0000
0000
,
3001
0100
0010
0100
,
0001
0000
1001
0000
,
1000
0010
0100
0000
,
0010
0100
0001
0000
,
1000
0010
0100
0010
,
1000
0000
0001
0000
,
0100
0000
0010
0000
,
0100
0001
1000
0001
,
0200
0000
0320
0000
,
1030
0000
0001
0100
,
0020
0000
0230
0000
,
0302
0003
1000
0001
,
2000
0000
3002
0000
,
0103
0000
0010
0100
,
0020
0000
2030
0000
,
3001
0100
0001
0000
,
2000
0000
3020
0000
,
0130
0100
0001
0000
,
1000
0001
1000
0000
,
0010
0100
0010
0000
,
1000
0100
0001
0010
,
0001
0100
1000
0001
,
0020
0000
0032
0000
,
0103
0100
0010
0010
,
1000
0001
1000
0001
,
0100
0010
0100
0001
,
0020
0000
0032
0000
,
1003
1000
0100
1000
,
0010
0100
0010
1000
,
0001
0100
0001
0100
,
0010
0010
1000
0000
,
0001
0001
0100
0000
,
0100
0100
0001
0000
,
1000
1000
0010
0100
,
0010
1000
0001
0000
,
0100
0001
0010
0001
,
1000
0000
1000
0000
,
0001
0010
0001
0100
,
0010
0000
0100
0001
,
0010
0000
0001
1000
,
0010
0000
0100
0010
,
1000
0001
1000
0010
,
0100
0000
0100
0000
,
0001
0010
0001
1000
,
0100
1000
0010
0100
,
0010
0000
0100
0001
,
0010
0000
0001
0100
,
1000
0100
0001
0010
,
1000
0010
0001
1000
,
0001
0000
1000
0100
,
0001
0100
1000
0000
,
0010
0001
0010
0000
,
1000
0001
0100
0001
,
0010
0001
1000
0000
,
0010
0100
0001
0000
,
0100
0010
1000
0001
,
1000
0000
0010
0100
,
0001
0100
0010
0000
,
1000
0000
0001
0100
,
0001
0000
1000
0001
,
1000
0000
0001
0000
,
0010
0001
0100
0010
,
1000
0000
0000
0000
;

//---------------dance-single - ----------------
#NOTES:
     dance-single:
     :
     Medium:
     9:
     0.417968,0.390577,0.047343,0.009469,0.000000,309.000000,304.000000,5.000000,1.000000,0.000000,0.000000,0.417968,0.390577,0.047343,0.009469,0.000000,309.000000,304.000000,5.000000,1.000000,0.000000,0.000000:
0000
0000
0000
0000
,
0000
0000
0000
0000
,
0000
0000
0000
0000
,
1000
0010
1000
0000
0010
0000
0100
0000
,
0010
1000
1001
0001
,
0100
0010
0100
0000
0010
0000
1000
0000
,
0001
0100
0010
0100
,
0010
1000
0010
0000
1000
0000
0001
0000
,
0100
0010
0100
0001
,
1000
0001
1000
0000
0001
0000
0100
0000
,
0010
0100
0001
1000
,
1001
0001
0010
1000
,
0010
0001
0100
1000
,
0100
0001
0010
1000
,
0010
0001
1001
0000
,
1000
0100
1000
0001
,
0010
0001
0100
0010
,
0100
0001
1000
0100
,
1000
0010
0100
0010
,
1000
0001
0100
0001
,
1000
0010
0100
0010
,
2000
0000
3001
0000
,
0100
0010
1000
0010
,
0100
0001
0010
0001
,
1000
0100
1000
0000
0010
0000
0100
0000
,
0010
0100
0010
0000
1000
0000
0001
0000
,
0100
0001
1000
0010
,
0100
0010
0100
0000
0010
0000
1000
0000
,
0100
1000
0001
0010
,
0001
0100
0010
0100
,
0010
0000
1000
0000
0001
1000
0001
0000
,
1000
0100
1000
0010
,
0100
0010
1000
0001
,
0100
0001
0100
0000
0001
0000
0010
0000
,
0001
1000
0100
1000
,
0010
0100
0010
1000
,
1001
0001
0100
0010
,
0110
0100
0010
1000
,
0100
1000
0001
1000
,
0001
0000
0100
0000
0010
0000
0100
0010
,
0100
0010
1000
0100
,
1000
0001
0100
0010
,
0100
0001
0100
0000
0001
0000
1000
0000
,
0010
0100
0010
1000
,
0001
1000
0001
0000
1000
0000
0100
0000
,
1000
0100
1000
0000
0010
0000
0100
0000
,
0010
1000
0001
0100
,
0100
0001
0100
0000
0001
0000
0100
0000
,
0010
1000
0010
0100
,
0010
1000
0010
0000
1000
0000
0001
0000
,
0100
0010
0100
0001
,
0001
1000
0010
1000
,
0001
0100
0010
0100
,
0001
0010
0001
0000
1000
0000
0100
0000
,
1000
0010
0100
0010
,
1000
0001
1000
0000
0001
0100
0001
0000
,
0100
0010
1000
0010
,
0100
0001
0010
0001
,
1000
0000
0000
0000
,
0010
0100
0010
1000
,
0001
1000
0010
0100
,
0010
1000
0100
0001
,
0100
1000
0010
0001
,
0010
0000
1000
0001
1000
0000
0001
0000
,
0100
0010
0100
0001
,
0010
0001
0010
0000
0001
0000
0100
0000
,
0010
0100
0001
1000
,
0010
1000
0001
0100
,
0010
0000
0100
0000
0001
0000
1000
0010
,
1000
0010
0100
0010
,
1000
0001
0010
0001
,
0100
0010
1000
0010
,
0100
0001
0010
0001
,
1000
0100
0010
0001
,
1000
0100
0010
0001
,
1000
0000
0000
0000
;

//---------------dance-single - ----------------
#NOTES:
     dance-single:
     :
     Hard:
     12:
     0.674971,0.643387,0.265119,0.151496,0.000000,499.000000,471.000000,28.000000,16.000000,0.000000,0.000000,0.674971,0.643387,0.265119,0.151496,0.000000,499.000000,471.000000,28.000000,16.000000,0.000000,0.000000:
// measure 0
0000
0000
0000
0000
,  // measure 1
0000
0000
0000
0000
,  // measure 2
0000
0000
0000
0000
,  // measure 3
0001
1000
0001
0100
0010
0100
0000
0101
,  // measure 4
0000
0001
0010
0000
1010
0000
0011
0000
,  // measure 5
0001
0100
1000
0100
0001
1000
0000
1010
,  // measure 6
0000
0010
0100
0000
0101
0000
0011
0000
,  // measure 7
0010
0100
1000
0010
0001
0010
0000
1010
,  // measure 8
0000
1000
0001
0000
0101
0000
0100
0000
,  // measure 9
0010
1000
0100
1000
0001
0010
0000
0001
,  // measure 10
0010
0100
0010
0100
1000
0001
0010
0001
,  // measure 11
0100
0010
1000
0010
0100
0001
0100
0000
,  // measure 12
0010
1000
0100
0001
0100
1000
0010
0100
,  // measure 13
0010
1000
0010
0001
0010
1000
0100
0010
,  // measure 14
0001
0010
0100
1000
1001
0000
0000
0000
,  // measure 15
1000
0010
0100
0000
0010
1000
0001
0010
,  // measure 16
0001
0100
0010
0100
0001
1000
0001
0000
,  // measure 17
1000
0010
1000
0001
0100
0010
0100
0001
,  // measure 18
1000
1100
0110
0011
,  // measure 19
1000
0100
1000
0010
0100
0000
0001
1000
,  // measure 20
0001
0100
0010
0100
0001
0010
0100
1000
,  // measure 21
0001
0000
0100
0010
1000
0010
0100
0000
,  // measure 22
0001
1000
0010
0000
1000
0001
0100
0001
,  // measure 23
0010
0001
1000
0000
0010
0100
0001
0000
,  // measure 24
0100
0010
1000
0010
0100
0010
1000
0001
,  // measure 25
2000
0000
3010
0000
0100
0001
1000
0000
,  // measure 26
1001
0000
0000
0000
0001
0100
0010
0100
,  // measure 27
0001
1000
0001
0000
1000
0100
0001
0100
,  // measure 28
1000
0000
0001
0010
0001
0000
0100
0010
,  // measure 29
0100
0001
0010
0000
0001
1000
0010
1000
,  // measure 30
0001
0000
0100
0000
0010
1000
0100
1000
,  // measure 31
0010
0100
0001
0100
0010
1000
0001
0000
,  // measure 32
0100
0001
1000
0001
0100
0010
1000
0000
,  // measure 33
0001
0010
1000
0010
0001
1000
0001
0100
,  // measure 34
0010
0100
0001
1000
0010
1000
0100
1000
,  // measure 35
0002
0000
0103
0010
1000
0010
0100
0000
,  // measure 36
0001
1000
0010
1000
0100
1000
0001
0000
,  // measure 37
0100
0010
1000
0010
0100
0010
1000
0000
,  // measure 38
0001
0100
0010
0100
0001
1000
0001
1000
,  // measure 39
0001
0010
1000
0010
0001
1000
0000
0010
,  // measure 40
0100
0001
0100
0010
1000
0001
0010
0001
,  // measure 41
0010
0100
1000
0100
1000
0001
0100
0000
,  // measure 42
0001
0010
1000
0010
0001
0100
1000
0100
,  // measure 43
0001
1000
0001
0100
0010
2000
0000
3001
,  // measure 44
0001
1000
0010
0000
0110
0000
0101
0000
,  // measure 45
0001
0010
1000
0010
0001
2000
0000
3001
,  // measure 46
0000
0100
0001
0000
1001
0000
1010
0000
,  // measure 47
0010
0100
0010
1000
0010
2000
0000
3001
,  // measure 48
0001
0100
0010
0000
1010
0000
1001
0000
,  // measure 49
0001
0010
0001
0100
0010
0200
0000
0301
,  // measure 50
0000
1000
0001
0000
0101
0000
0110
0000
,  // measure 51
0010
1000
0100
0001
0100
2000
0000
3001
,  // measure 52
0000
0001
0100
0000
0110
0000
1010
0000
,  // measure 53
1000
0100
0010
1000
0010
0001
1000
0000
,  // measure 54
0001
0010
0100
0001
0100
1000
0001
0000
,  // measure 55
0100
0010
1000
0001
1000
0020
0000
0130
,  // measure 56
0000
0100
0001
0000
1001
0000
1010
0000
,  // measure 57
0010
0100
0001
0010
0100
1000
0001
0100
,  // measure 58
0000
0100
0010
0000
2010
0000
3002
0000
,  // measure 59
0103
0010
1000
0000
0001
0100
0001
0010
,  // measure 60
0001
1000
0010
0100
0010
1000
0001
0000
,  // measure 61
0100
0010
1000
0010
0100
0001
0010
0000
,  // measure 62
0001
1000
0010
0100
0010
1000
0001
0100
,  // measure 63
0001
0010
0001
1000
0100
0000
1000
0010
,  // measure 64
0001
0010
1000
0001
1000
0000
0010
0000
,  // measure 65
0100
0001
0010
0001
2000
0000
3100
1000
,  // measure 66
0001
0010
0001
0100
0020
0000
0230
0000
,  // measure 67
0301
1000
0100
0000
1000
0010
0100
0010
,  // measure 68
1000
0001
0100
0001
0010
0000
0001
0100
,  // measure 69
0010
1000
0010
0100
0001
1000
0001
0000
,  // measure 70
1000
0010
0100
0000
0001
0100
0010
1000
,  // measure 71
0001
0000
0100
0010
0100
0001
1000
0001
,  // measure 72
0100
0010
1000
0000
1000
0000
1001
0000
,  // measure 73
0201
0000
0300
0010
1000
0001
2000
0000
,  // measure 74
3001
0100
0001
1000
0010
1000
0001
0010
,  // measure 75
0200
0000
0300
0000
;

//---------------dance-single - ----------------
#NOTES:
     dance-single:
     :
     Challenge:
     15:
     0.902216,0.929336,0.445021,0.321930,0.459224,667.000000,620.000000,47.000000,34.000000,0.000000,0.000000,0.902216,0.929336,0.445021,0.321930,0.459224,667.000000,620.000000,47.000000,34.000000,0.000000,0.000000:
// measure 0
0000
0000
0000
0000
,  // measure 1
0000
0000
0000
0000
,  // measure 2
0000
0000
0000
0000
,  // measure 3
0001
1000
0010
1000
0001
1001
0000
0101
,  // measure 4
0000
0001
0011
0000
0110
0000
1100
0000
,  // measure 5
1000
0100
0001
0100
1000
0001
0000
0011
,  // measure 6
0000
0000
0010
0000
0001
0000
0100
0000
0010
0000
1000
0000
0100
0000
0010
0001
,  // measure 7
0010
0001
0100
0010
1000
1100
0000
0110
,  // measure 8
0000
0010
0001
0100
0010
1000
0100
0000
,  // measure 9
0010
0000
0001
1000
0001
0000
1000
0000
0010
0000
0100
0000
0000
0000
0001
0000
,  // measure 10
1000
0000
0010
0000
1000
0000
0100
0000
0010
0000
0001
0000
0100
0001
0100
0001
,  // measure 11
0100
0010
1000
0100
1000
0010
0100
0001
,  // measure 12
1000
0010
0001
0010
1000
0100
0001
0100
,  // measure 13
1000
0001
0010
0001
0100
0010
1000
0001
,  // measure 14
1000
0000
0100
0000
0010
0000
0001
0000
1001
0000
0000
0000
1010
0000
0010
1000
,  // measure 15
0001
1000
0001
0000
0100
0001
0010
0001
,  // measure 16
1000
0010
1000
0001
0100
0000
0001
1000
,  // measure 17
0100
1000
0100
0000
0010
0000
0001
0010
0001
0000
0100
0000
0010
0000
1000
0000
,  // measure 18
0001
0101
0110
1010
,  // measure 19
1000
0001
1000
0000
0010
0000
0100
0000
0001
0000
0000
0000
0011
0000
0000
0000
,  // measure 20
0110
0100
1100
0000
1001
0000
1000
0001
,  // measure 21
0010
0001
0010
0000
0100
0000
1000
0000
0001
0000
0100
0000
0010
0000
0000
0000
,  // measure 22
0100
0010
1000
0100
0001
0100
1000
0010
,  // measure 23
0100
0001
1000
0000
0001
0000
0000
0000
1000
0000
0010
0000
0001
0000
0000
0000
,  // measure 24
0010
1000
0001
0100
0010
0100
0001
0010
,  // measure 25
0001
0000
0001
1000
0100
0000
1000
0000
0010
0000
0100
0000
0001
0000
1000
0000
,  // measure 26
1001
0000
0000
0000
0000
0000
0000
0000
0001
0000
0010
0001
0010
0001
0100
0010
,  // measure 27
0100
0000
0001
0000
1000
0100
1000
0000
0010
0000
0100
0000
0001
0000
1000
0000
,  // measure 28
0001
0010
0001
0100
0110
0010
1000
0100
,  // measure 29
1000
0001
0010
0000
0001
0100
0010
0000
0100
0000
0001
0000
1000
0000
0100
0000
,  // measure 30
0010
0000
0001
0000
0100
0000
0010
0000
1000
0000
0100
1000
0100
0000
0010
0001
,  // measure 31
0100
0000
0010
0000
1000
0001
1000
0000
0010
0000
0100
0000
0001
0000
0010
0001
,  // measure 32
0010
0000
1000
0000
0010
0000
0001
0000
0100
0010
1000
0000
0001
0000
0100
0001
,  // measure 33
1000
0001
0101
0100
0110
0000
1010
1000
,  // measure 34
0100
0000
0010
0000
0001
0000
1000
0000
0001
0010
0001
1000
0100
1000
0010
0000
,  // measure 35
0100
0000
0100
0000
0101
0000
0000
0000
0011
0000
0010
0000
0100
0000
1000
0001
,  // measure 36
1000
0000
0010
0000
0100
0000
0001
0010
0001
0000
1000
0000
0100
0000
0000
0000
,  // measure 37
0010
0000
0001
0000
1000
0000
0100
0000
1000
0000
0001
0000
0100
0000
0010
1000
,  // measure 38
0010
0000
1000
0000
0100
0000
0010
0000
0001
0100
0001
0100
0010
0100
0010
1000
,  // measure 39
0010
0100
0001
0010
0010
1000
0001
0100
,  // measure 40
0100
1000
0001
0100
0110
0010
1010
1000
,  // measure 41
2001
0000
0000
0000
3001
0000
0100
0000
0010
1000
0100
0000
0001
0100
1000
0000
,  // measure 42
0001
0100
0010
0000
0100
0010
1000
0000
0001
1000
0100
1000
0010
1000
0001
0000
,  // measure 43
0102
0100
0103
0010
1100
2001
0000
3001
,  // measure 44
0001
0000
0001
0100
2000
0000
0000
0000
3100
0000
0001
0000
0021
0000
0000
0000
,  // measure 45
0130
0000
1000
0001
1000
0000
1010
0000
0010
0100
0020
0000
0000
0000
0130
0000
,  // measure 46
0001
0000
0001
0000
2001
0000
0000
0000
3010
0000
0100
0001
1000
0000
0001
0000
,  // measure 47
0100
0000
0100
0001
0010
0000
0001
0000
1000
0000
2010
0000
0000
0000
3010
0000
,  // measure 48
0110
0100
0101
0000
1001
0000
1010
0000
,  // measure 49
0010
0000
0100
0001
1000
0000
0001
0000
0100
0010
2000
0000
0000
0000
3001
0000
,  // measure 50
0000
0000
0010
0000
0001
0000
0100
0000
0010
0000
1000
0000
0100
0000
0010
0001
,  // measure 51
0010
0001
1001
1000
1100
0200
0000
0310
,  // measure 52
0001
0000
1000
0001
0010
0000
0001
0000
1000
0100
0010
0000
0001
0010
0100
0000
,  // measure 53
1000
0000
0001
0100
0010
0000
0100
0000
0001
1000
0020
0000
0100
0000
0130
0000
,  // measure 54
0001
0000
1000
0010
0001
0000
0010
0000
1000
0100
0001
0000
0100
1000
0001
0000
,  // measure 55
0010
0000
0001
1000
0100
0000
1000
0000
0001
0000
0012
0000
0000
0000
0103
0000
,  // measure 56
0010
0000
1000
0001
0100
0000
0001
0000
0011
0000
0000
0000
0110
0000
0100
0000
,  // measure 57
1000
0001
0010
0001
0100
0000
0010
0000
1000
0100
0010
0000
0100
0000
0120
0000
,  // measure 58
0000
0000
0031
0000
1000
0100
1000
0100
0020
0000
0000
0000
0032
0000
0000
0000
,  // measure 59
0103
0000
0010
0000
1000
0000
0100
0000
0010
0001
0010
0000
0001
0000
0100
0001
,  // measure 60
0100
0000
0010
0000
1000
0000
0100
0000
1000
0010
1000
0000
0001
0000
0100
0000
,  // measure 61
0010
1000
0020
0000
1030
0100
2000
0000
3001
0010
0002
0000
0103
0010
0200
0000
,  // measure 62
0310
0000
1000
0000
0001
0000
0100
0000
0010
1000
0001
0000
2000
0000
3100
0001
,  // measure 63
0200
0000
1300
0001
0020
0000
0031
0100
2000
0000
0100
0000
3001
0000
0100
0000
,  // measure 64
0010
0000
0100
0001
0010
0000
0100
1000
0010
0000
1000
0000
0001
0000
1000
0000
,  // measure 65
0001
0000
1000
0100
0001
0000
0001
0100
1000
0000
0010
0000
1000
0000
0100
0010
,  // measure 66
0001
0000
1000
0001
0010
0000
0001
0000
0201
0000
0000
0000
0320
0000
0000
0000
,  // measure 67
2030
0000
0001
0000
3001
0000
0100
0000
0010
0100
0002
0000
1003
0010
0200
0000
,  // measure 68
0301
0000
1000
0100
0002
0000
0103
0000
1000
0000
0010
0000
0100
0000
0001
0000
,  // measure 69
0010
0001
0010
0000
0100
0000
1000
0010
1000
0000
0001
0100
0010
0000
0100
0001
,  // measure 70
1000
0000
0001
1000
0100
0000
1000
0000
0001
0100
0001
0100
0010
1000
0010
1000
,  // measure 71
0200
0000
0001
0000
0301
0000
0100
0000
1000
0000
0010
0000
0100
0000
0001
0010
,  // measure 72
0100
1000
0001
0100
0010
1000
0001
1000
,  // measure 73
2002
0000
0000
0000
0003
0000
3100
0000
0010
0001
0010
0000
0012
0000
0000
0000
,  // measure 74
1003
0000
1000
0000
0100
0000
0010
0000
0001
1000
0001
0000
1000
0100
0010
0001
,  // measure 75
0200
0000
0300
0000
;
