#VERSION:0.83;
#TITLE:Cytokinesis;
#SUBTITLE:;
#ARTIST:Hommarju;
#TITLETRANSLIT:;
#SUBTITLETRANSLIT:;
#ARTISTTRANSLIT:;
#GENRE:;
#ORIGIN:;
#CREDIT:;
#BANNER:Cytokinesis.png;
#BACKGROUND:Cytokinesis-bg.png;
#PREVIEWVID:;
#JACKET:Cytokinesis-jacket.png;
#CDIMAGE:;
#DISCIMAGE:;
#LYRICSPATH:;
#CDTITLE:;
#MUSIC:Cytokinesis.ogg;
#OFFSET:0.000000;
#SAMPLESTART:96.665001;
#SAMPLELENGTH:15.000000;
#SELECTABLE:YES;
#DISPLAYBPM:111.000000:444.000000;
#BPMS:0.000=111.000,
20.000=115.000,
24.000=145.000,
26.000=162.000,
27.000=172.000,
28.000=190.000,
29.000=200.000,
30.000=225.000,
32.000=258.000,
33.000=240.000,
34.000=278.000,
36.000=154.000,
72.000=153.200,
80.000=160.000,
82.000=171.400,
88.000=180.000,
92.000=190.000,
96.000=197.500,
100.000=182.300,
104.000=182.000,
216.000=189.500,
220.000=205.500,
224.000=209.000,
228.000=225.000,
232.000=232.000,
236.000=248.400,
240.000=262.000,
248.000=141.000,
250.000=153.300,
252.000=167.500,
254.000=171.500,
256.000=180.000,
258.000=195.000,
260.000=212.000,
264.000=225.000,
268.000=228.800,
272.000=257.200,
276.000=276.400,
281.000=444.280;
#STOPS:;
#DELAYS:;
#WARPS:;
#TIMESIGNATURES:0.000=4=4;
#TICKCOUNTS:0.000=4;
#COMBOS:0.000=1;
#SPEEDS:0.000=1.000=0.000=0;
#SCROLLS:0.000=1.000;
#FAKES:;
#LABELS:0.000=Song Start;
#BGCHANGES:;
#KEYSOUNDS:;
#ATTACKS:
;

//---------------dance-single - ----------------
#NOTEDATA:;
#CHARTNAME:;
#STEPSTYPE:dance-single;
#DESCRIPTION:;
#CHARTSTYLE:;
#DIFFICULTY:Hard;
#METER:14;
#RADARVALUES:0.589811,0.817254,0.148930,0.074465,0.099287,499.000000,481.000000,18.000000,9.000000,0.000000,0.000000,0.000000,0.000000,0.000000,0.589811,0.817254,0.148930,0.074465,0.099287,499.000000,481.000000,18.000000,9.000000,0.000000,0.000000,0.000000,0.000000,0.000000;
#CREDIT:;
#DISPLAYBPM:111.000000:444.000000;
#NOTES:
// measure 0
0000
0000
0000
0000
,  // measure 1
0000
0000
0000
0000
,  // measure 2
0000
0000
0000
0000
,  // measure 3
0000
0000
0000
0000
,  // measure 4
0000
0000
0000
0000
,  // measure 5
0001
1000
0001
0010
,  // measure 6
1000
0010
0100
0001
,  // measure 7
0100
0001
1000
0001
,  // measure 8
0010
0001
0100
0010
,  // measure 9
0220
0000
0330
0000
0010
0100
0001
0010
,  // measure 10
0001
0000
1000
0000
0100
0000
0000
0000
0010
1000
0010
1000
0010
0000
0000
0000
,  // measure 11
1000
0000
0100
0000
1000
0000
0000
0000
0100
1000
0100
1000
0001
0000
0000
0000
,  // measure 12
0001
0000
1000
0000
0010
0000
0000
0000
0100
0010
0100
0010
1000
0000
0000
0000
,  // measure 13
0002
0000
0003
0000
0010
0001
0100
0001
,  // measure 14
1000
0000
0010
0000
0100
0000
0000
0000
0010
0100
0010
0100
0010
0000
0000
0000
,  // measure 15
1000
0000
0100
0000
0001
0000
0000
0000
0100
0010
0100
0010
0100
0000
0000
0000
,  // measure 16
1000
0001
0010
0000
0100
1000
0010
0000
,  // measure 17
2000
0000
3000
0000
0001
0010
0100
1000
,  // measure 18
0100
0000
0010
0001
0010
0000
0010
0000
,  // measure 19
0100
0000
1000
0100
1000
0000
1000
0000
,  // measure 20
0001
0000
0010
0100
0010
0000
0010
0000
,  // measure 21
0001
0000
0001
0010
0001
1000
0001
0000
,  // measure 22
1000
0000
0100
1000
0010
0000
0100
0001
,  // measure 23
0010
0000
0001
0010
0001
0000
0100
0010
,  // measure 24
1000
0011
0110
0001
,  // measure 25
0200
0000
0020
0330
,  // measure 26
1000
0000
0000
0000
0001
0000
0000
0000
0010
0100
0010
0000
0100
0000
0010
0001
,  // measure 27
1000
0000
0100
0000
1000
0000
0100
0010
,  // measure 28
0100
0000
0000
0000
0010
0000
0100
0000
1000
0100
1000
0000
0100
0000
0000
0000
,  // measure 29
0000
0000
1000
0000
0001
0000
0000
0100
0000
0001
0000
0000
1000
0000
0100
0000
,  // measure 30
0002
0000
0000
0000
0000
0000
0000
0000
0103
0000
0010
0100
0000
0010
0001
0000
,  // measure 31
0100
0000
0100
0000
1000
0000
0100
0010
,  // measure 32
0100
0000
0000
0000
0010
0000
0100
0000
0001
0000
0010
0001
0010
0000
0001
0000
,  // measure 33
0000
0000
0001
0000
1000
0000
0000
1000
0000
0100
0000
0000
0001
0000
0100
0000
,  // measure 34
1000
0000
0000
0000
0010
0000
0000
0100
0000
0010
0100
0000
0010
0000
0100
0000
,  // measure 35
0001
0000
0000
0000
0010
0000
0000
0100
0000
0010
0100
0000
0010
0000
0100
0000
,  // measure 36
1000
0010
0100
0001
0010
0100
1000
0100
,  // measure 37
1000
0100
0010
0001
0100
0010
1000
0100
,  // measure 38
1000
0100
0010
0000
0001
0100
0000
0010
,  // measure 39
0100
0010
1000
0000
0010
0100
0000
0010
,  // measure 40
0000
1000
0010
0000
0100
0001
0000
0100
,  // measure 41
0000
0001
0010
0000
0001
0010
0100
1000
,  // measure 42
0001
0100
0010
0000
0010
0100
0000
0010
,  // measure 43
1000
0010
0001
0000
0010
0100
0000
0010
,  // measure 44
0000
1000
0010
0000
0100
0010
0000
1000
,  // measure 45
0000
0100
0010
0000
1000
0010
0100
0001
,  // measure 46
1000
0100
0010
0000
0100
0000
0000
0000
,  // measure 47
0100
0010
0001
0000
0010
0000
0000
0000
,  // measure 48
0010
0001
0010
0000
0100
0010
0000
0001
,  // measure 49
0000
0100
0010
0000
1000
0000
1001
0000
,  // measure 50
0001
0100
0010
0000
1000
0000
0001
0000
,  // measure 51
1000
0010
1000
0000
1001
0000
0000
0000
,  // measure 52
0100
1000
0010
0000
0100
0010
0000
1000
,  // measure 53
0000
0100
0010
0000
0001
0010
0001
0100
,  // measure 54
1100
0000
0100
0000
,  // measure 55
0101
0000
0001
0000
,  // measure 56
0110
0000
0010
0000
,  // measure 57
0011
0000
0001
0000
,  // measure 58
1001
0000
1000
0000
,  // measure 59
0011
0000
0010
0000
,  // measure 60
0101
0000
0100
0000
,  // measure 61
1001
0000
1000
0000
,  // measure 62
1000
0100
0010
0100
0010
0001
0100
0010
,  // measure 63
1000
0001
0010
0100
1000
0100
0010
0100
,  // measure 64
1000
0100
0010
0001
1000
0001
1000
0010
,  // measure 65
0100
0001
0100
0001
1000
0100
1000
0001
,  // measure 66
0100
0010
0100
0001
1000
0001
0100
0001
,  // measure 67
1000
0010
1000
0001
0100
0001
1000
0001
,  // measure 68
1000
0100
0010
0001
0010
0001
0010
0100
,  // measure 69
0010
0100
1000
0001
0010
0100
0010
0001
,  // measure 70
0100
0010
1000
0000
0001
0000
0010
0000
,  // measure 71
0100
1000
0000
0100
,  // measure 72
0000
0010
0000
1000
,  // measure 73
0000
0100
0000
0100
,  // measure 74
0000
0010
0000
0010
,  // measure 75
0000
0100
0010
0100
,  // measure 76
0000
0001
0010
0001
,  // measure 77
0000
1000
0100
0010
,  // measure 78
0001
1000
0100
1000
,  // measure 79
0000
0001
0000
0010
,  // measure 80
0000
0100
0000
0010
,  // measure 81
0000
0001
1000
0100
,  // measure 82
1000
0001
0010
0001
,  // measure 83
0000
1000
0100
0000
,  // measure 84
1000
0010
0100
0010
,  // measure 85
0100
0001
0010
0100
,  // measure 86
1000
0100
1000
0100
,  // measure 87
0001
0100
1000
0001
,  // measure 88
0100
0010
0100
0001
,  // measure 89
0010
0100
0010
1000
,  // measure 90
0010
0001
0100
0010
,  // measure 91
0001
0010
0100
0001
,  // measure 92
0100
0001
0010
0100
,  // measure 93
0001
0000
0100
0010
0100
0000
1000
0000
,  // measure 94
0001
1000
0100
1000
,  // measure 95
0001
0000
0100
0000
0000
0000
0010
0100
,  // measure 96
0010
0100
0010
0100
,  // measure 97
0001
0100
0101
0000
,  // measure 98
0000
1000
0010
1000
,  // measure 99
0001
0010
0100
1000
,  // measure 100
0100
0000
0010
0100
0010
0000
0100
0000
,  // measure 101
1000
0000
0001
0100
0001
0000
1000
0000
,  // measure 102
0100
0010
0000
0000
,  // measure 103
0000
0011
0000
0000
,  // measure 104
0000
0110
0000
0000
,  // measure 105
0000
1001
0000
0000
,  // measure 106
0000
0220
0000
0000
,  // measure 107
0000
0000
0000
0000
,  // measure 108
0000
0000
0000
0000
,  // measure 109
0000
0000
0000
0330
;

//---------------dance-single - ----------------
#NOTEDATA:;
#CHARTNAME:;
#STEPSTYPE:dance-single;
#DESCRIPTION:;
#CHARTSTYLE:;
#DIFFICULTY:Beginner;
#METER:5;
#RADARVALUES:0.133564,0.363224,0.033096,0.115835,0.000000,113.000000,109.000000,4.000000,14.000000,0.000000,0.000000,0.000000,0.000000,0.000000,0.133564,0.363224,0.033096,0.115835,0.000000,113.000000,109.000000,4.000000,14.000000,0.000000,0.000000,0.000000,0.000000,0.000000;
#CREDIT:;
#DISPLAYBPM:111.000000:444.000000;
#NOTES:
0000
0000
0000
0000
,
0000
0000
0000
0000
,
0000
0000
0000
0000
,
0000
0000
0000
0000
,
0000
0000
0000
0000
,
0000
0000
0000
0000
,
0000
0000
0000
0000
,
0000
0000
0000
0000
,
0000
0000
0000
0000
,
0000
0000
0000
0000
,
0001
0001
0001
0000
,
1000
1000
1000
0000
,
0010
0010
0010
0000
,
2000
0000
0000
3000
,
1000
1000
1000
0000
,
0001
0001
0001
0000
,
0100
0100
0100
0000
,
0002
0000
0000
0003
,
0001
0000
0100
0000
,
0010
0000
0100
0000
,
0001
0000
1000
0000
,
0001
0000
1000
0000
,
2002
0000
0000
0000
,
0000
0000
0000
0000
,
0000
0000
0000
0000
,
0000
0000
0000
0000
,
3003
0000
0000
0000
,
0100
0000
0000
0000
,
0100
0000
0100
0000
,
0010
0010
0010
0000
,
1001
0000
0000
0000
,
0110
0000
0000
0000
,
0001
0001
0000
0000
,
1000
1000
1000
1000
,
1000
0000
0100
0100
,
0100
0000
0010
0010
,
0010
0000
0001
0001
,
0001
0001
0001
0000
,
2000
0000
0000
0000
,
0000
0000
3000
0000
,
0020
0000
0000
0000
,
0000
0000
0000
0030
,
2000
0000
0000
0000
,
0000
0000
0000
3000
,
0000
0000
0000
0000
,
0000
0000
0000
0000
,
0002
0000
0000
0000
,
0000
0000
0003
0000
,
0020
0000
0000
0000
,
0000
0000
0030
0000
,
0002
0000
0000
0000
,
0000
0000
0003
0000
,
0020
0000
0000
0000
,
0000
0000
0030
0000
,
0010
0000
0000
0000
,
0010
0000
0000
0000
,
0010
0000
0000
0000
,
0010
0000
0000
0000
,
0010
0000
0000
0000
,
0010
0000
0000
0000
,
0010
0000
0000
0000
,
0010
0000
0000
0000
,
0010
0010
0010
0000
,
0001
0001
0001
0000
,
1000
0000
1000
0000
,
0001
0000
0001
0000
,
0100
0000
0000
0000
,
0200
0000
0000
0000
,
0000
0000
0000
0000
,
0000
0000
0000
0300
,
0000
1000
0000
0000
,
0000
0000
0000
0000
,
0000
1000
0000
0000
,
0000
0100
0000
0000
,
0000
0100
0000
0000
,
0000
0000
0000
0000
,
0000
0100
0000
0000
,
0000
0001
0000
0000
,
0000
0001
0000
0000
,
0000
0000
0000
0000
,
0000
0001
0000
0000
,
0000
0010
0000
0000
,
0000
0010
0000
0000
,
0000
0000
0000
0000
,
0000
1000
0000
0000
,
0000
0001
0000
0000
,
0000
0001
0000
0000
,
0000
0000
0000
0000
,
0000
0001
0000
0000
,
0000
0100
0000
0000
,
0000
0100
0000
0000
,
0000
0000
0000
0000
,
0000
0100
0000
0000
,
0000
1000
0000
0000
,
0000
1000
0000
0000
,
0000
0000
0000
1000
,
0000
0000
0000
0000
,
0000
0000
0000
0000
,
0000
0010
0000
0000
,
0000
0000
0000
0000
,
0000
0001
0000
0000
,
0000
0000
0000
0000
,
0000
1000
0000
0000
,
0000
0001
0000
0000
,
0000
1000
0000
0000
,
0000
0010
0000
0000
,
0000
0220
0000
0000
,
0000
0000
0000
0000
,
0000
0000
0000
0000
,
0000
0000
0000
0330
;

//---------------dance-single - ----------------
#NOTEDATA:;
#CHARTNAME:;
#STEPSTYPE:dance-single;
#DESCRIPTION:;
#CHARTSTYLE:;
#DIFFICULTY:Easy;
#METER:9;
#RADARVALUES:0.235215,0.454030,0.157204,0.140656,0.000000,199.000000,180.000000,19.000000,17.000000,0.000000,0.000000,0.000000,0.000000,0.000000,0.235215,0.454030,0.157204,0.140656,0.000000,199.000000,180.000000,19.000000,17.000000,0.000000,0.000000,0.000000,0.000000,0.000000;
#CREDIT:;
#DISPLAYBPM:111.000000:444.000000;
#NOTES:
0000
0000
0000
0000
,
0000
0000
0000
0000
,
0000
0000
0000
0000
,
0000
0000
0000
0000
,
0000
0000
0000
0000
,
2000
0000
0000
0000
,
0000
0000
0000
0000
,
0000
0000
0000
0000
,
0000
0000
0000
0000
,
3000
0000
0000
0000
,
0001
1000
0010
1000
,
0100
0010
0001
0001
,
1000
0001
0010
0001
,
2001
0000
0001
3001
,
1000
0001
0010
0001
,
0100
0010
1000
0100
,
0001
0100
0010
0001
,
1002
0000
1000
1003
,
0001
0000
1000
0000
,
0001
0000
1000
0000
,
0001
0000
1000
0000
,
0001
0000
1000
0000
,
0001
0000
1000
0000
,
0001
0000
1000
0000
,
0001
0000
1000
0000
,
0001
0000
0000
0000
,
1000
0001
0100
0000
,
1001
0000
0000
0000
,
0100
0001
0010
0000
,
0100
1000
0001
0010
,
0001
1000
0000
0000
,
0110
0000
0000
0000
,
1001
1001
0000
0000
,
0001
0010
1000
0010
,
1001
0000
1000
0001
,
1000
0000
0001
1000
,
0001
0010
0100
1000
,
0010
0100
0001
0000
,
0002
0000
0000
0000
,
0000
0000
0000
0003
,
0020
0000
0000
0000
,
0000
0000
0000
0030
,
0200
0000
0000
0000
,
0000
0000
0000
0300
,
2000
0000
0000
0000
,
0000
0000
0000
3000
,
0200
0000
0010
0000
,
0000
0000
0010
0300
,
0020
0000
0100
0000
,
0000
0000
0100
0030
,
0002
0000
1000
0000
,
0000
0000
1000
0003
,
0200
0000
0010
0000
,
0000
0000
0010
0300
,
1001
0000
0000
0000
,
0110
0000
0000
0000
,
1100
0000
0000
0000
,
0011
0000
0000
0000
,
1100
0000
0000
0000
,
0100
0000
0000
0000
,
0001
0000
0000
0000
,
1000
0000
0000
0000
,
1000
0100
0010
0001
,
0100
0010
0100
0000
,
1000
0001
0100
0010
,
0100
1000
0100
0000
,
0100
1000
0100
1000
,
0100
1000
0100
0000
,
0002
0000
0000
0000
,
0200
0000
0000
0000
,
0303
1000
0000
0100
,
0000
0001
0000
0100
,
0000
1000
0000
0100
,
0000
0010
0000
0001
,
0000
0000
0000
0001
,
0000
0000
0000
0100
,
0000
1000
0000
0100
,
0000
0010
0000
0000
,
0000
1000
0000
0001
,
0000
1000
0000
0010
,
0000
0100
0000
1000
,
0000
0100
0000
0000
,
0000
0000
0000
0001
,
0000
0000
0000
1000
,
0000
0001
0000
0010
,
0000
0100
0000
0110
,
0000
0001
0000
0100
,
0000
0001
0000
1000
,
0000
0100
0000
1000
,
0000
0001
0000
0000
,
0000
0000
0000
1000
,
0000
0010
0000
0100
,
0000
0001
0000
0100
,
0000
0010
0000
0000
,
0000
0100
0000
0001
,
0000
0100
0000
0000
,
0000
0010
0000
0001
,
0000
0010
0000
0000
,
0000
0000
0000
0100
,
0000
1000
0000
0100
,
0000
0220
0000
0000
,
0000
0000
0000
0330
,
0000
1001
0000
0000
,
0000
0011
0000
0000
,
0000
1100
0000
0000
,
0000
0110
0000
0000
,
0000
2020
0000
0000
,
0000
0000
0000
0000
,
0000
0000
0000
0000
,
0000
0000
0000
3030
;

//---------------dance-single - ----------------
#NOTEDATA:;
#CHARTNAME:;
#STEPSTYPE:dance-single;
#DESCRIPTION:;
#CHARTSTYLE:;
#DIFFICULTY:Medium;
#METER:12;
#RADARVALUES:0.379417,0.544836,0.132382,0.082739,0.000000,321.000000,305.000000,16.000000,10.000000,0.000000,0.000000,0.000000,0.000000,0.000000,0.379417,0.544836,0.132382,0.082739,0.000000,321.000000,305.000000,16.000000,10.000000,0.000000,0.000000,0.000000,0.000000,0.000000;
#CREDIT:;
#DISPLAYBPM:111.000000:444.000000;
#NOTES:
0000
0000
0000
0000
,
0000
0000
0000
0000
,
0000
0000
0000
0000
,
0000
0000
0000
0000
,
0000
0000
0000
0000
,
0010
1000
0010
1000
,
0002
0000
0000
0000
,
0000
0000
0000
0000
,
0000
0000
0000
0000
,
0003
0000
0000
0000
0100
0010
0100
0010
,
1000
0000
0100
0000
0010
0001
0010
0000
,
0001
1000
0100
1000
,
0001
0010
0100
0010
,
0002
0000
0000
0003
0010
0001
0100
0001
,
0001
0000
0100
0000
0010
1000
0010
0000
,
1000
0001
0100
0001
,
1000
0010
0100
0010
,
2000
0000
0000
3000
0010
1000
0100
0000
,
0100
0000
0010
0001
0010
0000
0000
0000
,
0100
0000
1000
0100
1000
0000
0000
0000
,
0001
0000
0010
0100
0010
0000
0000
0000
,
1000
0000
0001
0010
0001
0000
0000
0000
,
1000
0000
0100
1000
0010
0000
0100
0001
,
0010
0001
1000
0100
,
1000
0001
0010
0001
,
0200
0000
0020
0330
,
1000
0000
0001
0000
0010
0001
0100
0000
,
1000
0100
0001
0010
,
0100
0000
0010
0100
1000
0000
0100
0000
,
0000
0010
0010
0000
0100
0000
1000
0000
,
0002
0000
0010
0103
,
1000
0100
1000
0100
,
0001
0100
0001
0010
,
0001
0100
1000
0000
0100
0000
0010
0000
,
0001
0010
0010
0100
,
0100
0001
0001
0001
,
0010
0010
0010
0100
,
0001
0010
0001
0000
1000
0001
1000
0000
,
1000
0100
0010
0000
0010
0000
0000
0000
,
0001
0010
0001
0000
1000
0000
0000
0000
,
1000
0001
0010
0000
0100
0000
0000
0000
,
0001
0100
0010
0000
1000
0000
0000
0000
,
0001
0100
0010
0000
0100
0000
0000
0000
,
0001
0010
0001
0000
0010
0000
0000
0000
,
0001
1000
0010
0000
0100
0000
0000
0000
,
1000
0100
0010
0000
1000
0000
0001
0000
,
0110
0000
0010
0100
0010
0000
0000
0000
,
0001
1000
0001
0000
0010
0001
0000
0000
,
0010
0001
0010
0000
0001
0000
0000
0000
,
0010
0100
0010
0000
0100
0000
0010
0000
,
1100
0000
0010
0100
1000
0000
0000
0000
,
1000
0010
1000
0000
0100
0000
0000
0000
,
0100
1000
0010
0000
0100
0000
0000
0000
,
0001
0100
0010
0000
1000
0000
0001
0000
,
1100
0000
0000
0000
,
0101
0000
0000
0000
,
0110
0000
0000
0000
,
0011
0000
0000
0000
,
1001
0000
0000
0000
,
0011
0000
0000
0000
,
0001
0000
0000
0000
,
0100
0000
0000
0000
,
1000
0010
0100
0001
,
1000
0010
0001
0010
,
0001
0010
0100
1000
,
0100
0001
1000
0001
,
0100
0001
1000
0001
,
1000
0010
0100
0001
,
2002
0000
0000
0000
,
0000
0000
0000
3003
,
0000
1000
0000
0001
,
0000
1000
0000
0100
,
0000
0010
0000
0001
,
0000
0100
0000
0100
,
0000
0010
0000
0010
,
0000
0100
0000
0100
,
0000
0001
0000
0100
,
0000
0001
0100
0001
,
0000
1000
0000
1000
,
0000
0001
0000
0010
,
0000
0100
0000
0010
,
0000
0001
0100
0001
,
0000
1000
0000
0001
,
0000
1000
0000
1000
,
0000
0010
0100
0010
,
0000
0100
0010
1000
,
0000
0001
0000
0010
,
0000
0001
0000
0100
,
0000
0010
0000
1000
,
0000
0100
0000
0100
,
0000
0010
0000
0010
,
0000
0100
0000
0100
,
0000
1000
0010
0100
,
0000
0110
0000
0000
,
0000
0001
0100
0001
,
0000
1000
0000
0110
,
0000
0100
0000
0010
,
0000
0001
1000
0000
,
0000
1000
0000
1000
,
0000
0001
0000
0001
,
0000
0010
0100
0010
,
0000
1000
0010
1000
,
0000
1010
0000
0000
,
0000
1001
0000
0000
,
0000
0110
0000
0000
,
0000
1001
0000
0000
,
0000
0220
0000
0000
,
0000
0000
0000
0000
,
0000
0000
0000
0000
,
0000
0000
0000
0330
;

//---------------dance-double - ----------------
#NOTEDATA:;
#CHARTNAME:;
#STEPSTYPE:dance-double;
#DESCRIPTION:;
#CHARTSTYLE:;
#DIFFICULTY:Hard;
#METER:14;
#RADARVALUES:0.576809,0.707418,0.165478,0.074465,0.124108,488.000000,468.000000,20.000000,9.000000,0.000000,0.000000,0.000000,0.000000,0.000000,0.576809,0.707418,0.165478,0.074465,0.124108,488.000000,468.000000,20.000000,9.000000,0.000000,0.000000,0.000000,0.000000,0.000000;
#CREDIT:;
#DISPLAYBPM:111.000000:444.000000;
#NOTES:
00000000
00000000
00000000
00000000
,
00000000
00000000
00000000
00000000
,
00000000
00000000
00000000
00000000
,
00000000
00000000
00000000
00000000
,
00000000
00000000
00000000
00000000
,
00001001
00001000
00000001
00000010
,
00001000
00000010
00000100
00000001
,
00000100
00000010
00001000
00010000
,
00100000
01000000
10000000
01000000
,
02200000
00000000
03300000
00000000
00100000
01000000
00010000
00100000
,
00010000
00000000
10000000
00000000
01000000
00000000
00000000
00000000
00100000
00010000
00100000
00010000
00100000
00000000
00000000
00000000
,
00001000
00000000
00010000
00000000
00001000
00000000
00000000
00000000
00000100
00000010
00000100
00000010
00001000
00000000
00000000
00000000
,
00000001
00001000
00000010
00000000
00000100
00000001
00000010
00000000
,
00002000
00000000
00013000
00000000
00100000
01000000
00010000
10000000
,
01000000
00000000
00100000
00000000
00010000
00000000
00000000
00000000
01000000
00010000
01000000
00010000
01000000
00000000
00000000
00000000
,
00001000
00000000
00010000
00000000
00001000
00000000
00000000
00000000
00000100
00000010
00000100
00000010
00001000
00000000
00000000
00000000
,
00001000
00000000
00000010
00000000
00000100
00000000
00000000
00000000
00000001
00000100
00000001
00000100
00000010
00000000
00000000
00000000
,
00000200
00000000
00000000
00000000
00000000
00000300
00000000
00000000
00001000
00000000
00010000
00000000
01000000
00000000
10000000
00000000
,
01000000
00000000
00100000
00010000
00100000
00000000
00100000
00000000
,
01000000
00000000
10000000
01000000
10000000
01000000
01000000
00000000
,
00010000
00000000
00001000
00000010
00000100
00000000
00000001
00000000
,
00000100
00000000
00001000
00000100
00000010
00001000
00010000
00001000
,
00010000
00000000
01000000
10000000
00100000
00000000
01000000
00010000
,
00100000
00000000
00001000
00010000
01000000
00000000
10000000
00100000
,
00010000
00001000
00000110
00000001
,
00000200
00000000
00000020
00000330
,
00000100
00000000
00000000
00000000
00001000
00000000
00000000
00000000
00010000
00001000
00100000
00000000
00010000
00000000
01000000
00010000
,
10000000
00000000
00100000
00000000
00010000
00000000
00001000
00010000
,
00001000
00000000
00000000
00000000
00000010
00000000
00000100
00000000
00001000
00000100
00001000
00000000
00000100
00000000
00000000
00000000
,
00000000
00000000
00000001
00000000
00000001
00000000
00000000
00000100
00000000
00001000
00000000
00000000
00000001
00000000
00000100
00000000
,
00002000
00000000
00000000
00000000
00000000
00000000
00000000
00000000
00013000
00000000
00100000
01000000
00000000
00100000
01000000
00000000
,
00010000
00000000
01000000
00000000
10000000
00000000
01000000
00100000
,
01000000
00000000
00000000
00000000
00100000
00000000
00010000
00000000
00001000
00000000
00000100
00000010
00000100
00000010
00000000
00000000
,
00000000
00000000
00001000
00000000
00000001
00000000
00000000
00000010
00000000
00001000
00000000
00000000
00010000
00000000
00001000
00000000
,
00000100
00000000
00000000
00000000
00000010
00000000
00000000
00000100
00000000
00000010
00000100
00000000
00000010
00000000
00000100
00000000
,
00001000
00000000
00000000
00000000
00010000
00000000
00000000
00001000
00000000
00010000
00001000
00000000
00010000
00000000
00001000
00000000
,
00010000
00100000
01000000
10000000
01000000
00100000
00010000
00100000
,
10000000
00100000
10000000
01000000
00010000
00001000
00010000
00000000
,
00001000
00000100
00000010
00000000
00000001
00000010
00000000
00000100
,
00000010
00000100
00001000
00000000
00010000
01000000
00000000
00100000
,
00000000
10000000
00100000
00000000
00010000
10000000
00000000
01000000
,
00000000
00010000
00001000
00000000
00000100
00000010
00000100
00000001
,
00000010
00000100
00000010
00000000
00000010
00000001
00000000
00000010
,
00000100
00001000
00000001
00000000
00000100
00000010
00000000
00000001
,
00000000
00000010
00000100
00000000
00001000
00010000
00000000
00100000
,
00000000
01000000
00010000
00000000
01000000
00100000
10000000
00100000
,
00010000
00001000
00000100
00000000
00000101
00000000
00000000
00000000
,
00000001
00000010
00001000
00000000
00000110
00000000
00000000
00000000
,
00000100
00010000
00001000
00000000
00100000
00010000
00000000
00100000
,
00000000
01000000
10000000
00000000
11000000
00000000
00000000
00000000
,
00010000
01000000
00100000
00000000
01100000
00000000
00000000
00000000
,
10000000
00100000
00010000
00000000
00011000
00000000
00000000
00000000
,
00001000
00000100
00000001
00000000
00000010
00000001
00000000
00000001
,
00000100
00001000
00010000
00000000
00100000
00000000
00010000
00000000
,
11000000
00000000
01000000
00000000
,
00011000
00000000
00001000
00000000
,
00000110
00000000
00000010
00000000
,
00000011
00000000
00000001
00000000
,
00000101
00000000
00001000
00000000
,
00011000
00000000
01000000
00000000
,
01100000
00000000
10000000
00000000
,
11000000
00000000
00010000
00000000
,
10000000
01000000
00100000
01000000
00100000
00001000
00010000
00001000
,
00010000
00000100
00000010
00000100
00001000
00000001
00000100
00000001
,
00001000
00000001
00000100
00000010
00001000
00000100
00010000
00001000
,
00010000
00100000
01000000
00100000
10000000
00100000
10000000
01000000
,
10000000
01000000
10000000
00100000
01000000
00010000
00100000
00001000
,
00010000
00000100
00001000
00000100
00000010
00000100
00001000
00000100
,
00001000
00000001
00000100
00000001
00000100
00000010
00001000
00000100
,
00010000
00001000
00100000
00010000
10000000
01000000
10000000
01000000
,
00100000
01000000
10000000
00010000
00100000
00000000
00010000
00000000
,
01000000
00000000
00100000
00000000
10000000
00000000
01000000
00010000
,
00000000
00001000
00010000
00000000
00000010
00000000
00000100
00000010
,
00000100
00000000
00000001
00000100
00001000
00000000
00010000
00001000
,
00000000
00001000
00010000
00100000
10000000
00000000
00010000
00000000
,
00100000
00000000
01000000
00000000
00100000
00000000
00001000
00010000
,
00000000
00010000
00001000
00000000
00100000
00000000
00001000
00010000
,
00000000
00000000
00001000
00000000
00000010
00000000
00000100
00000000
00000010
00000000
00000000
00000000
00000001
00001000
00000001
00000000
,
00000100
00000010
00000000
00000100
00001000
00000000
00010000
00100000
,
00000000
10000000
00100000
01000000
00010000
00000000
01000000
00100000
,
00000000
00010000
00001000
00000100
00000010
00000000
00000100
00000010
,
00000000
00000000
00000100
00000000
00000001
00000000
00000010
00000000
00000100
00000000
00000000
00000000
00001000
00000100
00001000
00000000
,
00000100
00010000
00000000
00000100
00001000
00000100
00001000
00000000
,
00000100
00001000
00000100
00000000
00001000
00000000
00000100
00000000
00010000
00000000
00001000
00000000
01000000
00000000
00010000
00000000
,
00000000
00000000
01000000
00100000
00010000
00001000
00010000
00000100
,
00001000
00000000
00000100
00000000
00000010
00000100
00000010
00000000
00000100
00000000
00001000
00000000
00000001
00000100
00000001
00000000
,
00001000
00000100
00000010
00000000
00000000
00000000
00011000
00000000
,
00000000
01100000
00000000
10010000
,
00000000
02200000
00000000
00000000
,
00000000
00000000
00000000
00000000
,
03300000
00000000
00000000
00000000
;

//---------------dance-double - ----------------
#NOTEDATA:;
#CHARTNAME:;
#STEPSTYPE:dance-double;
#DESCRIPTION:;
#CHARTSTYLE:;
#DIFFICULTY:Medium;
#METER:12;
#RADARVALUES:0.386509,0.484023,0.148930,0.082739,0.000000,327.000000,309.000000,18.000000,10.000000,0.000000,0.000000,0.000000,0.000000,0.000000,0.386509,0.484023,0.148930,0.082739,0.000000,327.000000,309.000000,18.000000,10.000000,0.000000,0.000000,0.000000,0.000000,0.000000;
#CREDIT:;
#DISPLAYBPM:111.000000:444.000000;
#NOTES:
00000000
00000000
00000000
00000000
,
00000000
00000000
00000000
00000000
,
00000000
00000000
00000000
00000000
,
00000000
00000000
00000000
00000000
,
00000000
00000000
00000000
00000000
,
00000010
00001000
00000010
00001000
,
00000002
00000000
00000000
00000000
,
00000000
00000000
00000000
00000000
,
00000000
00000000
00000000
00000000
,
00000003
00000000
00000000
00000000
00000001
00000010
00001000
00000000
,
00100000
00000000
01000000
00000000
00100000
10000000
00100000
00000000
,
00010000
10000000
01000000
10000000
,
01000000
00010000
00001000
00000100
,
00000002
00000000
00000000
00000003
00000010
00000001
00000100
00000001
,
00000100
00000000
00001000
00000000
00100000
00010000
00100000
00000000
,
00001000
00100000
01000000
10000000
,
01000000
00010000
00000010
00000100
,
00000002
00000000
00000000
00000000
00000013
00001000
00010000
00000000
,
01000000
00000000
00100000
00010000
01000000
00000000
00001000
00000000
,
00010000
00000000
00010000
00000010
00000100
00000000
00000000
00000000
,
00000001
00000000
00000100
00000010
00001000
00000000
00000000
00000000
,
00000100
00000000
00000010
00001000
00010000
00000000
00001000
00000000
,
00011000
00000000
00100000
01000000
00100000
00000000
00010000
00100000
,
00010000
00000000
00001000
00010000
00001000
00000000
00010000
00000000
,
00001000
00000100
00001000
00010000
,
02000000
00000000
00200000
03300000
,
10000000
00000000
00010000
00000000
00100000
00010000
01000000
00000000
,
10000000
01000000
00100000
00010000
,
00001000
00000000
00000010
00000100
00001000
00000000
00000100
00000000
,
00000000
00000010
00000100
00000000
00000000
00000000
00010000
00000000
,
00020000
00000000
00100000
00130000
,
10000000
01000000
10000000
01000000
,
00010000
00001000
00000100
00000010
,
00000100
00000010
00001000
00000000
00000001
00000000
00000100
00000000
,
00001000
00010000
00100000
01000000
,
01000000
00010000
00010000
00010000
,
00000010
00000010
00000010
00000100
,
00001000
00000100
00001000
00000000
00010000
00001000
00010000
00000000
,
00100000
01000000
00100000
00000000
01000000
00000000
00000000
00000000
,
00010000
00001000
00010000
00000000
00001000
00000000
00000000
00000000
,
00001000
00000100
00000010
00000000
00000100
00000000
00000000
00000000
,
00000001
00000100
00000010
00000000
00000100
00000000
00001000
00000000
,
00010000
01000000
00100000
00000000
01000000
00000000
00000000
00000000
,
10000000
00100000
10000000
00000000
00100000
00000000
00000000
00000000
,
10000000
00010000
00100000
00000000
01000000
00000000
00000000
00000000
,
00010000
00001000
00000100
00000000
00000010
00000000
00000100
00000000
,
00000110
00000000
00000010
00000100
00000010
00000000
00000000
00000000
,
00010000
00001000
00010000
00000000
00100000
00010000
00000000
00000000
,
00100000
01000000
00100000
00000000
00010000
00000000
00000000
00000000
,
00100000
01000000
00100000
00000000
01000000
00000000
00100000
00000000
,
00011000
00000000
00001000
00010000
00001000
00000000
00010000
00000000
,
00001000
00000100
00000001
00000100
,
00000010
00000100
00001000
00000000
00010000
00000000
00010000
00000000
,
01000000
00100000
01000000
00000000
10000000
00000000
00010000
00000000
,
11000000
00000000
00000000
00000000
,
01010000
00000000
00000000
00000000
,
00011000
00000000
00000000
00000000
,
00000110
00000000
00000000
00000000
,
00000011
00000000
00000000
00000000
,
00000110
00000000
00000000
00000000
,
00001000
00000000
00000000
00000000
,
00011000
00000000
00000000
00000000
,
00001000
00010000
00100000
00010000
,
00100000
01000000
00100000
00010000
,
00001000
00000010
00000100
00000010
,
00000100
00000010
00001000
00010000
,
00100000
01000000
00100000
01000000
,
00100000
00010000
00001000
00010000
,
00022000
00000000
00000000
00000000
,
00000000
00000000
00000000
00033000
,
00000000
00010000
00100000
10000000
,
01000000
00100000
00010000
01000000
,
01000000
00010000
00010000
00001000
,
00001000
00000000
00000010
00000000
00000100
00000000
00000010
00000100
,
00000010
00000100
00000100
00000010
,
00001000
00000000
00010000
00000000
00100000
00000000
00010000
00100000
,
10000000
10000000
00010000
10000000
,
01000000
00000000
00010000
00001000
00000010
00000000
00000100
00000010
,
00000001
00000010
00000001
00000100
,
00001000
00010000
00100000
01000000
,
10000000
01000000
01000000
00100000
,
00100000
00000000
00010000
00000010
00000100
00000000
00000110
00000000
,
00000000
00000000
00000001
00000100
00000001
00000000
00001000
00000000
,
00000110
00000000
00001000
00000000
01000000
00000000
00010000
10000000
,
00000000
00100000
00100000
00010000
,
00010000
00000000
00000010
00000100
00000010
00000000
00001000
00000010
,
00001000
00000011
00000000
00000110
,
00000000
00011000
00000000
01100000
,
00000000
22000000
00000000
00000000
,
00000000
00000000
00000000
00000000
,
33000000
00000000
00000000
00000000
;

//---------------dance-double - ----------------
#NOTEDATA:;
#CHARTNAME:;
#STEPSTYPE:dance-double;
#DESCRIPTION:;
#CHARTSTYLE:;
#DIFFICULTY:Easy;
#METER:8;
#RADARVALUES:0.228123,0.372325,0.132382,0.140656,0.000000,193.000000,177.000000,16.000000,17.000000,0.000000,0.000000,0.000000,0.000000,0.000000,0.228123,0.372325,0.132382,0.140656,0.000000,193.000000,177.000000,16.000000,17.000000,0.000000,0.000000,0.000000,0.000000,0.000000;
#CREDIT:;
#DISPLAYBPM:111.000000:444.000000;
#NOTES:
00000000
00000000
00000000
00000000
,
00000000
00000000
00000000
00000000
,
00000000
00000000
00000000
00000000
,
00000000
00000000
00000000
00000000
,
00000000
00000000
00000000
00000000
,
20000000
00000000
00000000
00000000
,
00000000
00000000
00000000
00000000
,
00000000
00000000
00000000
00000000
,
00000000
00000000
00000000
00000000
,
30000000
00000000
00000000
00000000
,
00000001
00001000
00000010
00001000
,
00000100
00000010
00000001
00000100
,
00001000
00010000
00100000
10000000
,
20010000
00000000
00010000
30010000
,
10000000
00010000
00100000
00010000
,
01000000
00100000
10000000
01000000
,
00010000
00001000
00000010
00000001
,
00001002
00000000
00001000
00001003
,
00000001
00000000
00001000
00000000
,
00010000
00000000
10000000
00000000
,
01000000
00000000
00010000
00000000
,
00001000
00000000
00000100
00000000
,
00000001
00000000
00000100
00000000
,
00000001
00000000
00000010
00000000
,
00001000
00000000
00010000
00000000
,
01000000
00000000
00000000
00000000
,
10000000
00010000
01000000
00000000
,
00011000
00000000
00000000
00000000
,
00000100
00000001
00000010
00000000
,
00000100
00001000
00000001
00000010
,
00001000
00010000
00000000
00000000
,
01100000
00000000
00000000
00000000
,
10010000
10010000
00000000
00000000
,
00010000
00100000
10000000
00100000
,
00110000
00000000
00001000
00010000
,
00001000
00000000
00001000
00010000
,
00001000
00000010
00000100
00000001
,
00000100
00000010
00001000
00000000
,
00020000
00000000
00000000
00000000
,
00000000
00000000
00000000
00030000
,
00200000
00000000
00000000
00000000
,
00000000
00000000
00000000
00300000
,
02000000
00000000
00000000
00000000
,
00000000
00000000
00000000
03000000
,
20000000
00000000
00000000
00000000
,
00000000
00000000
00000000
30000000
,
02000000
00000000
00100000
00000000
,
00000000
00000000
00100000
03000000
,
00200000
00000000
01000000
00000000
,
00000000
00000000
01000000
00300000
,
00020000
00000000
00001000
00000000
,
00000000
00000000
00001000
00030000
,
00000200
00000000
00000000
00000000
,
00000000
00000000
00000010
00000300
,
00000011
00000000
00000000
00000000
,
00001010
00000000
00000000
00000000
,
00011000
00000000
00000000
00000000
,
01100000
00000000
00000000
00000000
,
10000000
00000000
00000000
00000000
,
01000000
00000000
00000000
00000000
,
00010000
00000000
00000000
00000000
,
00001000
00000000
00000000
00000000
,
00001000
00000100
00000010
00000001
,
00000100
00000010
00000100
00000000
,
00001000
00010000
01000000
00100000
,
01000000
10000000
01000000
00000000
,
01000000
10000000
01000000
10000000
,
01000000
10000000
01000000
00000000
,
00020000
00000000
00000000
00000000
,
00002000
00000000
00000000
00000000
,
00033000
00001000
00000100
00000001
,
00001000
00000010
00001000
00000100
,
00000000
00000000
00010000
00000000
,
01000000
10000000
01000000
00100000
,
00000000
00001000
00010000
00001000
,
00000010
00000100
00001000
00000010
,
00000000
00000000
00000100
00000000
,
00001000
00010000
00100000
01000000
,
00000000
00010000
01000000
00010000
,
10000000
00100000
00010000
00001000
,
00000000
00000000
00001000
00000010
,
00000100
00000001
00000100
00000010
,
00000000
00000100
00010000
00001000
,
00000000
00000100
00001000
00010000
,
00000000
00000000
10000000
01000000
,
00100000
02200000
00000000
00000000
,
03300000
10000000
00000000
00110000
,
00000000
00011000
00000000
00001100
,
00000000
00002020
00000000
00000000
,
00000000
00000000
00000000
00000000
,
00003030
00000000
00000000
00000000
;

//---------------dance-single - ----------------
#NOTEDATA:;
#CHARTNAME:;
#STEPSTYPE:dance-single;
#DESCRIPTION:;
#CHARTSTYLE:;
#DIFFICULTY:Challenge;
#METER:17;
#RADARVALUES:0.804932,1.127319,0.264765,0.140656,0.256491,681.000000,649.000000,32.000000,17.000000,0.000000,0.000000,0.000000,0.000000,0.000000,0.804932,1.127319,0.264765,0.140656,0.256491,681.000000,649.000000,32.000000,17.000000,0.000000,0.000000,0.000000,0.000000,0.000000;
#CREDIT:;
#DISPLAYBPM:111.000000:444.000000;
#NOTES:
// measure 0
0000
0000
0000
0000
,  // measure 1
0000
0000
0000
0000
,  // measure 2
0000
0000
0000
0000
,  // measure 3
0000
0000
0000
0000
,  // measure 4
0000
0000
0000
0000
,  // measure 5
2001
3200
0320
0032
0203
0320
2030
3020
,  // measure 6
0230
0302
0023
0230
1300
0100
1000
0000
,  // measure 7
0010
0100
0010
0100
0001
0000
1000
0000
,  // measure 8
0010
0000
0100
0010
0100
0010
0100
0010
,  // measure 9
0100
0000
0001
0000
0010
0100
1000
0000
0001
0000
0001
0000
0100
0000
0100
0000
,  // measure 10
1010
0000
1000
0000
0001
0000
0100
0000
0010
1000
0100
1000
0001
0000
0100
0000
,  // measure 11
0010
0000
1000
0000
0100
0000
1000
0000
0010
0100
0010
0100
0001
0000
1000
0000
,  // measure 12
0100
0000
0010
0000
0100
0000
0010
0000
0001
1000
0001
1000
0100
0000
0010
0000
,  // measure 13
1002
0000
0003
0000
0100
0100
0010
0010
,  // measure 14
1001
0000
0100
0000
0001
0000
0100
0000
0010
1000
0100
0010
0001
0000
1000
0000
,  // measure 15
0001
0000
0100
0000
1000
0000
0100
0000
0001
0100
0010
0100
0001
1000
0001
0000
,  // measure 16
1000
0000
0010
0000
0100
0000
0010
0000
1000
0000
0100
0000
0010
0001
0010
0000
,  // measure 17
2002
0000
3003
0000
1000
1000
0010
0010
,  // measure 18
0101
0000
0100
0010
1000
0001
1001
0000
,  // measure 19
1010
0000
0000
0000
0010
0000
0100
0000
0001
0000
0010
0100
0010
0000
0100
0000
,  // measure 20
1000
0000
0001
0010
1000
0010
0001
0000
,  // measure 21
0100
0000
1000
0100
0001
0001
0100
0100
,  // measure 22
1000
0000
0100
0001
0011
0000
0001
0010
,  // measure 23
0110
0000
1000
0100
0110
0000
0001
0010
,  // measure 24
1000
0010
0001
0100
1000
0100
0001
0010
,  // measure 25
0100
0000
0100
0000
0010
0000
0001
1000
0001
1000
0010
0000
0110
0000
0000
0000
,  // measure 26
1001
0000
0000
0000
0101
0000
0000
0000
1000
0001
1000
0000
0010
0000
0100
0001
,  // measure 27
1000
0000
0010
0000
0100
0000
0010
1000
0000
1000
0001
0000
1000
0000
0001
0000
,  // measure 28
0100
0000
0010
0000
1000
0000
0010
0000
0100
0001
0100
0000
0010
0000
1000
0000
,  // measure 29
0000
0000
0100
0000
0010
0000
0000
0001
0000
0100
0000
0000
0010
0000
1000
0000
,  // measure 30
0100
0000
0010
0000
0100
0000
0010
0000
0100
0010
0001
0000
1000
0000
0010
0000
,  // measure 31
1000
0000
0001
0000
1000
0000
0100
0010
0000
0010
0001
0010
0100
1000
0100
0000
,  // measure 32
0010
0000
0010
0000
0001
0000
1000
0000
0010
0000
0100
0010
0100
0000
0001
0000
,  // measure 33
0000
0000
1000
0000
0010
0000
0000
0010
0000
0100
0000
0000
0001
0000
0100
0000
,  // measure 34
1000
0000
0100
0000
0001
0000
0000
1000
0000
0001
1000
0000
0010
0000
0010
0000
,  // measure 35
0100
0000
0001
0000
0010
0000
0000
0100
0000
1000
0010
0000
0100
0000
0010
0000
,  // measure 36
1000
0100
0001
1000
0010
0001
1000
0001
,  // measure 37
0100
0010
0100
0010
0100
0010
0100
0010
0100
0010
0100
0010
0100
0010
0100
0010
,  // measure 38
1000
0010
0100
0000
0100
0001
0000
1001
,  // measure 39
0000
1000
0001
0000
0001
0010
0100
1000
,  // measure 40
0000
0010
0100
0000
0001
1000
0000
1010
,  // measure 41
0000
0001
0100
0000
1000
0001
0010
1000
,  // measure 42
0001
0100
1000
0000
0100
0001
0000
1000
,  // measure 43
0010
0001
0010
0000
1000
0001
0000
0101
,  // measure 44
0000
0100
0010
0000
0010
1000
0100
0010
,  // measure 45
0000
0001
0100
0000
0001
0010
1000
0010
,  // measure 46
0001
0100
0010
0000
0010
1000
0000
0000
,  // measure 47
0001
0100
0010
0000
0100
0001
0010
0100
,  // measure 48
1000
0001
1000
0000
0001
0100
0000
0110
,  // measure 49
0000
0010
1000
0000
0100
0010
0001
0100
,  // measure 50
0010
1000
0010
0000
0100
0001
0000
1000
,  // measure 51
0010
0100
0010
0000
1000
0100
0001
0000
,  // measure 52
1000
0010
0001
0000
1000
0100
0000
1100
,  // measure 53
0000
0010
0001
0000
0100
0010
1000
0100
,  // measure 54
1100
1000
0001
0010
,  // measure 55
0101
0100
0010
1000
,  // measure 56
1001
0000
0000
0000
0001
0000
0000
0000
0100
0010
0100
0000
0010
0000
0000
0000
,  // measure 57
0101
0000
0000
0000
0010
0000
0000
0000
0100
0010
0100
0010
1000
0000
0000
0000
,  // measure 58
1001
0000
0000
0000
0100
0000
0000
0000
1000
0000
0100
0000
1000
0100
0010
0000
,  // measure 59
0001
1000
0001
0000
0100
0000
0010
1000
,  // measure 60
0010
0000
0000
0000
1000
0000
0000
0000
0100
0000
0010
0000
0001
1000
0001
0000
,  // measure 61
1000
0000
0010
0100
0010
0000
0100
0000
0001
0000
0010
0000
0001
0000
0000
0000
,  // measure 62
1100
0100
0001
0010
0001
0100
1000
0010
,  // measure 63
0001
0100
0001
0010
1000
0100
0010
0100
,  // measure 64
1000
0100
0010
0001
1000
0100
0001
0100
,  // measure 65
1000
0010
0001
0010
1000
0100
0010
0001
,  // measure 66
1000
0100
1000
0000
0100
1000
0100
0000
1000
0001
1000
0000
0001
1000
0001
0000
,  // measure 67
1000
0010
1000
0000
0010
0100
0010
0000
0100
0001
0100
0000
0001
1000
0001
0000
,  // measure 68
1000
0100
1000
0000
0001
0010
0001
0000
0100
0010
0100
0000
1000
0100
1000
0000
,  // measure 69
0001
0100
1000
0100
0001
0010
1000
0010
,  // measure 70
0001
1000
0001
0000
1000
0000
0000
0000
0100
0000
0000
0000
0010
0000
0000
0000
,  // measure 71
0001
0010
1000
0010
,  // measure 72
0001
0100
1000
0100
,  // measure 73
0001
0010
0100
1000
,  // measure 74
0001
0100
0001
0000
0010
0000
1000
0000
,  // measure 75
0010
0001
0100
1000
,  // measure 76
0100
0000
0001
0000
1000
0000
0010
1000
,  // measure 77
0010
1000
0001
0000
1000
0000
0100
0010
,  // measure 78
0100
0010
0100
0000
0010
0000
0001
0000
,  // measure 79
0010
0100
1000
0100
,  // measure 80
0010
1000
0010
0001
,  // measure 81
1000
0010
0100
0001
,  // measure 82
1000
0100
1000
0000
0010
0000
0100
0000
,  // measure 83
0001
0100
0001
0010
,  // measure 84
0001
0000
0100
0000
0010
1000
0010
0100
,  // measure 85
0010
0100
1001
0000
,  // measure 86
1001
1000
0100
0010
,  // measure 87
0001
0010
0100
1000
,  // measure 88
0001
0100
0010
1000
,  // measure 89
0010
1000
0100
0001
,  // measure 90
0100
1000
0100
0000
0010
0000
0001
0000
,  // measure 91
0010
0001
1000
0100
,  // measure 92
1000
0000
0100
0000
0010
0001
0010
0000
,  // measure 93
0001
0000
0010
0100
0010
0100
1000
0001
,  // measure 94
1000
0000
0001
1000
0001
0000
1000
0000
,  // measure 95
0001
0100
0010
1000
,  // measure 96
1010
0100
0001
0010
,  // measure 97
0100
1000
0100
0000
1000
0000
0001
0000
,  // measure 98
0100
0001
0100
0000
0010
0000
1000
0000
,  // measure 99
0100
0010
0001
0010
,  // measure 100
0100
0000
1000
0100
1000
0100
1000
0100
,  // measure 101
1000
0100
0010
0100
0010
0100
0010
0001
,  // measure 102
0010
0001
0010
0000
0000
0000
0000
0000
,  // measure 103
0000
1001
0000
0000
,  // measure 104
0000
0110
0000
0000
,  // measure 105
0000
1001
0000
0000
,  // measure 106
0000
0220
0000
0000
,  // measure 107
0000
0000
0000
0000
,  // measure 108
0000
0000
0000
0000
,  // measure 109
0330
0000
0000
0000
;
