#TITLE:Crisscrosser;
#SUBTITLE:;
#ARTIST:Void;
#TITLETRANSLIT:;
#SUBTITLETRANSLIT:;
#ARTISTTRANSLIT:;
#GENRE:;
#CREDIT:;
#BANNER:Crisscrosser.png;
#BACKGROUND:Crisscrosser-bg.png;
#LYRICSPATH:;
#CDTITLE:;
#MUSIC:Crisscrosser.ogg;
#OFFSET:-10.246004;
#SAMPLESTART:25.870007;
#SAMPLELENGTH:15.000000;
#SELECTABLE:YES;
#DISPLAYBPM:170.000000;
#BPMS:0.000000=169.975006
,122.000000=85.000000
,123.000000=170.000000
,139.000000=85.000000
,155.000000=170.000000
,219.000000=85.000000
,235.000000=170.000000
;
#STOPS:
;
#BGCHANGES:;
#KEYSOUNDS:;
#ATTACKS:;

//---------------dance-single - ----------------
#NOTES:
     dance-single:
     :
     Hard:
     17:
     0.869473,0.976106,0.820257,0.295293,1.045828,742.000000,642.000000,100.000000,36.000000,0.000000,0.000000,0.869473,0.976106,0.820257,0.295293,1.045828,742.000000,642.000000,100.000000,36.000000,0.000000,0.000000:
// measure 0
0000
0000
0000
0000
,  // measure 1
0000
0000
0000
0000
,  // measure 2
0000
0000
0000
0000
,  // measure 3
1002
0000
0000
0000
0000
0003
0100
0000
0000
0120
0000
0000
0000
0000
0000
2030
0000
0000
0000
0000
0000
3020
0000
0000
,  // measure 4
0000
0000
0000
0000
0230
0000
0000
0000
0301
0000
0000
0010
0000
0000
0100
0000
,  // measure 5
2001
0000
0000
0000
3100
0010
0001
0012
,  // measure 6
0000
0003
2100
0000
3020
0000
0230
0000
,  // measure 7
0301
0000
0100
0000
1000
0000
0102
0000
0000
0000
0000
0000
0000
0000
1003
0100
,  // measure 8
0010
0000
0001
0000
1000
0001
1000
0000
2001
0000
0000
0000
3001
0100
0001
0000
,  // measure 9
0011
0000
0000
0000
0110
0000
0000
0000
1100
0000
0000
0110
0000
0000
0011
0000
,  // measure 10
0101
0000
0000
1001
0000
0000
1010
0000
,  // measure 11
1000
0010
1000
0010
1000
0010
0100
0000
0001
0100
0001
0100
0001
0100
0010
0000
,  // measure 12
1000
0100
1000
0001
0010
0001
0100
0000
0010
1000
0010
0100
0001
0100
0010
0000
,  // measure 13
1000
0100
0010
0001
0010
0100
1000
0000
0001
0010
0100
1000
0100
0010
0001
0000
,  // measure 14
0100
0001
0100
0010
0100
1000
0100
0000
0010
1000
0010
0100
0010
0001
0010
0000
,  // measure 15
1000
0100
0010
0001
0100
1000
0100
0000
0001
0010
0100
1000
0100
0001
0100
0000
,  // measure 16
1000
0010
0100
0010
0001
0010
0100
0000
0001
0010
1000
0010
0100
0010
0001
0000
,  // measure 17
0100
0010
1000
0010
0100
0010
1000
0000
0001
0100
0010
0100
0001
0100
0010
0000
,  // measure 18
1000
0100
0010
0001
0010
0100
1000
0000
0001
0010
0100
1000
0010
1000
0100
0010
,  // measure 19
0001
0000
0000
1010
0000
0000
0011
0000
0000
0001
0100
0000
0010
0000
1000
0000
,  // measure 20
1010
0000
0000
1001
0000
0000
0101
0000
0000
0010
1000
0000
0010
0000
0100
0000
,  // measure 21
0001
0010
0001
0000
1000
0001
1000
0000
0010
0000
0100
0000
0001
0010
0100
1000
,  // measure 22
0010
0100
0001
0100
0010
1000
0010
0100
0001
0010
0100
1000
,  // measure 23
0001
0100
0000
0100
0010
0000
0000
1000
0010
1000
0000
0000
0010
0100
0010
1000
,  // measure 24
0001
1000
0100
0010
0001
0100
0010
0100
0001
0100
1000
0100
0001
1000
0100
0010
,  // measure 25
0001
0010
0100
1000
0100
0010
0100
1000
0001
0100
0001
0010
,  // measure 26
0100
1000
0010
1000
0001
0010
0100
0010
0001
1000
0010
1000
0100
0000
0000
0000
,  // measure 27
0110
0000
1100
0000
0000
1001
0000
0000
0101
0000
1001
0000
0000
1010
0000
0000
,  // measure 28
0110
0000
0101
0000
0000
1001
0000
0000
1010
0000
0000
0110
0000
0000
0101
0000
,  // measure 29
1001
0000
0100
0010
0000
1010
0000
0000
0101
0000
0001
0010
0000
0110
0000
1100
,  // measure 30
0000
0000
1001
0000
0000
0000
0000
0000
0101
0000
0000
0000
1100
0000
0000
0000
1000
0001
1000
0001
1000
0000
0000
0000
1001
0000
0000
0000
0010
0000
0001
0000
,  // measure 31
0000
0101
0000
0000
1001
0000
1000
0010
0000
0110
0000
0000
0101
0000
1001
0000
,  // measure 32
0010
1000
0000
1000
0010
0000
0010
0100
0000
0100
0001
0000
1001
0000
1010
0000
,  // measure 33
0000
0110
0000
0000
0101
0000
0001
1000
0000
1010
0000
0010
0000
0100
0010
1000
,  // measure 34
0100
0010
0001
1000
0001
0000
1000
0001
1000
0100
0001
0100
1000
0000
0010
0000
,  // measure 35
0101
0000
0110
0000
2020
0000
3030
2002
0000
3003
0000
0000
0001
0010
1000
0010
,  // measure 36
0000
0000
0001
0000
0100
1000
0100
0001
0000
0000
1000
0010
0110
0010
1000
0001
,  // measure 37
1001
0000
0000
0000
0010
0100
0001
0100
0110
0000
0000
0000
0001
0100
1000
0100
,  // measure 38
0001
0000
0000
0000
1000
0000
2002
0000
0000
0000
0000
0000
0000
0000
0000
0000
3003
0000
0010
0100
0010
0100
0001
0100
0001
0000
0000
0000
0100
0000
0000
0000
,  // measure 39
0101
0000
0100
0000
0010
0000
0100
0001
1000
0010
1000
0001
0100
0000
0010
0000
,  // measure 40
1000
0000
0110
0000
0100
0010
0100
0001
0010
0001
1000
0100
1000
0000
0010
0100
,  // measure 41
0000
0100
0001
0000
1000
0001
0000
0001
0100
0000
0010
0000
0100
0001
1000
0001
,  // measure 42
0100
0010
1000
0010
0100
0001
0010
0100
1000
0010
0001
0010
1000
0100
0010
0001
,  // measure 43
1000
0000
0100
0001
0100
1000
0001
0000
0100
0010
1000
0001
1000
0010
0001
0010
,  // measure 44
1000
0100
0010
0000
0101
0000
0110
0000
1010
0000
1001
0000
0120
0000
0000
0000
,  // measure 45
0000
0000
0000
0000
0130
0001
0010
0100
1000
0001
0010
0001
0100
0000
0000
1010
,  // measure 46
0000
0000
1001
0000
0000
0101
0000
0000
0110
0000
0110
0000
2001
0000
0001
0000
,  // measure 47
3010
0000
0100
0000
1000
0000
0100
0000
0010
0001
0100
0010
0001
0000
0010
0000
,  // measure 48
1000
0000
0010
0000
0100
0001
0010
0001
1000
0010
1000
0001
0100
0000
0010
1000
,  // measure 49
0000
1000
0001
0000
0100
0010
0000
0010
1000
0000
0001
0010
1000
0010
0001
0100
,  // measure 50
1000
0100
0001
0100
0010
0100
0001
0010
0100
1000
0001
0000
0100
0010
1000
0000
,  // measure 51
0010
0000
0100
0001
0010
0000
0100
0000
0000
1000
0010
0100
0000
0010
0100
0001
,  // measure 52
0000
1000
0010
0100
0010
0000
1010
0000
0001
0010
0100
1000
0001
0100
0001
1000
,  // measure 53
0000
0000
0010
0100
0001
0000
0000
0100
0010
1000
0010
0100
0001
0010
0100
1000
,  // measure 54
0100
0010
0001
0010
1000
0010
0001
0100
1000
0100
0001
0010
2100
0000
3010
0100
,  // measure 55
0000
0000
0010
0000
0000
0000
0201
0000
0000
0000
0300
0000
0002
0000
0000
0000
0023
0000
0000
0230
0000
0000
1300
0000
0001
0000
0100
0000
0010
0000
0100
0000
,  // measure 56
0010
1000
0100
0020
0000
0000
0031
0100
0000
0000
0010
0000
1010
0000
0100
0110
,  // measure 57
0000
0000
0101
0000
0000
1001
0000
0000
1100
0000
0000
0110
0110
0000
0011
0011
,  // measure 58
0000
0000
1100
0000
1100
0000
0000
0000
0001
1000
0010
1000
0001
0010
0100
1000
0202
0000
0000
0000
0000
0000
0303
0000
2010
0000
0000
0000
0000
0000
0000
0000
,  // measure 59
3001
0101
0010
0100
0001
0021
0000
0030
,  // measure 60
1200
0000
1300
0001
0010
0001
0101
0010
,  // measure 61
1000
0010
0100
0001
0010
1200
0000
0000
,  // measure 62
2300
0000
3020
0000
0230
0000
0301
0010
,  // measure 63
1000
0000
0010
0000
0101
0000
0000
0000
1000
0010
0001
0000
0010
0000
1000
0000
,  // measure 64
0100
0000
0010
0000
0001
0000
0100
0000
0010
1000
0001
1000
0001
0000
0000
0000
,  // measure 65
0110
0000
0000
0000
1010
0000
0000
1001
0000
0000
0101
0000
0110
0000
0000
0000
,  // measure 66
0000
0000
1001
0000
0000
0000
0000
0000
0100
0010
0100
0010
0100
0010
0100
0010
,  // measure 67
1000
0100
0010
0001
2000
0000
0000
0000
0000
0000
0000
0000
0000
0000
0000
0000
,  // measure 68
3000
0000
0000
0000
;

//---------------dance-single - ----------------
#NOTES:
     dance-single:
     :
     Beginner:
     6:
     0.254280,0.354556,0.024608,0.000000,0.000000,217.000000,214.000000,3.000000,0.000000,0.000000,0.000000,0.254280,0.354556,0.024608,0.000000,0.000000,217.000000,214.000000,3.000000,0.000000,0.000000,0.000000:
0000
0000
0000
0000
,
0000
0000
0000
0000
,
0000
0000
0000
0000
,
0100
0000
0100
0000
,
0010
0000
0010
0000
,
1000
0000
1000
0000
,
0001
0000
0000
0000
,
0001
0000
0100
0000
,
0010
0000
0100
0000
,
0001
0001
1000
1000
,
0010
0000
0000
0000
,
0100
0001
0100
0000
,
0001
0010
0001
0000
,
1000
0010
1000
0000
,
0010
0100
0010
0000
,
0100
0001
0100
0000
,
0001
0010
0001
0000
,
1000
0001
1000
0000
,
0001
0100
0001
0000
,
0100
0010
0000
0100
,
0010
0000
1000
0010
,
0000
1000
0010
0000
,
1000
0001
0000
1000
,
0001
0000
0100
0001
,
0000
0100
0001
0000
,
1000
0010
0000
1000
,
0010
0000
0100
0001
,
0100
0000
0010
0000
,
0100
0000
0001
0000
,
0100
0000
0010
0000
,
1000
0000
0010
0100
,
0001
0100
0000
0001
,
1000
0001
0000
1000
,
0010
1000
0000
0010
,
0100
0000
0010
0000
0000
0000
0100
0010
,
1000
0010
0100
0000
0001
0000
0010
0000
,
0001
0100
0010
0000
1000
0010
0100
0000
,
0010
1000
0001
0000
1000
0010
0001
0000
,
0010
1000
0001
0000
0000
0000
0100
0000
,
0100
0010
0010
1000
,
1000
0001
0001
0010
,
0010
0001
0001
0100
,
0010
0100
0010
1000
,
0010
1000
0001
1000
,
0001
0100
0001
0100
,
0100
0010
0010
1000
,
1000
0001
0001
0100
,
0100
0010
1000
0010
,
0100
0001
0010
0100
,
1000
0001
0010
0001
,
0100
0010
1000
0010
,
0000
0100
0001
0100
,
0000
0001
0010
0100
,
0010
0010
0010
0001
,
0001
0000
0100
0000
0010
0000
1000
0001
,
1000
0000
0010
0000
0100
0010
0100
0000
,
0001
1001
0000
1000
,
0010
0000
1000
0000
0001
0100
0001
0000
,
1000
0010
1000
0001
0100
0000
1000
0000
,
0010
1000
0001
0000
,
0100
0010
0100
0010
,
1000
0000
0001
0100
,
0001
0000
1000
0010
,
0100
0010
1000
0001
,
0100
0001
1000
0010
,
1000
0001
0001
0100
,
0000
0110
0000
0000
1001
0000
0000
0000
;

//---------------dance-single - ----------------
#NOTES:
     dance-single:
     :
     Easy:
     13:
     0.434736,0.529886,0.065621,0.123039,0.086127,371.000000,363.000000,8.000000,15.000000,0.000000,0.000000,0.434736,0.529886,0.065621,0.123039,0.086127,371.000000,363.000000,8.000000,15.000000,0.000000,0.000000:
0000
0000
0000
0000
,
0000
0000
0000
0000
,
0000
0000
0000
0000
,
1000
1000
0010
0010
,
0100
0000
0010
0100
0020
0000
2030
0000
,
3001
0100
0001
0000
0100
0000
0010
0000
,
2000
3020
0230
0320
,
1030
0001
1000
0001
0200
0000
0300
0000
,
0010
1000
0010
0000
0200
0000
0300
0000
,
0001
0000
0000
0000
1000
0000
0000
0000
0001
0000
0000
1000
0000
0000
0001
0000
,
0200
0000
0000
0000
,
0310
1000
0010
1000
0010
0100
0010
0100
,
0010
0100
0001
0100
0001
0100
0001
1000
,
0001
1000
0001
1000
0001
0100
0001
0100
,
0001
0010
0100
1000
0001
1000
0100
0010
,
0001
1000
0001
0000
0100
0010
0100
0000
,
0001
1000
0001
0000
1000
0010
1000
0000
,
0001
0100
0001
0000
0100
0010
0100
0000
,
0010
1000
0010
0000
1000
0100
0010
0001
,
0100
0000
0000
0100
0000
0000
0010
0000
1000
0010
0000
1000
0000
0001
0000
0000
,
0100
0000
0000
0100
0000
0000
0010
0000
1000
0010
0000
0100
0000
0001
0000
0100
,
0010
0000
0000
0000
0000
0000
0000
0000
0000
1000
0000
0000
0010
0000
0000
0000
0000
0000
0000
0000
0000
0000
0000
0000
1000
0000
0000
0000
0000
0000
0100
0000
0000
0000
0000
0000
0001
0000
0000
0000
0000
0000
0000
0000
0100
0000
0000
0000
,
0000
1000
0000
0001
0000
1000
0000
0001
0000
0100
0000
0010
,
0000
0100
0000
0100
0000
0000
0000
0001
1000
0000
0000
0000
0010
0000
0000
0000
,
0100
0010
0100
0001
,
0010
0001
0010
0000
0100
0010
0100
0000
,
0010
1000
0100
1000
0010
0100
0010
0000
,
1000
1000
0001
0000
0100
0000
0000
0000
,
0010
0010
0000
0100
0000
0000
0000
0000
,
0001
0001
0000
0000
1000
0000
0000
0000
,
0010
0010
0000
0000
0200
0000
0301
0001
,
0000
0000
1000
1000
0000
0000
0010
0010
,
0000
0000
0100
0100
0000
0000
0001
0001
,
0000
0000
1000
1000
0000
0000
0010
0010
,
0000
0000
0100
0100
0000
0000
0001
1000
,
0001
0100
0010
0000
0100
0000
0001
0010
,
0100
1000
0001
0000
0100
0010
1000
0000
,
0010
0100
0001
0001
0000
0000
1000
0010
,
0100
0000
0010
0000
0000
0000
1000
0001
,
1000
0001
1000
0001
0100
0001
0100
0001
,
0100
0010
0100
0010
1000
0010
1000
0000
,
0000
0000
0001
0100
0001
0000
0100
0010
,
0100
0000
0010
1000
0010
0000
1000
0001
,
1000
0000
0001
0100
0001
0000
0100
0010
,
0100
0000
0010
1000
0010
0000
2000
0000
,
0000
3002
0000
0203
,
0000
0320
0000
0000
1030
0100
0001
0100
,
1000
0001
0100
0001
1000
0000
0000
0000
,
1000
0010
1000
0000
0010
0100
0010
0100
,
0010
0000
1000
0001
0100
0001
0100
0001
,
0100
0000
0010
0000
0100
0000
0010
0000
0100
0000
0010
0000
1000
0001
1000
0000
,
0001
0000
0100
0010
0100
0000
0010
0000
1000
0000
0100
0000
0010
0000
0001
0000
,
0100
0010
0100
0001
0010
0100
1000
0010
,
0001
0010
1000
0100
0001
0100
1000
0001
,
0010
0001
0100
0010
0100
0001
1000
1000
,
0010
0100
0010
1000
0001
0000
0100
0000
,
0001
0100
0001
0000
1000
0010
0100
0000
,
0010
0000
1000
0000
0001
0100
0001
0000
,
1000
0010
0100
0000
0010
0000
1010
0000
,
0010
0000
0100
0000
0001
0100
0001
0000
,
1000
0010
1000
0010
0100
0010
0100
0000
,
0010
0000
1000
0001
1000
0001
1000
0000
,
0001
0000
0100
0000
0010
0000
0100
0010
,
0100
0010
0100
0000
0010
0000
1000
0100
,
1000
0100
1000
0000
0001
0000
0101
0000
,
0110
1010
1001
0101
,
0000
0110
0000
0000
1001
0000
0000
0000
,
1000
0001
2000
0000
0000
0000
0000
0000
,
3000
0000
0000
0000
;

//---------------dance-single - ----------------
#NOTES:
     dance-single:
     :
     Medium:
     14:
     0.662065,0.913561,0.434736,0.246077,0.516762,565.000000,512.000000,53.000000,30.000000,0.000000,0.000000,0.662065,0.913561,0.434736,0.246077,0.516762,565.000000,512.000000,53.000000,30.000000,0.000000,0.000000:
0000
0000
0000
0000
,
0000
0000
0000
0000
,
0000
0000
0000
0000
,
1000
0000
1000
0002
0000
0203
0000
0320
,
0000
2030
3200
0302
,
0203
0000
0000
0000
1300
0010
0001
0020
,
0000
0030
1002
0000
0203
0000
0320
0000
,
1030
0010
0001
0010
2000
0000
3001
0100
,
1000
0100
0001
0010
2000
0000
3001
0100
,
1000
0000
0000
0000
1001
0000
0000
0000
1010
0000
0000
0010
0000
0000
0100
0000
,
0001
0000
0000
1001
0000
0000
1010
0000
,
0001
0100
0001
1000
0010
0100
0010
1000
,
0010
0100
0001
0010
0100
1000
0001
0010
,
0001
0100
0010
0100
0001
0010
0001
0100
,
0010
1000
0100
0001
0100
1000
0010
0001
,
0010
1000
0001
0100
0010
0100
0001
1000
,
0001
0000
0100
0010
0100
0000
0010
0000
1000
0000
0001
0010
0001
0000
0100
0000
,
0010
0000
1000
0100
1000
0000
0010
0000
0001
0000
0010
1000
0001
0000
0100
0000
,
0010
1000
0010
0100
0001
0010
0100
1000
,
0001
0000
0000
0001
0000
0000
1000
0000
0000
0010
0100
0000
0010
0000
1000
0000
,
0001
0000
0000
0001
0000
0000
0100
0000
0000
0010
1000
0000
0010
0000
0100
0000
,
0001
0000
0000
0100
0000
0000
0010
0000
0000
0000
0000
0000
0100
0000
0000
0001
0000
0000
1000
0000
0000
0000
0000
0000
1000
0000
0000
0000
0000
0000
0100
0000
0000
0000
0000
0000
0001
0000
0000
0000
0100
0000
0000
0000
1000
0000
0000
0000
,
0100
0010
0100
1000
0001
0100
0010
1000
0100
0010
0001
1000
,
0001
0010
0000
0010
0001
0000
0000
1000
0001
0000
0000
0000
0100
0010
1000
0010
,
0100
0001
0010
0001
1000
0010
1000
0001
,
0100
0010
1000
0010
0100
0001
0010
0100
1000
0001
0100
0001
,
0100
0010
1000
0010
1000
0100
0010
0001
0100
0010
0000
0000
,
1000
0000
1000
0000
0000
1001
0000
0000
0010
0000
0010
0000
0000
0101
0000
0000
,
0001
0000
0001
0000
0000
1001
0000
0000
1010
0000
0000
0110
0000
0000
0100
0000
,
0001
0000
0010
0001
0000
0001
0000
0000
1000
0000
1000
0001
0000
0100
0000
0110
,
0000
0011
0000
0000
1010
0000
1001
0000
0001
0000
1000
0000
0001
0000
0010
0000
,
0001
0000
0000
0000
1001
0000
1000
0010
0000
1000
0000
0000
0001
0000
0100
0000
,
0001
0010
0000
0001
0100
0000
0010
1000
0000
1000
0100
0000
0010
0000
0001
0000
,
0000
0101
0000
0000
0110
0000
0010
1000
0000
1000
0000
0001
0000
0100
0001
0100
,
0001
0010
0100
1000
0001
0010
0100
1000
,
0100
0000
0010
0000
0002
0000
0000
2003
0000
0000
3000
0000
0010
1000
0010
1000
,
0000
0000
0100
0000
1000
0100
1000
0100
0000
0000
0010
0001
0100
0010
0100
0001
,
0010
0000
0000
0000
0001
0100
0001
0100
0010
0000
1000
0000
0100
0010
0100
0010
,
0001
0000
0000
2002
0000
0000
0000
0000
3003
0000
0000
0000
1001
0000
0001
0000
,
0100
0000
0010
0000
0100
0000
0001
1000
0001
1000
0001
0000
0100
0010
0100
0000
,
0010
0000
1000
0000
0001
0010
0001
0010
0001
0000
0100
0000
0010
0000
1000
0001
,
0000
0001
0100
0000
0010
1000
0000
0100
0010
0000
0001
0000
1000
0001
1000
0000
,
0010
1000
0010
0100
0001
0010
0001
1000
,
0010
0000
0100
0000
0010
1000
0010
0000
1000
0000
0100
0000
0010
0001
0010
0000
,
0001
0100
0010
1000
0100
1000
1010
0000
,
0001
0000
1000
0000
0010
0000
1000
0000
0001
0000
0100
0000
0110
0000
0000
1010
,
0000
0000
1100
0000
0000
0110
0000
0000
0001
0000
0001
0000
0101
0000
0010
0000
,
1000
0100
1000
0000
0010
0000
0100
0001
0100
0001
0100
0000
0001
0000
1000
0000
,
0001
0000
0100
0000
0010
1000
0010
1000
0010
1000
0010
0000
1000
0000
0001
0100
,
0000
0100
0010
0000
1000
0100
0000
0100
0010
0000
0001
0000
1000
0000
0001
0000
,
1000
0010
0100
0010
1000
0001
0010
0001
,
0101
0000
0100
0010
1010
0000
1100
0000
,
0011
0101
0110
1010
,
1000
0100
0010
0001
1000
0100
0010
0001
,
1000
0000
0010
0000
0001
0000
0010
0000
1000
0000
0010
0000
0001
0000
0010
1000
,
0000
0000
0001
0000
0000
0000
0200
0000
0000
0000
0300
0000
0002
0000
0000
0000
0023
0000
0000
0230
0000
0000
1300
0000
0001
0000
0100
0000
0001
0000
0100
0000
,
0010
1000
0100
0020
0000
0000
0031
0100
0000
0000
0001
0000
1000
0000
0010
1010
,
0000
0000
1100
0000
0000
0110
0000
0000
0011
0000
0000
1001
1001
0000
0110
0110
,
0000
0101
0101
0000
1100
0100
0010
0001
1000
0100
0010
0001
2001
0000
0000
0000
,
3010
0100
0001
0010
0100
2100
0000
3000
,
0102
0000
0103
0010
1000
0010
0100
0001
,
0010
0000
0100
1000
0010
0100
0002
0000
,
2003
0000
3200
0000
0320
0000
0031
1000
,
0010
0000
1000
0000
0001
0000
0101
0000
0100
0010
0100
0000
0001
0000
0010
0000
,
0100
0000
1000
0000
0001
0000
0100
0000
0010
1000
0010
1000
0010
0000
0000
0000
,
0110
0000
0000
0000
0101
0000
0000
1001
0000
0000
1010
0000
0110
0000
0000
0000
,
0000
0000
1001
0000
0000
0000
0000
0000
0001
0100
0001
0100
0001
0000
0000
0000
,
1000
0100
1000
0100
2000
0000
0000
0000
3000
0000
0000
0000
0000
0000
0000
0000
;
