#TITLE:Crazy Jackpot;
#SUBTITLE:;
#ARTIST:Hommarju;
#TITLETRANSLIT:F;
#SUBTITLETRANSLIT:;
#ARTISTTRANSLIT:;
#GENRE:;
#CREDIT:;
#BANNER:Crazy Jackpot.png;
#BACKGROUND:Crazy Jackpot-bg.png;
#LYRICSPATH:;
#CDTITLE:;
#MUSIC:Crazy Jackpot.ogg;
#OFFSET:-4.552004;
#SAMPLESTART:35.728012;
#SAMPLELENGTH:15.000000;
#SELECTABLE:YES;
#BPMS:0.000000=170.000000
;
#STOPS:
;
#BGCHANGES:;
#KEYSOUNDS:;
#ATTACKS:;

//---------------dance-single - ----------------
#NOTES:
     dance-single:
     :
     Beginner:
     3:
     0.153509,0.196444,0.000000,0.000000,0.000000,128.000000,128.000000,0.000000,0.000000,0.000000,0.000000,0.153509,0.196444,0.000000,0.000000,0.000000,128.000000,128.000000,0.000000,0.000000,0.000000,0.000000:
0000
0000
0000
0000
,
0000
0000
0000
0000
,
1000
0000
1000
0000
,
0001
0000
0001
0000
,
0100
0000
0000
0000
,
0010
0000
0000
0000
,
0010
0000
1000
0000
,
0010
0000
0000
0000
,
0100
0000
0000
0000
,
0001
0000
0000
0000
,
0010
0000
0010
0000
,
0010
0000
0000
0000
,
0001
0000
0000
0000
,
1000
0000
0000
0000
,
1000
0000
0010
0000
,
1000
0000
0000
0000
,
0001
0000
0100
0000
,
0001
0000
0000
0000
,
1000
0000
0001
0000
,
1000
0000
0000
0000
,
0001
0000
0100
0000
,
0001
0000
0000
0000
,
1000
0000
1000
0000
,
0001
0000
0001
0000
,
0100
0000
0100
0000
,
0010
0000
0000
0000
,
0010
0000
1000
0000
,
0000
0000
1000
0000
,
0001
0000
0000
0000
,
0001
0000
0100
0000
,
0100
0000
0010
0000
,
1000
0000
1000
0000
,
0001
0000
0100
0000
,
0001
0000
0010
0000
,
0001
0000
0000
0000
,
1000
0000
0000
0000
,
0010
0000
0000
0000
,
0100
0000
0000
0000
,
0010
0000
1000
0000
,
0010
0000
0000
0000
,
0100
0000
0001
0000
,
0100
0000
0000
0000
,
0001
0000
1000
0000
,
0001
0000
0000
0000
,
1000
0000
0010
0000
,
1000
0000
0000
0000
,
0001
0000
0001
0000
,
0001
0000
0100
0000
,
0100
0000
0010
0000
,
0010
0000
1000
0000
,
1000
0000
0001
0000
,
1000
0000
0000
0000
,
0010
0000
0100
0000
,
0010
0000
0000
0000
,
1000
0000
0001
0000
,
1000
0000
0000
0000
,
0010
0000
0100
0000
,
0010
0000
1000
0000
,
0010
0000
0000
0000
,
0100
0000
0001
0000
,
0100
0000
0010
0000
,
0100
0100
0100
0000
,
0010
0000
0000
0000
,
1000
0001
1000
0000
,
0001
0000
0001
0000
,
0100
0000
0100
0000
,
0010
0000
0010
0000
,
1000
0000
1000
1000
,
1000
0000
0001
0000
,
1000
0000
0010
0000
,
1000
0000
0001
0000
,
0001
0000
0100
0000
,
0010
0000
0100
0000
,
0001
0000
1000
0000
,
0001
0000
0010
0000
,
0001
0000
0100
0000
,
0010
0000
0100
0000
,
0001
0000
0001
0000
,
1000
0000
0000
0000
;

//---------------dance-single - ----------------
#NOTES:
     dance-single:
     :
     Easy:
     5:
     0.303421,0.294666,0.000000,0.067160,0.000000,253.000000,253.000000,0.000000,8.000000,0.000000,0.000000,0.303421,0.294666,0.000000,0.067160,0.000000,253.000000,253.000000,0.000000,8.000000,0.000000,0.000000:
0000
0000
0000
0000
,
0000
0000
0000
0000
,
0001
1000
0001
0000
,
1000
0010
1000
0000
,
0010
0100
0010
0000
,
0100
0100
0100
0001
,
0001
0000
1000
0010
,
1000
0000
0001
0100
,
0001
0000
1000
0010
,
1000
0000
0001
0100
,
0001
0000
1000
0020
,
0030
0000
0100
0001
,
0100
0010
1000
0002
,
0003
1000
0100
1000
,
0010
0100
0010
2000
,
3000
0001
0100
0010
,
0100
0001
1000
0002
,
0003
0100
0010
0100
,
0001
0010
0001
1000
,
0100
1000
0010
0100
,
0010
0010
1000
1000
,
0001
0100
0010
0100
,
0001
0001
1000
1000
,
0010
0000
0010
0100
,
0010
0000
0100
0001
,
0100
0000
0001
1000
,
0001
1000
0010
0200
,
0300
0001
0010
0001
,
1000
0100
1000
0020
,
0030
0100
0001
0010
,
0001
0001
0000
0000
,
1000
1000
1000
0000
,
0010
0010
0010
0000
,
0100
0100
0100
0000
,
0001
0010
0001
0000
,
1000
0100
0010
0000
,
0001
0001
1000
0100
,
1000
0010
0100
0010
,
1000
0000
0001
0000
,
0100
0000
0010
0010
,
1000
0000
0001
0000
,
0100
0000
0001
0001
,
1000
0000
0010
0000
,
0100
0000
0010
1000
,
0010
0000
0100
0000
,
0001
1000
0001
0010
,
0001
0100
0010
0100
,
0001
1000
0100
1000
,
0001
0010
0100
0010
,
0001
1000
0100
1000
,
0001
0010
0100
0010
,
0001
0000
1000
0000
,
0001
0000
0100
0000
,
0010
0010
0010
0010
,
0010
0000
0100
0000
,
0001
0001
0001
0001
,
0001
0000
1000
0000
,
1000
0000
0010
0010
,
0010
0000
0100
0100
,
0100
0000
0001
0001
,
0001
0000
1000
1000
,
1000
0010
0010
0010
,
0010
0100
0001
0000
,
0100
0010
1000
0010
,
0100
0000
0001
0000
,
0010
0001
0010
0001
,
0100
0000
0010
1000
,
0010
0100
0001
0020
,
0031
0100
0010
0100
,
0001
0001
1000
1000
,
0010
0100
0001
0200
,
0310
1000
0100
1000
,
0001
0010
0001
0010
,
0001
0100
0010
0100
,
0001
1000
0100
1000
,
0010
0100
0010
1000
,
0001
0010
0001
0100
,
0010
0100
0001
0010
,
0001
0000
0000
0000
;

//---------------dance-single - ----------------
#NOTES:
     dance-single:
     :
     Medium:
     10:
     0.393367,0.425628,0.050370,0.000000,0.000000,328.000000,322.000000,6.000000,0.000000,0.000000,0.000000,0.393367,0.425628,0.050370,0.000000,0.000000,328.000000,322.000000,6.000000,0.000000,0.000000,0.000000:
0000
0000
0000
0000
,
0000
0000
0000
0000
,
1000
0000
0010
0000
1000
0001
1000
0000
,
0001
0000
0100
0000
0010
0100
0010
0000
,
0100
0001
0010
0001
,
1001
1000
0100
0010
,
0001
0100
0001
0000
0100
0000
0010
0000
,
1000
0000
0001
0000
0100
0010
0100
0000
,
0001
0010
0001
1000
,
0100
1000
0010
0100
,
0010
1000
0001
0100
,
0010
0100
0001
0010
,
0001
0000
1000
0100
1000
0000
0010
0000
,
0100
0010
1000
0010
,
0100
0001
0010
0001
,
1000
0100
1000
0010
,
0100
0010
1000
0001
,
0100
0010
0100
0001
,
0010
0001
1000
0100
,
1000
0010
0100
0010
,
1000
0001
1000
0000
0001
0100
0001
0000
,
0100
0010
0100
0000
0010
0100
0010
0000
,
0100
0000
0001
0000
0010
0001
0010
0000
,
0001
0000
1000
0000
0100
1000
0100
0000
,
1000
0010
0100
0010
,
1000
0001
0100
0001
,
0010
0001
1000
0100
,
1000
0010
0100
0010
,
1000
0001
0100
0010
,
0100
0100
0001
0001
,
1000
0000
0010
0000
1000
0010
1000
0000
,
0001
0000
0100
0000
0010
0100
0010
0000
,
0100
0000
0010
0000
1000
0010
1000
0000
,
0010
0000
1000
0000
0001
1000
0001
0000
,
0100
0000
0001
0000
0100
0010
0000
0100
,
0000
0010
0100
0000
0001
0000
0000
0000
,
1000
0001
0100
0001
,
1000
0010
0100
0010
,
1000
0000
1000
0000
,
0001
0000
0000
0000
0100
0000
0010
0100
,
0010
1000
0100
1000
,
0001
0000
0010
0000
0001
0000
0100
0001
,
0100
0000
0010
0000
,
1000
0000
0000
0000
0010
0000
0100
0010
,
0100
0000
0010
0000
,
1000
0000
0001
1000
,
0001
0100
0010
0100
,
0001
0010
0001
1000
,
0100
1000
0010
0100
,
0010
0100
0001
0010
,
0001
1000
0100
1000
,
0010
0100
0010
1000
,
0001
0100
0010
0100
,
0001
1000
0100
1000
,
0010
0100
0001
0010
,
0001
0000
1000
0000
0100
1000
0100
0000
,
1000
0010
0100
0010
,
1000
0001
0100
0010
,
0100
0001
0010
0001
,
1000
0100
1000
0010
,
0100
0010
1000
0001
,
0101
0100
0100
0100
,
0110
0010
1000
0010
,
0001
0010
1000
0100
,
0001
0000
0100
1000
0100
0000
0001
0000
,
0010
1000
0010
0000
0001
0000
0100
0000
,
1000
0000
0100
0000
0001
0010
1000
0000
,
0010
0001
0100
0000
1000
0100
0001
0000
,
1000
0010
0001
0010
,
1000
0001
0100
0101
,
0001
1000
0010
0100
,
0010
0000
1000
0000
0001
0100
0001
0000
,
0100
0010
1000
0010
,
0100
0001
0010
0001
,
0100
0010
1000
0010
,
1000
0000
0001
0100
0001
0000
0100
0000
,
0010
0100
0001
0010
,
1001
1000
0100
0010
,
1001
0000
0000
0000
;

//---------------dance-single - ----------------
#NOTES:
     dance-single:
     :
     Hard:
     17:
     0.945041,0.951000,0.184691,0.050370,0.894071,788.000000,766.000000,22.000000,6.000000,0.000000,0.000000,0.945041,0.951000,0.184691,0.050370,0.894071,788.000000,766.000000,22.000000,6.000000,0.000000,0.000000:
// measure 0
0000
0000
0000
0000
,  // measure 1
0000
0000
0000
0000
,  // measure 2
0001
0000
0010
0000
1000
0000
0010
0001
0100
0000
0010
0000
1000
0000
0001
0100
,  // measure 3
0001
0000
1000
0000
0010
0000
0100
0010
0100
0000
0010
0000
1000
0000
0001
0010
,  // measure 4
0001
0000
1000
0010
1000
0000
0001
1000
0001
0000
1000
0100
1000
0000
0100
0010
,  // measure 5
0001
0000
0000
0000
,  // measure 6
0000
0000
1000
0000
0001
0100
0001
1000
0010
0000
0100
0010
0100
0000
0010
1000
,  // measure 7
0010
0000
0000
0000
1000
0001
1000
0001
1000
0000
0010
0000
0100
0000
0001
0100
,  // measure 8
0001
0000
1000
0000
0010
0100
0010
0100
0010
1000
0010
1000
0001
0100
0001
0100
,  // measure 9
0001
0000
0000
0000
1000
0001
1000
0001
0100
0001
0100
0010
0100
0000
0010
1000
,  // measure 10
0010
0000
0100
0000
0001
0010
0001
0010
0100
0000
1000
0100
1000
0000
0100
0010
,  // measure 11
0100
0000
0000
0000
0010
0001
0010
0001
0010
0000
0001
1000
0100
0000
1000
0010
,  // measure 12
0100
0000
0001
0000
1000
0010
1000
0010
1000
0000
0001
1000
0001
0000
0100
0001
,  // measure 13
0100
0000
0000
0000
0001
1000
0001
1000
0001
0000
1000
0010
1000
0000
0010
0100
,  // measure 14
0010
0000
0100
0000
0001
0010
0001
0010
0001
0000
1000
0000
0010
0000
0100
0010
,  // measure 15
0100
0000
0001
0000
1000
0010
1000
0010
1000
0000
0001
0000
0100
0000
0010
0100
,  // measure 16
0010
0000
1000
0000
0001
0100
0001
0100
0001
0000
1000
0000
0010
0000
0100
0001
,  // measure 17
0100
0000
0010
0000
1000
0100
1000
0100
1000
0000
0001
0000
0010
0000
0001
0100
,  // measure 18
0001
0000
1001
0000
1000
0010
1000
0000
0001
0000
0100
0000
0010
0100
0010
0000
,  // measure 19
1000
0000
0001
0000
0010
0001
0010
0000
0001
0000
0100
0000
0010
0100
0010
0100
,  // measure 20
0010
0000
1000
0100
1000
0100
1000
0100
1000
0001
1000
0001
1000
0001
0100
0001
,  // measure 21
0100
0000
1001
0000
0000
0000
1010
0000
0000
0000
0110
0000
0000
0000
0001
0100
,  // measure 22
0001
0000
1000
0000
0010
0100
0010
1000
0010
0000
1000
0001
1000
0000
0001
0100
,  // measure 23
0001
0000
0000
0000
0100
0010
0100
0001
0100
0000
0010
1000
0010
0000
1000
0001
,  // measure 24
1000
0000
0010
0000
0100
0001
0100
0001
0100
0000
0001
0010
0001
0000
1000
0001
,  // measure 25
1000
0000
0000
0000
0001
0100
0001
0100
0001
0000
1000
0010
1000
0000
0001
1000
,  // measure 26
0001
0000
0100
0000
0010
1000
0010
0000
1000
0000
0001
0100
0001
0000
1000
0001
,  // measure 27
1000
0000
0000
0000
0010
0100
0010
1000
0001
0000
0100
0001
0100
0000
0010
0100
,  // measure 28
0010
0000
1000
0000
0001
1000
0001
1000
0001
0000
1000
0010
1000
0000
0010
0100
,  // measure 29
0010
0000
0000
0000
0100
0001
0100
0001
0100
0000
0001
0000
0010
0000
0100
0000
,  // measure 30
1000
0000
1001
0000
0010
0000
1000
0000
0010
0000
0001
0100
0000
0100
0010
0000
,  // measure 31
1000
0000
0100
0000
0100
0000
0001
0000
0001
0000
0100
1000
0000
1000
0001
0000
,  // measure 32
0100
0000
1010
0000
1000
0000
1001
0000
0001
0000
0100
0001
0000
0001
1000
0000
,  // measure 33
0010
0000
0110
0000
0100
0000
0101
0000
0001
0000
1000
0010
0000
0010
0100
0000
,  // measure 34
0001
0000
0011
0000
0010
0000
0100
1000
0100
0000
1000
0000
0001
0000
0100
0010
,  // measure 35
0100
0000
0001
0000
1000
0000
0010
1000
0010
0000
0100
0000
0001
0000
0100
0010
,  // measure 36
1000
0000
0001
0000
1000
0000
0010
0100
0010
0000
1000
0000
0001
0000
1000
0001
,  // measure 37
0100
0000
0000
0000
0001
1000
0001
0000
1000
0010
1000
0000
0010
0100
0010
0000
,  // measure 38
0100
1001
0000
0001
0000
0101
0000
0100
,  // measure 39
0010
0000
1000
0000
0000
0000
1001
0000
0000
0000
0001
0000
0000
0000
0100
0010
,  // measure 40
0100
0001
1000
0000
0000
0000
0001
0000
0010
0000
0001
0000
0000
0000
0100
0000
,  // measure 41
0000
0000
0110
0000
0000
0000
0010
0000
1000
0000
0001
0000
1000
0000
0010
0100
,  // measure 42
0010
0100
0010
0000
1000
0000
0001
0000
0010
0000
0001
0000
0100
0000
0010
0000
,  // measure 43
0000
0000
1000
0000
0010
0000
0100
0000
0001
0000
1000
0000
0001
0000
0100
0010
,  // measure 44
0100
0010
0100
0000
0001
0000
1000
0000
0001
0000
0100
0000
0001
0000
1000
0000
,  // measure 45
0010
0000
0100
0000
0001
1000
0001
1000
0001
0000
1000
0010
1000
0000
0010
0100
,  // measure 46
0010
0100
0001
0010
0001
1000
0010
0100
,  // measure 47
0010
0000
1000
0000
0001
0000
0100
0000
0001
0000
0010
0000
0001
0000
1000
0010
,  // measure 48
1000
0001
0100
0001
1000
0010
0100
0010
,  // measure 49
1000
0000
0001
0000
0100
0010
1000
0000
0001
0100
0010
0000
1000
0001
0100
0010
,  // measure 50
0100
0010
1000
0100
0001
0100
1000
0010
,  // measure 51
0001
0000
0010
0000
1000
0000
0001
0000
0100
0000
1000
0000
0100
0000
0001
1000
,  // measure 52
0001
0010
1000
0100
1000
0010
0001
0100
,  // measure 53
1000
0000
0100
0000
0001
1000
0001
0000
1000
0010
1000
0000
0010
0100
0010
0000
,  // measure 54
0100
0000
0001
0000
0010
0000
1000
0000
0010
0000
0001
0000
0100
0000
1000
0100
,  // measure 55
0001
0000
1000
0000
0010
0000
0100
0000
0010
0000
1000
0000
0001
0000
0100
0010
,  // measure 56
0100
0001
0010
1000
0010
0001
0100
1000
,  // measure 57
0100
0000
0001
1000
0001
0000
1000
0100
1000
0000
0010
1000
0010
0000
0100
0001
,  // measure 58
0100
0000
0001
0010
0100
0000
1000
0100
0010
0000
0001
1000
0001
0000
1000
0010
,  // measure 59
1000
0000
0010
0100
0010
0000
0100
0001
1000
0000
0001
0010
0001
0000
1000
0010
,  // measure 60
1000
0000
0010
0100
0010
0100
0001
0100
0001
1000
0001
1000
0001
0010
0001
0010
,  // measure 61
0001
0000
1000
0010
1000
0010
0100
0010
0100
0000
0001
0010
0001
0000
1000
0001
,  // measure 62
1000
0000
0001
0010
0000
0000
0010
0001
1000
0100
1000
0100
0010
0001
0200
0000
,  // measure 63
0000
0000
0310
0000
1000
0001
0000
1000
0010
0000
0100
0000
0001
0000
1001
0000
,  // measure 64
0000
0000
1000
0010
0100
0010
0000
1000
0001
0000
0100
0010
0100
0000
0002
0000
,  // measure 65
0000
0000
1003
0010
1000
0001
0000
0001
0100
0000
0010
1000
0010
0100
0001
0010
,  // measure 66
0100
0000
1000
0001
1000
0000
0000
0001
0010
0001
1000
0100
1000
0010
0200
0000
,  // measure 67
0000
0000
0310
0000
1000
0001
0000
0001
0100
0000
0010
0000
0010
0000
1001
0000
,  // measure 68
0000
0000
1000
0001
0100
0000
0000
0100
0010
0000
1000
0001
1000
0001
0200
0000
,  // measure 69
0300
0000
0010
1000
0010
0000
0100
0000
0001
0000
0010
0000
0001
0000
1000
0010
,  // measure 70
1000
0000
0001
0000
0101
0000
0000
0110
0000
0000
1010
0000
0000
1001
0000
0000
,  // measure 71
0001
0000
0100
0000
0010
1000
0001
0000
0100
0010
1000
0000
1000
0000
1001
0000
,  // measure 72
0000
0000
0001
0100
0001
0000
0000
1000
0010
0100
0001
1000
0001
1000
0002
0000
,  // measure 73
0000
0000
0103
0010
0100
0000
0010
1000
0010
0000
1000
0001
1000
0000
0001
0100
,  // measure 74
0001
0000
0100
0000
0010
0000
1000
0000
0001
0000
0100
0010
0100
0000
0020
0000
,  // measure 75
0000
0000
1030
0000
0001
0100
0000
0001
1000
0000
0010
0000
0100
0000
0010
0000
,  // measure 76
1000
0000
0001
0000
0100
0001
0100
0000
0010
1000
0001
1000
0010
0100
0001
0000
,  // measure 77
1000
0000
0010
0100
0010
0100
0010
0100
0010
0000
0100
0001
0100
0000
0001
1000
,  // measure 78
0001
1001
0000
0000
0000
0000
0000
0000
;
