#TITLE:CHAOS;
#SUBTITLE:;
#ARTIST:DE-SIRE retunes;
#TITLETRANSLIT:;
#SUBTITLETRANSLIT:;
#ARTISTTRANSLIT:;
#GENRE:;
#CREDIT:;
#BANNER:Chaos (Remastered).png;
#BACKGROUND:Chaos (Remastered)-bg.png;
#LYRICSPATH:;
#CDTITLE:;
#MUSIC:Chaos (Remastered).ogg;
#OFFSET:0.000000;
#SAMPLESTART:4.207000;
#SAMPLELENGTH:15.000000;
#SELECTABLE:YES;
#DISPLAYBPM:170.000000;
#BPMS:0.000000=42.452999
,3.000000=169.940002
;
#STOPS:33.000000=0.353000,
78.000000=0.706000,
148.500000=0.353000,
153.500000=0.530000,
162.000000=0.353000,
169.000000=0.177000,
169.500000=0.177000,
182.000000=1.236000,
204.000000=0.706000
;
#BGCHANGES:;
#KEYSOUNDS:;
#ATTACKS:;

//---------------dance-single - ----------------
#NOTES:
     dance-single:
     :
     Beginner:
     5:
     0.189594,0.243827,0.020576,0.000000,0.000000,129.000000,127.000000,2.000000,0.000000,0.000000,0.000000,0.189594,0.243827,0.020576,0.000000,0.000000,129.000000,127.000000,2.000000,0.000000,0.000000,0.000000:
0000
0000
0000
1000
,
0001
0000
0000
1000
,
0000
0000
0000
0010
,
1000
0010
0000
0000
,
0100
0001
0000
0100
,
0010
0100
0000
0010
,
0000
1000
0000
0000
,
1100
0000
0000
0000
,
0000
1001
0000
0000
,
0001
0000
1000
0000
,
0001
0000
0100
0000
,
0010
0000
1000
0000
,
0010
0000
0100
0000
,
0001
0001
0001
0000
,
1000
1000
1000
0000
,
0010
0000
0100
0000
,
0100
0000
0001
0000
,
0001
0000
1000
0000
,
1000
0000
0010
0000
,
1000
0000
0100
0010
,
0001
0100
0000
0010
,
0010
0010
0000
1000
,
1000
1000
0000
0001
,
0001
0001
0000
0100
,
0000
0010
0000
1000
,
1000
1000
0000
0100
,
0000
0010
0000
0001
,
0000
1000
0000
0100
,
0000
1000
0000
0000
,
0010
0100
0010
0000
,
1000
0001
0000
1000
,
0000
0001
0000
0000
,
1000
0001
0000
1000
,
0010
1000
0000
0000
,
0100
0000
0010
0000
,
0001
1000
0001
1000
,
0100
0000
0010
0001
,
0010
0000
0001
1000
,
0001
1000
0000
0000
,
0100
0000
0000
1000
,
0000
0100
0010
0000
,
0001
0000
0000
1000
,
0000
0001
0000
0000
,
1000
0000
0001
0000
,
1000
0000
0000
0000
,
0000
0000
0010
0000
,
1000
0000
0001
0000
,
1000
0000
0100
0000
,
0010
0000
0001
0000
,
0100
0000
0010
0000
,
1000
0000
0100
0000
,
0010
0000
0001
0000
,
0100
0000
0010
0000
,
1000
0000
0001
0000
,
1000
0000
0100
0000
,
1000
0000
0010
0000
,
1000
0000
0100
0000
,
0010
0000
0001
0000
,
1000
0000
0001
0000
,
1000
0001
0000
0000
;

//---------------dance-single - ----------------
#NOTES:
     dance-single:
     :
     Easy:
     7:
     0.295414,0.304784,0.051440,0.000000,0.005144,201.000000,196.000000,5.000000,0.000000,0.000000,0.000000,0.295414,0.304784,0.051440,0.000000,0.005144,201.000000,196.000000,5.000000,0.000000,0.000000,0.000000:
0000
0000
0000
1000
,
0001
1000
0000
0010
,
0000
0000
0000
0100
,
0001
0100
0001
1000
,
0000
0000
0000
0010
,
1000
0010
1000
0100
,
0000
0010
0000
0001
,
1000
0001
1000
0100
,
1000
0100
0000
0010
,
0001
0100
0010
0000
,
1000
0000
0100
0000
,
0010
0000
0001
0000
,
1000
0000
0100
1000
,
0010
0100
0010
0100
,
0001
0010
0011
0000
,
1000
0000
1001
0000
,
0001
0000
0101
0000
,
0100
0000
1010
0000
,
0100
0000
0000
0010
0000
0000
0100
0000
0000
0000
0000
0000
0000
0000
0000
0000
,
0001
0000
1000
0000
,
0010
1000
0000
0100
,
0010
0001
0000
1000
,
0100
0010
0000
0001
,
1000
0001
1000
0100
,
1000
0100
0000
0010
,
0001
0010
1000
0010
,
0001
0100
0010
1000
,
0100
0000
1000
0100
0000
0000
0010
0000
,
0001
0100
0000
0000
,
0010
1000
0100
1000
,
0001
0000
0010
0001
0000
0000
0000
1000
,
0000
0010
0000
1000
0000
0000
0000
0000
,
0100
0010
0000
0001
,
0100
0000
0000
0001
0000
0000
0000
1000
,
0000
0010
0000
0000
0000
0000
1000
0000
,
0010
1000
0010
0100
,
0001
1000
0001
1000
,
0010
0100
0000
0000
0001
0000
1000
0000
,
0001
0000
1000
0001
0000
0010
0000
0100
,
0000
0010
0000
1000
0000
0010
0000
0100
,
0000
0001
0000
0010
0100
0000
0000
1000
,
0000
0100
0000
0010
0000
0100
0000
1000
,
0000
0001
1000
0001
0000
1000
0000
0010
,
0000
1000
0000
0010
0000
0100
0000
0001
,
0000
0000
1000
0000
0000
0100
0000
1000
,
0000
0010
0000
0100
0010
0000
1000
0000
,
0100
1000
0001
0010
,
0001
0100
0010
0100
,
0001
0010
0100
1000
,
0100
0010
0001
1000
,
0001
1000
0001
1000
,
1001
0010
0100
0010
,
0100
0000
0001
1000
,
0001
0000
1000
0100
,
1000
0000
0000
0100
0000
0000
0010
0000
,
0100
0010
0001
1000
,
0001
0100
0010
1000
,
0010
0100
0001
0010
,
0100
0000
1000
0001
1000
0000
0001
0000
,
1000
0001
0000
0000
;

//---------------dance-single - ----------------
#NOTES:
     dance-single:
     :
     Medium:
     10:
     0.373310,0.487654,0.195473,0.000000,0.005144,254.000000,235.000000,19.000000,0.000000,0.000000,0.000000,0.373310,0.487654,0.195473,0.000000,0.005144,254.000000,235.000000,19.000000,0.000000,0.000000,0.000000:
0000
0000
0000
1000
,
0010
1000
0010
0000
1000
0000
0100
0000
,
0010
0000
0001
0000
0100
0000
0010
0100
,
0010
0000
1000
0100
0001
0000
0100
1000
,
0010
0001
0010
1000
,
0001
0100
0010
0100
,
0001
0010
1000
1010
,
0001
0000
1000
0000
,
0000
0000
1010
0000
0000
0010
0000
0000
,
0100
0000
0010
1000
,
0010
0000
0100
0001
,
0100
0000
0001
0010
,
0011
0000
1100
0000
,
1001
1001
1001
1010
,
1010
0110
0110
0000
,
0001
0000
1001
0000
,
1100
0000
0110
0000
,
0011
0000
0101
0000
,
1001
0000
0000
1001
0000
0000
1001
0000
0000
0000
0000
0000
0000
0000
0000
0000
,
0010
0000
0000
0000
1000
0000
0001
1000
,
0001
1000
0001
0000
0000
0000
1000
0100
,
1000
0100
1000
0000
0000
0000
0010
0100
,
0010
0100
0010
0000
0000
0000
0100
0001
,
0100
0001
0100
0000
0000
0000
0001
0010
,
0001
0010
0001
0000
0000
0000
1000
0100
,
1000
0100
1000
0000
0000
0000
0100
0001
,
0100
1000
0100
0000
0000
0000
0001
0010
,
1000
0010
0001
0000
0000
0000
1000
0001
,
1000
0001
1000
0000
0000
0000
0000
0000
,
0010
0100
0010
0100
0010
0000
0000
0000
,
1000
0100
1000
0100
1000
0000
0000
0000
,
0001
0100
0001
0100
0001
0000
0000
0000
,
1000
0000
0000
0010
0000
0000
0000
1000
,
0000
0010
0000
1000
0000
0000
0000
0000
,
0010
0000
0000
0100
0000
0000
0010
0000
,
0100
0000
0010
0000
0100
0000
0001
1000
,
0001
0000
1000
0010
1000
0000
0010
0100
,
0010
0100
0000
0000
0001
0000
1000
0000
,
0100
1000
0100
1000
0000
0000
0010
0000
,
0100
0010
1000
0100
,
0000
1000
0100
1000
0100
0000
0000
0010
,
0000
0001
0000
0100
0000
0010
0000
1000
,
0000
0100
1000
0001
0000
1000
0000
0010
,
0000
1000
0010
1000
0010
0000
1000
0000
,
0100
0000
1000
0000
0000
0100
0000
0010
,
0000
0001
0010
0001
0010
0000
0100
0000
,
1000
0000
0100
0010
0001
0010
0000
0001
,
0000
0010
0000
1000
0000
0010
0000
0001
,
0000
0100
0010
0000
,
0000
1000
0000
0100
0000
1000
0000
0100
,
0000
0010
0000
0001
0000
0010
0000
0000
,
0001
1000
0100
1000
,
0100
0000
0010
0001
,
0010
0000
0001
0100
,
0001
0000
1000
0100
,
1000
0100
0010
0001
,
0010
0001
0100
0010
,
0100
0010
0100
0010
,
0100
0000
0001
1000
0001
0000
1000
0001
,
1000
0001
1000
0000
0000
0000
0000
0000
;

//---------------dance-single - ----------------
#NOTES:
     dance-single:
     :
     Hard:
     14:
     0.673133,0.645448,0.267490,0.030864,0.226337,458.000000,432.000000,26.000000,3.000000,0.000000,0.000000,0.673133,0.645448,0.267490,0.030864,0.226337,458.000000,432.000000,26.000000,3.000000,0.000000,0.000000:
// measure 0
0000
0000
0000
0000
0000
0000
0001
0010
,  // measure 1
1000
0010
0001
0100
1000
0100
0001
1000
,  // measure 2
0010
1000
0100
1000
0010
0000
0100
0001
,  // measure 3
0010
0100
0001
0100
1000
0010
0001
0010
,  // measure 4
1000
0100
0010
0001
0100
0010
0100
0100
,  // measure 5
0001
0001
1000
1000
0010
0100
0001
0010
,  // measure 6
0001
0100
0010
1000
0001
0100
0001
0000
,  // measure 7
1100
0000
0000
0110
0000
0000
0011
0000
,  // measure 8
0000
0000
1001
0000
0000
0000
0000
0000
1000
0000
0000
0010
0000
0000
0100
0001
,  // measure 9
0100
0000
0000
0010
0000
0000
1000
0000
0100
0000
0010
0000
0001
0000
0010
0000
,  // measure 10
1000
0000
0010
0000
0001
0100
0001
0000
0100
0000
0010
0000
1000
0000
0100
0000
,  // measure 11
0010
0000
1000
0000
0010
0001
0010
0000
0001
0000
0100
0000
1000
0000
0100
0000
,  // measure 12
0001
0010
0000
0001
0001
0110
0000
0000
,  // measure 13
1000
0000
0000
0101
0000
0000
0100
0010
1000
0000
0000
0100
0000
0000
0010
0001
,  // measure 14
0100
0000
0000
0010
0000
0000
0110
0000
1000
0000
0100
0000
1000
0000
0100
0000
,  // measure 15
0010
0000
0001
0000
0010
0001
0010
0000
0100
0000
0010
0000
0100
0000
1000
0000
,  // measure 16
0001
0000
1000
0000
0010
0100
0010
0000
0100
0000
0001
0000
0010
0000
0001
0000
,  // measure 17
1000
0000
0010
1000
0010
0000
0100
0000
0001
0000
1000
0000
0000
0000
0000
0000
,  // measure 18
0110
0000
0000
0110
0000
0000
2002
0000
0000
0000
0000
0000
0000
0000
0000
0000
,  // measure 19
0000
0000
0000
0000
3003
0000
0010
1000
,  // measure 20
0100
0000
0010
0001
0010
0000
0001
0000
0100
0000
0000
0000
0010
0000
1000
0000
,  // measure 21
0100
0000
1000
0001
1000
0000
0010
0000
0100
0000
0000
0000
0001
0010
0001
0000
,  // measure 22
0100
0010
1000
0010
0100
0000
0001
0010
,  // measure 23
0100
0000
1000
0100
1000
0000
0010
0000
0100
0000
0000
0000
0001
0000
0010
0000
,  // measure 24
1000
0010
0001
0100
1000
0000
0100
0001
,  // measure 25
1000
0001
0100
0010
1000
0000
0010
0100
,  // measure 26
0001
0000
0100
0010
0100
0000
0010
0000
1000
0000
0000
0000
0001
0000
0100
0000
,  // measure 27
0010
0000
0100
0001
0100
0000
0010
0000
1000
0000
0000
0000
0001
0000
1000
0000
,  // measure 28
0100
0000
0001
0000
0100
0000
1000
0000
0010
0000
0100
0001
0100
0000
0010
0000
,  // measure 29
0010
1000
1000
0001
0001
0100
0000
0100
,  // measure 30
0010
1000
0100
0010
0001
0000
0100
0010
,  // measure 31
0010
1000
1000
0001
0001
0100
0000
0010
,  // measure 32
1000
0100
1000
0000
0001
0000
0100
0000
0010
0100
0010
0000
1000
0000
0001
0000
,  // measure 33
0001
0010
0010
1000
1000
0010
0010
0001
,  // measure 34
0100
0000
1000
0100
0001
0000
0100
0010
,  // measure 35
1000
0001
0100
0001
0010
0100
0001
0100
,  // measure 36
1000
0100
0010
1000
0010
0001
0100
0010
,  // measure 37
1000
0001
1000
0000
0000
0000
0010
0000
0100
0000
0001
0000
0010
0000
0001
0000
,  // measure 38
1000
0000
0100
0000
1000
0001
0010
0000
0000
0000
0001
1000
0001
0000
1000
0100
,  // measure 39
1000
0000
0010
0000
0100
0000
0001
0010
0001
0000
1000
0000
0100
0000
1000
0000
,  // measure 40
0010
0000
0100
0010
0100
0000
0001
0000
1001
0000
0000
0000
1000
0000
0001
0000
,  // measure 41
1000
0100
0001
0100
1000
0010
0001
0010
,  // measure 42
1000
0001
1001
0110
0001
0100
1000
0100
,  // measure 43
0001
0010
1000
0010
0001
0000
1001
0000
,  // measure 44
0110
0000
0000
0000
1001
0000
0000
0000
0100
0000
0010
1000
0010
0000
0100
0000
,  // measure 45
0010
0001
0010
0100
0001
0000
1000
0100
,  // measure 46
0001
0100
0010
0001
1000
1100
0000
0011
,  // measure 47
0000
1100
0000
0011
0000
1000
0010
0010
,  // measure 48
0001
0010
0100
1000
0100
0011
0000
1001
,  // measure 49
0000
0000
0011
0000
0000
0000
0110
0000
0000
0000
1000
0000
1100
0000
0000
0010
,  // measure 50
0000
1000
0010
0000
0100
0000
0000
0000
0001
0000
0010
0000
0000
0000
0000
0000
,  // measure 51
1001
0000
0000
0000
1000
0000
0100
0000
1000
0000
0010
0100
0000
0001
1000
0000
,  // measure 52
0010
0000
1000
0000
0000
0000
1000
0000
0100
0000
0010
0001
0000
0001
0100
0000
,  // measure 53
0010
0000
0100
0000
0000
0000
0001
0000
0010
0000
1000
0010
0000
0010
0001
0000
,  // measure 54
0100
0000
0010
0000
0000
0000
1000
0000
0001
0000
1000
0001
0000
0001
1000
0000
,  // measure 55
0001
0100
0010
1000
0001
1000
0010
0100
,  // measure 56
0001
0000
0001
0010
0100
0010
0001
1000
,  // measure 57
0001
0000
0100
0010
1000
0001
0010
0001
,  // measure 58
1000
0000
0010
0000
0100
0000
0010
1000
0010
0000
1000
0100
1000
0000
0001
0010
,  // measure 59
0001
0000
0100
0010
0200
0000
0000
0000
0000
0000
0000
0000
0300
0000
0000
0000
;

//---------------dance-double - ----------------
#NOTES:
     dance-double:
     :
     Easy:
     9:
     0.260141,0.294134,0.030864,0.030864,0.864198,177.000000,174.000000,3.000000,3.000000,0.000000,0.000000,0.260141,0.294134,0.030864,0.030864,0.864198,177.000000,174.000000,3.000000,3.000000,0.000000,0.000000:
00000000
00000000
00000000
00000000
,
00000000
00000000
00000000
00000000
,
00000000
00000000
00000000
00000000
,
00000000
00000000
00000000
00100000
00000000
00000000
00000000
10000000
00000000
00000000
00000000
00010000
00000000
00000000
00000000
01000000
,
00000000
00000000
00000000
00000000
00000000
10000000
00000000
00000000
00000000
00000000
00000000
01000000
00000000
01000000
00000000
00000000
,
00000000
00010000
00000000
00000000
00000000
00000000
00000000
00001000
00000000
00000000
00000000
00000000
00000000
00000100
00000000
00000000
,
00000000
00000000
00000000
00000001
00000000
00000000
00000001
00000000
00000000
00000001
00000000
00001000
00000000
00000000
00001000
00000000
,
00000000
00001000
00000000
00000010
00000000
00000000
00000000
00000100
00000000
00000000
00000000
00000001
00000000
00000000
00000000
00001000
,
00000000
00000000
00000000
00000100
00000000
00000000
00000000
00001000
00000000
00000000
00000000
00000001
00000000
00000100
00000000
00000000
,
00000100
00000000
00000000
00000000
00000000
00001000
00000000
00000000
00001000
00000000
00000000
00000000
00000000
00010000
00000000
00000000
,
00010000
00000000
00000000
00000000
00000000
00100000
00000000
00000000
00000000
01000000
00000000
00000000
00000000
10000000
00000000
00000000
,
00000000
01000000
00000000
00000000
00000000
00100000
00000000
00000000
00000000
00010000
00000000
00000000
00000000
00001000
00000000
00000000
,
00001000
00000000
00000000
00001000
00000000
00000000
00000000
00000000
00000000
00022000
00000000
00000000
00000000
00000000
00000000
00000000
,
00000000
00033000
00000000
00000000
00000000
00000100
00000000
00000000
00000000
00001000
00000000
00000000
00000000
00000010
00000000
00000010
,
00000000
00000000
00000000
00000001
00000000
00000000
00000000
00001000
00000000
00001000
00000000
00000000
00000000
00000000
00000000
00000010
,
00000000
00000000
00000000
00000001
00000000
00000000
00000000
00000100
00000000
00000100
00000000
00000000
00000000
00001000
00000000
00000000
,
00000000
00010000
00000000
00010000
00000000
00000000
00000000
00000000
00000000
01000000
00000000
00000000
00000000
00100000
00000000
00000000
,
00000000
00010000
00000000
00010000
00000000
00000000
00000000
10000000
00000000
00000000
00000000
00100000
00000000
00100000
00000000
00000000
,
00000000
00000000
00000000
01000000
00000000
00000000
00000000
10000000
00000000
00000000
00000000
01000000
00000000
01000000
00000000
00000000
,
00000000
00100000
00000000
00000000
00000000
10000000
00000000
10000000
00000000
00000000
00000000
00000000
00000000
00000000
00000000
00100000
,
00000000
00000000
00000000
00010000
00000000
00000000
00000000
00000000
00000000
00001000
00000000
00000000
00000000
00010000
00000000
00000000
,
00000000
00000000
00000000
01000000
00000000
00000000
00000000
00100000
00000000
00000000
00000000
00010000
00000000
00000000
00000000
10000000
,
00000000
00000000
00000000
00000000
00000000
00000000
00000000
01000000
00000000
00000000
00000000
00100000
00000000
00000000
00000000
10000000
,
00000000
00000000
00000000
01000000
00000000
00000000
00000000
00010000
00000000
00000000
00000000
00001000
00000000
00000000
00000000
00000010
,
00000000
00000000
00000000
00000001
00000000
00000000
00000000
00000100
00000000
00000000
00000000
00000010
00000000
00000000
00000000
00001001
,
00000000
00000000
00000000
00000100
00000000
00000000
00000000
00001000
00000000
00000000
00000000
00010000
00000000
00000000
00000000
00100000
,
00000000
00000000
00000000
00010000
00000000
00000000
00000000
00001000
00000000
00000000
00000000
00000010
00000000
00000000
00000000
00001000
,
00000000
00000000
00000000
00010000
00000000
00000000
00000000
01000000
00000000
01000000
00000000
00000000
00000000
10000000
00000000
00000000
,
00000000
00100000
00000000
00000000
00000000
00010000
00000000
00000000
00000000
00001000
00000000
00000000
00000000
00000100
00000000
00000000
,
00000000
00000001
00000000
00000000
00000000
00000010
00000000
00000000
00000000
00000100
00000000
00000000
00000000
00001000
00000000
00000000
,
00000000
00000010
00000000
00000000
00000000
00001000
00000000
00000000
00000000
00000001
00000000
00000000
00000000
00000100
00000000
00001000
,
00000000
00000000
00000000
00010000
00000000
00000000
00000000
00000000
00000000
00000000
00000000
00000010
00000000
00000000
00000000
00000000
00000000
00000000
00000000
00010000
00000000
00000000
00000000
00000000
00000000
00000000
00000000
00000100
00000000
00000000
00000000
00001000
,
00000000
00010000
00000000
00001000
00000000
00000000
00000000
00000000
00000000
00000000
00000000
00000000
00000000
00100000
00000000
00000000
00000000
00000000
00000000
00000000
00000000
00000000
00000000
00000000
00000000
00000000
00000000
00000000
00000000
00010000
00000000
00000000
00000000
00000000
00000000
00000000
00000000
00000000
00000000
00000000
00000000
00000000
00000000
00000000
00000000
01000000
00000000
00000000
00000000
00000000
00000000
00000000
00000000
00000000
00000000
00000000
00000000
00000000
00000000
00000000
00000000
00100000
00000000
00000000
,
00000000
00000000
00000000
00000000
00000000
01000000
00000000
00000000
00000000
00000000
00000000
00000000
00000000
00000000
00000000
00000000
00000000
00000000
00000000
00000000
00000000
00100000
00000000
00000000
00000000
00000000
00000000
00000000
00000000
00000000
00000000
00000000
00000000
00000000
00000000
00000000
00000000
10000000
00000000
00000000
00000000
00000000
00000000
00000000
00000000
00000000
00000000
00000000
00000000
00000000
00000000
00000000
00000000
00010000
00000000
00000000
00000000
00000000
00000000
00000000
00000000
10000000
00000000
01000000
,
00000000
10000000
00000000
00000000
00000000
00000000
00000000
00000000
00000000
00000000
00000000
00100000
00000000
00000000
00000000
00000000
00000000
00000000
00000000
00000000
00000000
00000000
00000000
00000000
00000000
00000000
00000000
00010000
00000000
00000000
00000000
00000000
00000000
00000000
00000000
00000000
00000000
00000000
00000000
00000000
00000000
00000000
00000000
00001000
00000000
00000000
00000000
00000000
00000000
00000000
00000000
00000000
00000000
00000000
00000000
00000000
00000000
00000000
00000000
00000010
00000000
00000000
00000000
00000000
,
00000000
00000000
00000000
00000000
00000000
00000000
00000000
00000000
00000000
00000000
00000000
00000000
00000000
00000000
00000000
00000000
00000000
00000000
00000000
00000001
00000000
00001000
00000000
00000001
00000000
00000000
00000000
00000000
00000000
00000000
00000000
00000100
00000000
00000000
00000000
00000000
00000000
00000000
00000000
00000000
00000000
00000000
00000000
00000100
00000000
00000000
00000000
00000000
00000000
00000000
00000000
00000000
00000000
00000000
00000000
00000100
00000000
00000000
00000000
00000000
00000000
00000000
00000000
00000010
,
00000000
00000000
00000000
00000000
00000000
00000000
00000000
00000000
00000000
00000000
00000000
00000000
00000000
00000000
00000000
00001000
00000000
00000000
00000000
00000000
00000000
00000000
00000000
00000200
00000000
00000000
00000000
00000000
00000000
00000000
00000000
00000000
00000000
00000000
00000000
00000000
00000000
00000000
00000000
00000000
00000000
00000000
00000000
00000000
00000000
00000000
00000000
00000310
00000000
00000000
00000000
00000000
00000000
00000000
00000000
00000000
00000000
00000000
00000000
00000000
00000000
00000000
00000000
00000001
,
00000000
00000000
00000000
00000000
00000000
00000000
00000000
00000000
00000000
00000000
00000000
00000000
00000000
00000000
00000000
00000100
00000000
00000000
00000000
00000000
00000000
00000000
00000000
00000000
00000000
00000000
00000000
00000000
00000000
00000000
00000000
00001000
00000000
00000000
00000000
00000000
00000000
00000000
00000000
00000000
00000000
00000000
00000000
00000000
00000000
00000000
00000000
00010000
00000000
00000000
00000000
00000000
00000000
00000000
00000000
00000000
00000000
00000000
00000000
00000000
00000000
00000000
00000000
00100000
,
00000000
00000000
00000000
00000000
00000000
00000000
00000000
00000000
00000000
00000000
00000000
00000000
00000000
00000000
00000000
01000000
00000000
00000000
00000000
00000000
00000000
00000000
00000000
00000000
00000000
00000000
00000000
00000000
00000000
00000000
00000000
00010000
00000000
00000000
00000000
00000000
00000000
00000000
00000000
00000000
00000000
00000000
00000000
00000000
00000000
00000000
00000000
01000000
00000000
00000000
00000000
00000000
00000000
00000000
00000000
00000000
00000000
00000000
00000000
00000000
00000000
00000000
00000000
10000000
,
00000000
00000000
00000000
00000000
00000000
00000000
00000000
00000000
00000000
00000000
00000000
00000000
00000000
00000000
00000000
01000000
00000000
00000000
00000000
00000000
00000000
00000000
00000000
00000000
00000000
00000000
00000000
00000000
00000000
00000000
00000000
00100000
00000000
00000000
00000000
00000000
00000000
00000000
00000000
00000000
00000000
00000000
00000000
00000000
00000000
00000000
00000000
00010000
00000000
00000000
00000000
00000000
00000000
00000000
00000000
00000000
00000000
00000000
00000000
00000000
00000000
00000000
00000000
00001000
,
00000000
00000000
00000000
00000000
00000000
00000000
00000000
00000000
00000000
00000000
00000000
00000000
00000000
00000000
00000000
00100000
00000000
00000000
00000000
00000000
00000000
00000000
00000000
00000000
00000000
00000000
00000000
00000000
00000000
00000000
00000000
00001000
00000000
00000000
00000000
00000000
00000000
00000000
00000000
00000000
00000000
00000000
00000000
00000000
00000000
00000000
00000000
01000000
00000000
00000000
00000000
00000000
00000000
00000000
00000000
00000000
00000000
00000000
00000000
00000000
00000000
00000000
00000000
00010000
,
00000000
00000000
00000000
00000000
00000000
00000000
00000000
00000000
00000000
00000000
00000000
00000000
00000000
00000000
00000000
00000010
00000000
00000000
00000000
00000000
00000000
00000000
00000000
00000000
00000000
00000000
00000000
00000000
00000000
00000000
00000000
00010000
00000000
00000000
00000000
00000000
00000000
00000000
00000000
00000000
00000000
00000000
00000000
00000000
00000000
00000000
00000000
00001000
00000000
00000000
00000000
00000000
00000000
00000000
00000000
00000000
00000000
00000000
00000000
00000000
00000000
00000000
00000000
00000100
,
00000000
00000000
00000000
00000000
00000000
00000000
00000000
00000000
00000000
00000000
00000000
00000000
00000000
00000000
00000000
00000001
00000000
00000000
00000000
00000000
00000000
00000000
00000000
00000000
00000000
00000000
00000000
00000000
00000000
00000000
00000000
00000010
00000000
00000000
00000000
00000000
00000000
00000000
00000000
00000000
00000000
00000000
00000000
00000000
00000000
00000000
00000000
00001000
00000000
00000000
00000000
00000000
00000000
00000000
00000000
00000000
00000000
00000000
00000000
00000000
00000000
00000000
00000000
00000010
,
00000000
00000000
00000000
00000000
00000000
00000000
00000000
00000010
00000000
00000000
00000000
00000000
00000000
00000000
00000000
00000010
00000000
00000000
00000000
00000000
00000000
00000000
00000000
00000000
00000000
00000000
00000000
00000000
00000000
00000000
00000000
00000100
00000000
00000000
00000000
00000000
00000000
00000000
00000000
00000100
00000000
00000000
00000000
00000000
00000000
00000000
00000000
00000100
00000000
00000000
00000000
00000000
00000000
00000000
00000000
00000000
00000000
00000000
00000000
00000000
00000000
00000000
00000000
00001001
,
00000000
00000000
00000000
00000000
;

//---------------dance-double - ----------------
#NOTES:
     dance-double:
     :
     Medium:
     12:
     0.365961,0.384637,0.072016,0.030864,1.213992,249.000000,242.000000,7.000000,3.000000,0.000000,0.000000,0.365961,0.384637,0.072016,0.030864,1.213992,249.000000,242.000000,7.000000,3.000000,0.000000,0.000000:
00000000
00000000
00000000
00000000
,
00000000
00000000
00000000
00000000
,
00000000
00000000
00000000
00000000
,
00000000
00000000
00000000
00000010
00000000
00000100
00000000
00001000
00000000
00000000
00000000
00000001
00000000
00000000
00000000
00000010
,
00000000
00000100
00000000
00000000
00000000
00001001
00000000
00000000
00000000
00000000
00000000
00000010
00000000
00001000
00000000
00000000
,
00000000
00001001
00000000
00000000
00000000
00000000
00000000
00011000
00000000
00000000
00000000
00000000
00000000
10010000
00000000
00000000
,
00000000
00000000
00000000
01000000
00000000
00000000
10000000
00000000
00000000
00100000
00000000
01000000
00000000
00000000
00010000
00000000
,
00000000
00100000
00000000
01000000
00000000
00100000
00000000
00000000
00000000
01000000
00000000
10000000
00000000
00010000
00000000
00000000
,
00000000
10000000
00000000
00100000
00000000
00010000
00000000
00000000
00000000
00001000
00000000
00010000
00000000
00000100
00000000
00000000
,
00001000
00000000
00000000
00000010
00000000
00000100
00000000
00000000
00000010
00000000
00000000
00001000
00000000
00000100
00000000
00000000
,
00000001
00000000
00000000
00000100
00000000
00001000
00000000
00000010
00000000
00000000
00000000
00000100
00000000
00000001
00000000
00001000
,
00000000
00000000
00000000
00000010
00000000
00000100
00000000
00001000
00000000
00000000
00000000
00000001
00000000
00000100
00000000
00000000
,
00001000
00000000
00000000
00010000
00000000
00001000
00000000
00000000
00000000
00022000
00000000
00000000
00000000
00000000
00000000
00000000
,
00000000
00030000
00000000
00000000
00000000
00013000
00000000
00010000
00000000
00000000
00000000
00100000
00000000
10000000
00000000
01000000
,
00000000
10000000
00000000
00000000
00000000
00010000
00000000
01000000
00000000
00100000
00000000
00000000
00000000
00000000
00000000
01000000
,
00000000
01000000
00000000
00000000
00000000
10000000
00000000
00100000
00000000
00010000
00000000
00001000
00000000
00000000
00000000
00010000
,
00000000
01000000
00000000
00100000
00000000
00000000
00000000
00000000
00000000
01000000
00000000
01000000
00000000
00000000
00000000
00010000
,
00000000
00001000
00000000
00010000
00000000
00000010
00000000
00000000
00000000
00001000
00000000
00000100
00000000
00000001
00000000
00000000
,
00000000
00000000
00000000
00001000
00000000
00001000
00000000
00000000
00000000
00000001
00000000
00001000
00000000
00000010
00000000
00000100
,
00000000
00000000
00000000
00000001
00000000
00000010
00000000
00000100
00000000
00000000
00000000
00000001
00000000
00000100
00000000
00000000
,
00000000
00001000
00000000
00000000
00000000
00000001
00000000
00000010
00000000
00000100
00000000
00000000
00000000
00000001
00000000
00000100
,
00000000
00001000
00000000
00000000
00000000
00010000
00000000
00001000
00000000
00000000
00000000
00110000
00000000
00000000
00000000
11000000
,
00000000
00000000
00000000
10000000
00000000
00000000
00000000
00100000
00000000
10000000
00000000
00000000
00000000
01000000
00000000
00010000
,
00000000
10000000
00000000
00100000
00000000
00000000
00000000
10000000
00000000
00000000
00000000
01000000
00000000
00000000
00000000
00010000
,
00000000
00001000
00000000
00000010
00000000
00000000
00000000
00000001
00000000
00000100
00000000
00000010
00000000
00000000
00000000
00001000
,
00000000
00000100
00000000
00001000
00000000
00000000
00000000
00000001
00000000
00000100
00000000
00001000
00000000
00000000
00000000
00000100
,
00000000
00000001
00000000
00000010
00000000
00000000
00000000
00000001
00000000
00001000
00000000
00000010
00000000
00000000
00000000
00010000
,
00000000
00001000
00000000
01000000
00000000
00000000
00000000
00100000
00000000
01000000
00000000
10000000
00000000
00010000
00000000
00000000
,
00000000
00100000
00000000
10000000
00000000
01000000
00000000
00000000
00000000
00100000
00000000
00010000
00000000
01000000
00000000
00000000
,
00000000
00100000
00000000
00010000
00000000
01000000
00000000
10000000
00000000
01000000
00000000
00000000
00000000
00010000
00000000
00100000
,
00000000
00000000
01000000
00000000
00000000
00000000
00000000
00000000
00000000
00000000
10000000
00000000
00000000
00000000
01000000
00000000
00000000
00000000
00010000
00000000
00000000
00000000
00000000
00000000
00000000
00000000
00001000
00000000
00000000
00000000
00010000
00001000
,
00000000
00000000
00000000
00000100
00000000
00000000
00000000
00000000
00000000
00000000
00000000
00000001
00000000
00000000
00000000
00001000
00000000
00000000
00000000
00000100
00000000
00000000
00000000
00000000
00000000
00000000
00000000
00000010
00000000
00000000
00000000
00000001
,
00000000
00001000
00000000
00000010
00000000
00000100
00000000
00000000
00000000
00000000
00000000
00000000
00000000
00000010
00000000
00000000
00000000
00000000
00000000
00000000
00000000
00000000
00000000
00000000
00000000
00000000
00000000
00000000
00000000
00000100
00000000
00000000
00000000
00000000
00000000
00000000
00000000
00000001
00000000
00000000
00000000
00000000
00000000
00000000
00000000
00000010
00000000
00000000
00000000
00000000
00000000
00000000
00000000
00000000
00000000
00000000
00000000
00000000
00000000
00000000
00000000
00000100
00000000
00000000
,
00000000
00000000
00000000
00000000
00000000
00000010
00000000
00000000
00000000
00000000
00000000
00000000
00000000
00000000
00000000
00000000
00000000
00000000
00000000
00000000
00000000
00000100
00000000
00000000
00000000
00000000
00000000
00000000
00000000
00001000
00000000
00000000
00000000
00000000
00000000
00000000
00000000
00000001
00000000
00000000
00000000
00000000
00000000
00000000
00000000
00000000
00000000
00000000
00000000
00000000
00000000
00000000
00000000
00000100
00000000
00000000
00000000
00000000
00000000
00000000
00000000
00001000
00000000
00010000
,
00000000
01000000
00000000
10000000
00000000
00000000
00000000
00000000
00000000
00000000
00000000
00100000
00000000
00000000
00000000
00000000
00000000
00000000
00000000
00000000
00000000
00000000
00000000
00000000
00000000
00000000
00000000
01000000
00000000
00000000
00000000
00000000
00000000
00000000
00000000
10000000
00000000
00000000
00000000
00000000
00000000
00000000
00000000
01000000
00000000
00000000
00000000
00000000
00000000
00000000
00000000
00000000
00000000
00000000
00000000
00000000
00000000
00000000
00000000
00010000
00000000
00000000
00000000
00000000
,
00000000
00000000
00000000
00100000
00000000
00000000
00000000
00000000
00000000
00000000
00000000
00000000
00000000
00000000
00000000
00000000
00000000
00000000
00000000
10000000
00000000
01000000
00000000
00010000
00000000
00000000
00000000
00000000
00000000
00000000
00000000
01000000
00000000
00000000
00000000
00000000
00000000
00000000
00000000
00000000
00000000
00000000
00000000
00100000
00000000
00000000
00000000
00000000
00000000
00000000
00000000
00000000
00000000
00000000
00000000
00010000
00000000
00000000
00000000
00000000
00000000
00000000
00000000
01000000
,
00000000
00000000
00000000
00000000
00000000
00000000
00000000
00000000
00000000
00000000
00000000
00000000
00000000
00000000
00000000
00010000
00000000
00000000
00000000
00000000
00000000
00000000
00000000
20000000
00000000
00000000
00000000
00000000
00000000
00000000
00000000
00000000
00000000
00000000
00000000
00000000
00000000
00000000
00000000
00000000
00000000
00000000
00000000
00000000
00000000
00000000
00000000
31000000
00000000
00000000
00000000
00000000
00000000
00000000
00000000
00010000
00000000
00000000
00000000
00000000
00000000
00000000
00000000
00001000
,
00000000
00000000
00000000
00000000
00000000
00000000
00000000
00000000
00000000
00000000
00000000
00000010
00000000
00000000
00000000
00000000
00000000
00000000
00000000
00000000
00000000
00000000
00000000
00000100
00000000
00000000
00000000
00000000
00000000
00000000
00000000
00001000
00000000
00000000
00000000
00000000
00000000
00000000
00000000
00000010
00000000
00000000
00000000
00000000
00000000
00000000
00000000
00001000
00000000
00000000
00000000
00000000
00000000
00000000
00000000
00000000
00000000
00000000
00000000
00000100
00000000
00000000
00000000
00000000
,
00000000
00000000
00000000
00000000
00000000
00000000
00000000
00000010
00000000
00000000
00000000
00000000
00000000
00000000
00000000
00000100
00000000
00000000
00000000
00000000
00000000
00000000
00000000
00000001
00000000
00000000
00000000
00000000
00000000
00000000
00000000
00000100
00000000
00000000
00000000
00000000
00000000
00000000
00000000
00000000
00000000
00000000
00000000
00000010
00000000
00000000
00000000
00000000
00000000
00000000
00000000
00000000
00000000
00000000
00000000
00000001
00000000
00000000
00000000
00000000
00000000
00000000
00000000
00000100
,
00000000
00000000
00000000
00000000
00000000
00000000
00000000
00001000
00000000
00000000
00000000
00000000
00000000
00000000
00000000
00010000
00000000
00000000
00000000
00000000
00000000
00000000
00000000
00000000
00000000
00000000
00000000
01000000
00000000
00000000
00000000
00000000
00000000
00000000
00000000
00000000
00000000
00000000
00000000
10000000
00000000
00000000
00000000
00000000
00000000
00000000
00000000
00010000
00000000
00000000
00000000
00000000
00000000
00000000
00000000
00000000
00000000
00000000
00000000
00000000
00000000
00000000
00000000
00100000
,
00000000
00000000
00000000
00000000
00000000
00000000
00000000
00010000
00000000
00000000
00000000
00000000
00000000
00000000
00000000
00100000
00000000
00000000
00000000
00000000
00000000
00000000
00000000
00000000
00000000
00000000
00000000
00000000
00000000
00000000
00000000
01000000
00000000
00000000
00000000
00000000
00000000
00000000
00000000
10000000
00000000
00000000
00000000
00000000
00000000
00000000
00000000
01000000
00000000
00000000
00000000
00000000
00000000
00000000
00000000
00000000
00000000
00000000
00000000
00000000
00000000
00000000
00000000
10000000
,
00000000
00000000
00000000
00000000
00000000
00000000
00000000
00100000
00000000
00000000
00000000
00000000
00000000
00000000
00000000
10000000
00000000
00000000
00000000
00000000
00000000
00000000
00000000
00000000
00000000
00000000
00000000
00000000
00000000
00000000
00000000
00010000
00000000
00000000
00000000
00000000
00000000
00000000
00000000
01000000
00000000
00000000
00000000
00000000
00000000
00000000
00000000
00010000
00000000
00000000
00000000
00000000
00000000
00000000
00000000
00000000
00000000
00000000
00000000
00000000
00000000
00000000
00000000
00100000
,
00000000
00000000
00000000
00000000
00000000
00000000
00000000
00001000
00000000
00000000
00000000
00000000
00000000
00000000
00000000
01000000
00000000
00000000
00000000
00000000
00000000
00000000
00000000
00010000
00000000
00000000
00000000
00000000
00000000
00000000
00000000
00100000
00000000
00000000
00000000
00000000
00000000
00000000
00000000
00001000
00000000
00000000
00000000
00000000
00000000
00000000
00000000
01000000
00000000
00000000
00000000
00000000
00000000
00000000
00000000
00001000
00000000
00000000
00000000
00000000
00000000
00000000
00000000
00010000
,
00000000
00000000
00000000
00000000
00000000
00000000
00000000
00000010
00000000
00000000
00000000
00000000
00000000
00000000
00000000
00001000
00000000
00000000
00000000
00000000
00000000
00000000
00000000
00000100
00000000
00000000
00000000
00000000
00000000
00000000
00000000
00010000
00000000
00000000
00000000
00000000
00000000
00000000
00000000
00000010
00000000
00000000
00000000
00000000
00000000
00000000
00000000
00001000
00000000
00000000
00000000
00000000
00000000
00000000
00000000
00000100
00000000
00000000
00000000
00000000
00000000
00000000
00000000
00000010
,
00000000
00000000
00000000
00000000
;

//---------------dance-double - ----------------
#NOTES:
     dance-double:
     :
     Hard:
     14:
     0.492357,0.543017,0.195473,0.061728,1.522634,335.000000,316.000000,19.000000,6.000000,0.000000,0.000000,0.492357,0.543017,0.195473,0.061728,1.522634,335.000000,316.000000,19.000000,6.000000,0.000000,0.000000:
00000000
00000000
00000000
00000000
,
00000000
00000000
00000000
00000000
,
00000000
00000000
00000000
00000000
,
00000000
00000000
00000000
10000000
00000000
00100000
00000000
01000000
00000000
00000000
00010000
10000000
00000000
00000000
00000000
01000000
,
00100000
01000000
00000000
00000000
00000000
10010000
00000000
00000000
00000000
00100000
00000000
10000000
00000000
01000000
00000000
00000000
,
00000000
10010000
00000000
00000000
00000000
00100000
00000000
10000000
00000000
00000000
00000000
01000000
00000000
00010000
00000000
00001000
,
00000000
00000100
00000000
00000001
00000000
00000000
00001010
00000000
00000000
00000001
00000010
00000001
00000000
00000000
00001100
00000000
,
00000000
00000101
00000000
00000010
00000000
00001000
00000000
00000100
00000000
00000010
00000000
00000001
00000000
00000100
00000000
00001000
,
00000000
00010000
00000000
01000000
00000000
00100000
00000000
00010000
00000000
10000000
00000000
00100000
00000000
01000000
00000000
00000000
,
01010000
00000000
00000000
11000000
00000000
00100000
00000000
00000000
10010000
00000000
00000000
00100000
01000000
00100000
00000000
00000000
,
11000000
00000000
00000000
00100000
00000000
00001000
00000000
00010000
00000000
01000000
00000000
10000000
00000000
00100000
00000000
00010000
,
00000000
00001000
00000000
00000010
00000100
00000010
00000000
00000001
00000000
00001000
00000000
00000010
00000000
00000100
00000000
00000000
,
00000001
00000000
00000000
00000100
00001000
00000100
00000000
00000000
00000000
00002002
00000000
00000000
00000000
00000000
00000000
00000000
,
00000000
00003000
00000000
00000000
00000000
00000103
00000000
00000000
00000010
00001000
00000000
00000100
00000000
00010000
00000000
00001000
,
00000000
00000000
00010000
00100000
00000000
10000000
00000000
00010000
00000000
02000000
00000000
00000000
00000000
03100000
00000000
01000000
,
00000000
00000000
00010000
00100000
00000000
01000000
00000000
10000000
00000000
00010000
00000000
00000000
01000000
00001000
00000000
00100000
,
00000000
00010000
00000000
02000000
00000000
00000000
00000000
03010000
00000000
10000000
00000000
00000000
01000000
00010000
00000000
00001000
,
00000000
00000010
00000000
00000001
00000000
00000000
00001000
00000100
00000000
00000010
00000000
00000100
00000000
00002000
00000000
00000000
,
00000000
00003001
00000000
00000100
00000000
00000000
00000010
00001000
00000000
00000001
00000000
00000100
00000000
00001000
00000000
00000000
,
00010000
00001000
00000000
00000100
00000000
00000010
00000000
00001000
00000000
00010000
00000000
01000000
00000000
00100000
00000000
10000000
,
00000000
01000000
00000000
00010000
00000000
01000000
00000000
10000000
00000000
00100000
00000000
01000000
00000000
00010000
00000000
01000000
,
00000000
00100000
00000000
01000000
00000000
00010000
00000000
00100000
00000000
01000000
00000000
10000000
00000000
00000000
00000000
01010000
,
00000000
00000000
00000000
00100000
00000000
10000000
00000000
01000000
00000000
00010000
00000000
00001000
00000000
00010000
00000000
00000010
,
00000000
00001000
00000000
00000100
00000000
00000010
00000000
00000100
00000000
00001000
00000000
00000010
00000000
00000100
00000000
00000001
,
00000000
00001000
00000000
00000010
00000000
00010000
00000000
00000100
00000000
00001000
00000000
00000010
00000000
00000100
00000000
00000001
,
00000000
00000000
00000000
00000010
00000000
00001000
00000000
00000100
00000000
00010000
00000000
00001000
00000000
00010000
00000000
00000010
,
00000000
00010000
00000000
00001000
00000000
00010000
00000000
00100000
00000000
10000000
00000000
01000000
00000000
10000000
00000000
00010000
,
00000000
00100000
00000000
10000000
00000000
00100000
00000000
00001000
00000000
01000000
00000000
00010000
00000000
00100000
00000000
00001000
,
00000000
00010000
00000000
00000010
00000000
00000100
00000000
00000001
00000000
00000010
00000000
00001000
00000000
00000010
00000000
00000100
,
00000000
00001000
00000000
00000001
00000000
00000100
00000000
00001000
00000000
00010000
00000000
00001000
00000000
00000010
00000000
00000001
,
00000000
00000000
00001000
00000000
00000000
00000000
00000010
00000000
00000000
00000000
00000100
00000000
00000000
00000000
00001000
00000000
00000000
00000000
00010000
00000000
00000000
00000000
00100000
00000000
00000000
00000000
10000000
00000000
00000000
00000000
10010000
01100000
,
00000000
00000000
00000000
00100000
00000000
00000000
00000000
00010000
00000000
00000000
00000000
10000000
00000000
00000000
00000000
00010000
00000000
00000000
00000000
00100000
00000000
00000000
00000000
01000000
00000000
00000000
00000000
10000000
00000000
00000000
00000000
01000000
,
00000000
00110000
00000000
01000000
00000000
10100000
00000000
00000000
00000000
00000000
00000000
00000000
00000000
01000000
00000000
00000000
00000000
00000000
00000000
00000000
00000000
00010000
00000000
00000000
00000000
00000000
00000000
00000000
00000000
00100000
00000000
00000000
00000000
00000000
00000000
00000000
00000000
01000000
00000000
00000000
00000000
00000000
00000000
00000000
00000000
10000000
00000000
00000000
00000000
00000000
00000000
00000000
00000000
00100000
00000000
00000000
00000000
00000000
00000000
00000000
00000000
01000000
00000000
00000000
,
00000000
00000000
00000000
00000000
00000000
00100000
00000000
00000000
00000000
00000000
00000000
00000000
00000000
10000000
00000000
00000000
00000000
00000000
00000000
00000000
00000000
01000000
00000000
00000000
00000000
00000000
00000000
00000000
00000000
00010000
00000000
00000000
00000000
00000000
00000000
00000000
00000000
00001000
00000000
00000000
00000000
00000000
00000000
00000000
00000000
00000100
00000000
00000000
00000000
00000000
00000000
00000000
00000000
00000010
00000000
00000000
00000000
00000000
00000000
00000000
00000000
00001000
00000000
00000101
,
00000000
00000010
00000000
00001100
00000000
00000000
00000000
00000000
00000000
00000000
00000000
00000001
00000000
00000000
00000000
00000000
00000000
00000000
00000000
00001000
00000000
00000000
00000000
00000000
00000000
00000000
00000000
00000100
00000000
00000000
00000000
00000000
00000000
00000000
00000000
00000001
00000000
00000000
00000000
00000000
00000000
00000000
00000000
00000100
00000000
00000000
00000000
00000000
00000000
00000000
00000000
00001000
00000000
00000000
00000000
00000000
00000000
00000000
00000000
00000010
00000000
00000000
00000000
00000000
,
00000000
00000000
00000000
00000100
00000000
00000000
00000000
00000000
00000000
00000000
00000000
00000010
00000000
00000000
00000000
00000000
00000000
00000000
00000000
00000101
00000000
00000010
00000000
00001100
00000000
00000000
00000000
00000000
00000000
00000000
00000000
00000001
00000000
00000000
00000000
00000000
00000000
00000000
00000000
00000000
00000000
00000000
00000000
00000100
00000000
00000000
00000000
00000000
00000000
00000000
00000000
00001000
00000000
00000000
00000000
00010000
00000000
00000000
00000000
00000000
00000000
00000000
00000000
01000000
,
00000000
00000000
00000000
00000000
00000000
00000000
00000000
00000000
00000000
00000000
00000000
00000000
00000000
00000000
00000000
10000000
00000000
00000000
00000000
00010000
00000000
00000000
00000000
20000000
00000000
00000000
00000000
00000000
00000000
00000000
00000000
00000000
00000000
00000000
00000000
00000000
00000000
00000000
00000000
00000000
00000000
00000000
00000000
00000000
00000000
00000000
00000000
30100000
00000000
00000000
00000000
00000000
00000000
00000000
00000000
00010000
00000000
00000000
00000000
00000000
00000000
00000000
00000000
00100000
,
00000000
00000000
00000000
00000000
00000000
00000000
00000000
00000000
00000000
00000000
00000000
01000000
00000000
00000000
00000000
10000000
00000000
00000000
00000000
00000000
00000000
00000000
00000000
00100000
00000000
00000000
00000000
00000000
00000000
00000000
00000000
10000000
00000000
00000000
00000000
00000000
00000000
00000000
00000000
01000000
00000000
00000000
00000000
00000000
00000000
00000000
00000000
00010000
00000000
00000000
00000000
00000000
00000000
00000000
00000000
00000000
00000000
00000000
00000000
00001000
00000000
00000000
00000000
00010000
,
00000000
00000000
00000000
00000000
00000000
00000000
00000000
00100000
00000000
00000000
00000000
00000000
00000000
00000000
00000000
01000000
00000000
00000000
00000000
00000000
00000000
00000000
00000000
00010000
00000000
00000000
00000000
00000000
00000000
00000000
00000000
00100000
00000000
00000000
00000000
00000000
00000000
00000000
00000000
00000000
00000000
00000000
00000000
01000000
00000000
00000000
00000000
10000000
00000000
00000000
00000000
00000000
00000000
00000000
00000000
00010000
00000000
00000000
00000000
00000000
00000000
00000000
00000000
01000000
,
00000000
00000000
00000000
00000000
00000000
00000000
00000000
00100000
00000000
00000000
00000000
00000000
00000000
00000000
00000000
01000000
00000000
00000000
00000000
00000000
00000000
00000000
00000000
00000000
00000000
00000000
00000000
00100000
00000000
00000000
00000000
10000000
00000000
00000000
00000000
00000000
00000000
00000000
00000000
01000000
00000000
00000000
00000000
00000000
00000000
00000000
00000000
00010000
00000000
00000000
00000000
00000000
00000000
00000000
00000000
00000000
00000000
00000000
00000000
00000000
00000000
00000000
00000000
00001000
,
00000000
00000000
00000000
00000000
00000000
00000000
00000000
00000100
00000000
00000000
00000000
00000000
00000000
00000000
00000000
00000010
00000000
00000000
00000000
00000000
00000000
00000000
00000000
00000100
00000000
00000000
00000000
00000000
00000000
00000000
00000000
00000001
00000000
00000000
00000000
00000000
00000000
00000000
00000000
00000100
00000000
00000000
00000000
00000000
00000000
00000000
00000000
00000010
00000000
00000000
00000000
00000000
00000000
00000000
00000000
00000100
00000000
00000000
00000000
00000000
00000000
00000000
00000000
00001000
,
00000000
00000000
00000000
00000000
00000000
00000000
00000000
00010000
00000000
00000000
00000000
00000000
00000000
00000000
00000000
01000000
00000000
00000000
00000000
00000000
00000000
00000000
00000000
00100000
00000000
00000000
00000000
00000000
00000000
00000000
00000000
01000000
00000000
00000000
00000000
00000000
00000000
00000000
00000000
10000000
00000000
00000000
00000000
00000000
00000000
00000000
00000000
01000000
00000000
00000000
00000000
00000000
00000000
00000000
00000000
00100000
00000000
00000000
00000000
00000000
00000000
00000000
00000000
01000000
,
00000000
00000000
00000000
00000000
00000000
00000000
00000000
10000000
00000000
00000000
00000000
00000000
00000000
00000000
00000000
00100000
00000000
00000000
00000000
00000000
00000000
00000000
00000000
00010000
00000000
00000000
00000000
00000000
00000000
00000000
00000000
00001000
00000000
00000000
00000000
00000000
00000000
00000000
00000000
00000010
00000000
00000000
00000000
00000000
00000000
00000000
00000000
00000001
00000000
00000000
00000000
00000000
00000000
00000000
00000000
00000010
00000000
00000000
00000000
00000000
00000000
00000000
00000000
00001000
,
00000000
00000000
00000000
00000000
00000000
00000000
00000000
00000010
00000000
00000000
00000000
00000100
00000000
00000000
00000000
00000010
00000000
00000000
00000000
00000000
00000000
00000000
00000000
00000001
00000000
00000000
00000000
00000100
00000000
00000000
00000000
00000001
00000000
00000000
00000000
00000000
00000000
00000000
00000000
00001000
00000000
00000000
00000000
00000100
00000000
00000000
00000000
00001000
00000000
00000000
00000000
00000000
00000000
00000000
00000000
00000010
00000000
00000000
00000000
00010000
00000000
00000000
00000000
00001000
,
00000000
00000000
00000000
00000000
;

//---------------dance-double - ----------------
#NOTES:
     dance-double:
     :
     Challenge:
     15:
     0.561434,0.656146,0.226337,0.082305,1.640947,382.000000,360.000000,22.000000,8.000000,0.000000,0.000000,0.561434,0.656146,0.226337,0.082305,1.640947,382.000000,360.000000,22.000000,8.000000,0.000000,0.000000:
00000000
00000000
00000000
00000000
,
00000000
00000000
00000000
00000000
,
00000000
00000000
00000000
00000000
,
00000000
00000000
00000000
00000001
00000000
00000010
00000000
00000100
00000000
00000000
00001000
00000001
00000000
00001000
00000000
00000100
,
00000010
00000000
00000010
00000100
00000000
00001000
00000000
00000000
00000000
00000010
00000000
00001000
00000001
00000100
00000000
00000000
,
00000000
00001001
00000000
00000000
00000000
00000010
00000000
00000001
00000000
00000100
00000000
00001000
00000000
00010000
00000000
01000000
,
00100000
01000000
00100000
00010000
10000000
00000000
01100000
00000000
00000000
10000000
00100000
10000000
00100000
00000000
01010000
00000000
,
00000000
11000000
00000000
00100000
00000000
00010000
00000000
01000000
00100000
00000000
00100000
10000000
00000000
01000000
00000000
00010000
,
00001000
00010000
00001000
00010000
00000000
00000010
00000000
00001000
00000000
00000001
00000000
00000010
00000000
00000100
00000000
00000000
,
00001100
00000000
00000000
00000101
00000000
00000010
00000000
00000000
00001001
00000000
00000000
00000010
00000100
00000010
00000000
00000000
,
00000101
00000000
00000000
00000010
00010000
00000010
00000000
00001000
00000000
00000100
00000000
00000010
00000001
00000010
00000000
00001000
,
00000000
00010000
00001000
00010000
00001000
00010000
00000000
01000000
00000000
10000000
00000000
00100000
00000000
01000000
00000000
00000000
,
10000000
00000000
00000000
01000000
00010000
01000000
00000000
00000000
00000000
20020000
00000000
00000000
00000000
00000000
00000000
00000000
,
00000000
00030000
00000000
00000000
00000000
31000000
00000000
00100000
00000000
00010000
10000000
01000000
00000000
00010000
00000000
00001000
,
00000000
00010000
00000000
00000010
00000000
00000100
00000010
00001000
00000000
00000200
00000000
00000000
00000000
00000310
00000000
00000100
,
00000000
00001000
00000000
00000010
00000100
00000010
00000000
00000100
00000000
00000001
00000000
00000100
00000000
00000010
00000000
00010000
,
00001000
00010000
00000000
00000200
00000000
00000000
00000000
00001300
00000000
00000001
00000000
00000100
00000010
00000100
00000000
00001000
,
00000000
00010000
00000000
00100000
00000000
10000000
00000000
00010000
00000000
00100000
01000000
00100000
00000000
00020000
00000000
00000000
,
00000000
10030000
00000000
01000000
00000000
00100000
00010000
00100000
00000000
01000000
00000000
10000000
00000000
00100000
00000000
00010000
,
00000000
00001000
00000000
00010000
01000000
00010000
00000000
00001000
00000000
00000010
00000001
00000010
00000000
00000100
00000000
00010000
,
00000000
00000010
00000000
00001000
00000000
00000100
00000000
00010000
00000000
00000010
00000000
00001000
00000001
00000000
00000001
00000100
,
00000000
00000010
00000000
00000100
00000000
00000001
00000000
00000010
00000000
00000100
00000000
00000010
00000001
00000010
00000001
00000020
,
00000000
00000000
00000000
00000031
00001000
00000001
00001000
00000001
00000000
00000100
00000000
00001000
00000000
00010000
00000000
00100000
,
00000000
10000000
00000000
01000000
00000000
00100000
00000000
01000000
00000000
10000000
00000000
00100000
00000000
01000000
00100000
01000000
,
00000000
00010000
00000000
00100000
00000000
00001000
00000000
01000000
00000000
00010000
00000000
00100000
00000000
01000000
00000000
10000000
,
00000000
01000000
00000000
00100000
00000000
00001000
00000000
01000000
00000000
00010000
00000000
00100000
00000000
00001000
00000000
00010000
,
00000000
00100000
00000000
00010000
00000000
00001000
00000000
00000010
00000000
00000001
00000000
00000100
00000000
00001000
00000000
00000001
,
00000000
00000010
00000000
00001000
00000000
00000100
00000000
00010000
00000000
00000100
00000000
00001000
00000000
00000010
00000000
00010000
,
00000000
00001000
00000000
00100000
00000000
01000000
00000000
10000000
00000000
00100000
00000000
00010000
00000000
00001000
00000000
00000100
,
00000000
00001000
00000000
00010000
00000000
01000000
00000000
00100000
00000000
00001000
00000000
00010000
00000000
00100000
00000000
10000000
,
00000000
00000000
00010000
00000000
00000000
00000000
00100000
00000000
00000000
00000000
01000000
00000000
00000000
00000000
00010000
00000000
00000000
00000000
00001000
00000000
00000000
00000000
00000010
00000000
00000000
00000000
00000001
00000000
00000000
00000000
00001001
00000110
,
00000000
00000000
00000000
00000010
00000000
00000000
00000000
00001000
00000000
00000000
00000000
00000001
00000000
00000000
00000000
00001000
00000000
00000000
00000000
00000010
00000000
00000000
00000000
00000100
00000000
00000000
00000000
00000010
00000000
00000000
00000000
00000101
,
00000000
00001010
00000000
00001100
00000000
00000011
00000000
00000000
00000000
00000000
00000000
00000000
00000000
00000100
00000000
00000000
00000000
00000000
00000000
00000000
00000000
00001000
00000000
00000000
00000000
00000000
00000000
00000000
00000000
00000010
00000000
00000000
00000000
00000000
00000000
00000000
00000000
00000100
00000000
00000000
00000000
00000000
00000000
00000000
00000000
00000001
00000000
00000000
00000000
00000000
00000000
00000000
00000000
00000010
00000000
00000000
00000000
00000000
00000000
00000000
00000000
00000100
00000000
00000000
,
00000000
00000000
00000000
00000000
00000000
00000010
00000000
00000000
00000000
00000000
00000000
00000000
00000000
00000001
00000000
00000000
00000000
00000000
00000000
00000000
00000000
00000100
00000000
00000000
00000000
00000000
00000000
00000000
00000000
00001000
00000000
00000000
00000000
00000000
00000000
00000000
00000000
00010000
00000000
00000000
00000000
00000000
00000000
00000000
00000000
01000000
00000000
00000000
00000000
00000000
00000000
00000000
00000000
00100000
00000000
00000000
00000000
00000000
00000000
00000000
00000000
10010000
00000000
11000000
,
00000000
01100000
00000000
01010000
00000000
00000000
00000000
00000000
00000000
00000000
00000000
10000000
00000000
00000000
00000000
00000000
00000000
00000000
00000000
00010000
00000000
00000000
00000000
00000000
00000000
00000000
00000000
01000000
00000000
00000000
00000000
00000000
00000000
00000000
00000000
10000000
00000000
00000000
00000000
00000000
00000000
00000000
00000000
01000000
00000000
00000000
00000000
00000000
00000000
00000000
00000000
00010000
00000000
00000000
00000000
00000000
00000000
00000000
00000000
00100000
00000000
00000000
00000000
00000000
,
00000000
00000000
00000000
01000000
00000000
00000000
00000000
00000000
00000000
00000000
00000000
00100000
00000000
00000000
00000000
00000000
00000000
00000000
00000000
11000000
00000000
10010000
00000000
10100000
00000000
00000000
00000000
00000000
00000000
00000000
00000000
10000000
00000000
00000000
00000000
00000000
00000000
00000000
00000000
00000000
00000000
00000000
00000000
01000000
00000000
00000000
00000000
00000000
00000000
00000000
00000000
00010000
00000000
00000000
00000000
00001000
00000000
00000000
00000000
00010000
00000000
00000000
00000000
00000100
,
00000000
00000000
00000000
00000000
00000000
00000000
00000000
00000000
00000000
00000000
00000000
00000000
00000000
00000000
00000000
00001000
00000000
00000000
00000000
00000001
00000000
00000000
00000000
00002000
00000000
00000000
00000000
00000000
00000000
00000000
00000000
00000000
00000000
00000000
00000000
00000000
00000000
00000000
00000000
00000000
00000000
00000000
00000000
00000000
00000000
00000000
00000000
00003010
00000000
00000000
00000000
00000000
00000000
00000000
00000000
00001000
00000000
00000000
00000000
00000000
00000000
00000000
00000000
00000010
,
00000000
00000000
00000000
00000100
00000000
00000000
00000000
00000000
00000000
00000000
00000000
00000100
00000000
00000000
00000000
00000001
00000000
00000000
00000000
00000000
00000000
00000000
00000000
00000010
00000000
00000000
00000000
00000000
00000000
00000000
00000000
00000001
00000000
00000000
00000000
00000000
00000000
00000000
00000000
00000100
00000000
00000000
00000000
00000000
00000000
00000000
00000000
00001000
00000000
00000000
00000000
00010000
00000000
00000000
00000000
00000000
00000000
00000000
00000000
00010000
00000000
00000000
00000000
00001000
,
00000000
00000000
00000000
00000000
00000000
00000000
00000000
00000010
00000000
00000000
00000000
00000000
00000000
00000000
00000000
00000100
00000000
00000000
00000000
00000000
00000000
00000000
00000000
00001000
00000000
00000000
00000000
00000000
00000000
00000000
00000000
00000010
00000000
00000000
00000000
00000100
00000000
00000000
00000000
00000000
00000000
00000000
00000000
00000100
00000000
00000000
00000000
00000001
00000000
00000000
00000000
00000000
00000000
00000000
00000000
00001000
00000000
00000000
00000000
00000000
00000000
00000000
00000000
00000100
,
00000000
00000000
00000000
00000000
00000000
00000000
00000000
00000001
00000000
00000000
00000000
00000000
00000000
00000000
00000000
00000100
00000000
00000000
00000000
00000010
00000000
00000000
00000000
00000000
00000000
00000000
00000000
00000010
00000000
00000000
00000000
00000001
00000000
00000000
00000000
00000000
00000000
00000000
00000000
00000100
00000000
00000000
00000000
00000000
00000000
00000000
00000000
00002000
00000000
00000000
00000000
00000000
00000000
00000000
00000000
00000000
00000000
00000000
00000000
00000000
00000000
00000000
00000000
00013000
,
00000000
00000000
00000000
00000000
00000000
00000000
00000000
01000000
00000000
00000000
00000000
00000000
00000000
00000000
00000000
00100000
00000000
00000000
00000000
00000000
00000000
00000000
00000000
01000000
00000000
00000000
00000000
00000000
00000000
00000000
00000000
10000000
00000000
00000000
00000000
00000000
00000000
00000000
00000000
01000000
00000000
00000000
00000000
00000000
00000000
00000000
00000000
00100000
00000000
00000000
00000000
00000000
00000000
00000000
00000000
01000000
00000000
00000000
00000000
00000000
00000000
00000000
00000000
00010000
,
00000000
00000000
00000000
00000000
00000000
00000000
00000000
00001000
00000000
00000000
00000000
00000000
00000000
00000000
00000000
00000100
00000000
00000000
00000000
00000000
00000000
00000000
00000000
00000010
00000000
00000000
00000000
00000000
00000000
00000000
00000000
00000100
00000000
00000000
00000000
00000000
00000000
00000000
00000000
00000001
00000000
00000000
00000000
00000000
00000000
00000000
00000000
00000100
00000000
00000000
00000000
00000000
00000000
00000000
00000000
00000010
00000000
00000000
00000000
00000000
00000000
00000000
00000000
00000100
,
00000000
00000000
00000000
00000000
00000000
00000000
00000000
00000001
00000000
00000000
00000000
00000010
00000000
00000000
00000000
00000001
00000000
00000000
00000000
00000000
00000000
00000000
00000000
00001000
00000000
00000000
00000000
00000001
00000000
00000000
00000000
00001000
00000000
00000000
00000000
00000000
00000000
00000000
00000000
00000010
00000000
00000000
00000000
00010000
00000000
00000000
00000000
00000010
00000000
00000000
00000000
00000000
00000000
00000000
00000000
00010000
00000000
00000000
00000000
00001000
00000000
00000000
00000000
00010000
,
00000000
00000000
00000000
01000000
00000000
00000000
00000000
00010000
00000000
00000000
00000000
01000000
00000000
00000000
00000000
00100000
00000000
00000000
00000000
01000000
00000000
00000000
00000000
00100000
00000000
00000000
00000000
01000000
00000000
00000000
00000000
10000000
00000000
00000000
00000000
00100000
00000000
00000000
00000000
10000000
00000000
00000000
00000000
00100000
00000000
00000000
00000000
00010000
00000000
00000000
00000000
00001000
00000000
00000000
00000000
00010000
00000000
00000000
00000000
00001000
00000000
00000000
00000000
00010000
,
00000000
00000000
00000000
00000000
;

//---------------dance-single - ----------------
#NOTES:
     dance-single:
     :
     Challenge:
     15:
     0.812757,0.829861,0.401235,0.030864,0.596708,553.000000,514.000000,39.000000,3.000000,0.000000,0.000000,0.812757,0.829861,0.401235,0.030864,0.596708,553.000000,514.000000,39.000000,3.000000,0.000000,0.000000:
// measure 0
0000
0000
0000
0000
0000
0000
1000
0100
,  // measure 1
1000
0000
0010
0000
0100
0001
0100
0000
0010
0000
1000
0000
0001
0000
0100
0000
,  // measure 2
1000
0000
0100
0000
0001
0000
1000
0000
0010
0000
1000
0000
0100
0010
0100
0000
,  // measure 3
0001
0000
0100
0000
0010
0000
1000
0000
0010
0000
0001
0000
0100
0010
1000
0000
,  // measure 4
0001
0010
0100
1000
0100
0010
0100
0100
,  // measure 5
0001
0000
0001
0100
1000
0000
1000
0000
0010
0000
0100
0000
0001
0010
0100
0000
,  // measure 6
1000
0000
0010
0000
0100
0001
1000
0000
0001
0000
0100
0000
1001
0000
0000
0000
,  // measure 7
0011
0000
0000
0110
0000
0000
1100
0000
,  // measure 8
0000
0000
1001
0000
0000
0000
0000
0000
0110
0000
0000
1001
0000
0000
0100
0001
,  // measure 9
0100
0000
0000
0110
0000
0000
0010
0000
1000
0000
0100
0000
0001
0000
0100
0000
,  // measure 10
1000
0000
0010
0000
1000
0001
1000
0000
0010
0000
0100
0000
0001
0000
0010
0000
,  // measure 11
0100
0000
1000
0000
0100
0010
0100
0000
0001
0000
0100
0000
1000
0000
0100
0000
,  // measure 12
0010
0000
0001
0000
1000
0001
1000
0000
0001
0000
0110
0000
0000
0000
0000
0000
,  // measure 13
1001
0000
0000
0101
0000
0000
0100
0010
1000
0000
0000
1001
0000
0000
0010
0001
,  // measure 14
0100
0000
0000
0110
0000
0000
0010
0000
1000
0000
0001
0000
1000
0000
0001
0000
,  // measure 15
0100
0010
0100
0000
0010
0100
0010
0000
1000
0000
0100
0000
1000
0000
0100
0000
,  // measure 16
0010
0001
0010
0000
0001
0010
0001
0000
0100
0000
0001
0000
1000
0000
0001
0000
,  // measure 17
1000
0000
0010
1000
0010
1000
0010
0000
0100
0000
1001
0000
0000
0000
0000
0000
,  // measure 18
0110
0000
0000
0110
0000
0000
2002
0000
0000
0000
0000
0000
0000
0000
0000
0000
,  // measure 19
0000
0000
0000
0000
0000
0000
0000
0000
3003
0000
0000
0000
0001
0100
0010
0000
,  // measure 20
1000
0000
0001
1000
0010
0000
1000
0000
0001
0000
0000
0000
1000
0010
0100
0000
,  // measure 21
0010
0000
0100
0010
1000
0000
0001
0000
0100
0001
0100
0000
0001
0010
0001
0000
,  // measure 22
0100
0000
0010
0000
1000
0001
1000
0000
0100
0000
0000
0000
0010
0000
0001
0000
,  // measure 23
1000
0000
0001
0100
0001
0000
1000
0000
0010
0100
0010
0000
0100
0000
0001
1000
,  // measure 24
0001
0000
0100
0010
0100
0000
0001
0000
1000
0000
0000
0000
0001
0100
0001
0100
,  // measure 25
0010
0000
1000
0000
0001
1000
0010
1000
0010
0000
0000
0000
0001
0100
0001
0100
,  // measure 26
0001
0000
1000
0001
1000
0000
0010
1000
0001
0000
0000
0000
0100
0000
0001
0000
,  // measure 27
0010
0000
0100
0001
0100
0000
0010
0000
0001
1000
0001
1000
0010
0000
0010
0000
,  // measure 28
0100
0000
0001
1000
0001
0000
1000
0000
0010
0000
0010
0100
0001
0000
1000
0000
,  // measure 29
1000
0000
0001
0100
1000
0000
0100
0000
0100
0000
0010
1000
0100
0000
0001
0000
,  // measure 30
0100
0000
1000
0000
0100
0000
0010
0000
0001
0000
1000
0001
0010
0000
0100
0000
,  // measure 31
0100
0010
0010
0001
0001
0100
0100
1000
,  // measure 32
1000
0100
0001
0000
0001
0000
0100
0000
0100
0010
1000
0000
1000
0000
0001
0010
,  // measure 33
0100
0000
1000
0000
0100
0010
0001
0000
1000
0000
0010
0100
0010
0000
0100
0000
,  // measure 34
1001
0000
0100
0010
1001
0000
0010
0100
,  // measure 35
1001
0000
0100
0000
0010
0000
0001
0000
0010
0000
0100
0000
1000
0100
1000
0000
,  // measure 36
0001
0010
0001
0000
1000
0010
1000
0000
0001
0100
0001
0000
0100
0010
0100
0000
,  // measure 37
0001
1000
0001
0000
0000
0000
0010
0000
1000
0001
1000
0000
0010
1000
0010
0000
,  // measure 38
0100
0001
0100
0000
0001
1000
0001
0000
0000
0000
1000
0010
0100
0000
0100
0010
,  // measure 39
1000
0000
0010
0100
0001
0000
0001
0100
0010
0000
1000
0100
0010
0000
0010
0100
,  // measure 40
1000
0000
0001
0010
0100
0000
0100
0010
0001
0000
0000
0000
1000
0000
0001
1000
,  // measure 41
0010
0000
1000
0010
0100
0000
0001
0100
1000
0000
1000
0100
0001
0000
1000
0010
,  // measure 42
0100
0000
0101
0000
1001
0000
1010
0000
0001
0000
0010
1000
0010
0000
0001
0100
,  // measure 43
1000
0000
1000
0100
0001
0000
1000
0000
1001
0000
0000
0000
0110
0000
0000
0000
,  // measure 44
1001
0000
0000
0000
0110
0000
0000
0000
0001
0000
0100
1000
0100
0000
0001
1000
,  // measure 45
0010
0000
0100
0010
1000
0000
0010
1000
0100
0000
0000
0000
1000
0100
0001
0000
,  // measure 46
0001
0100
1000
0000
0001
1000
0010
0000
0100
0000
0110
0000
0000
0000
1010
0000
,  // measure 47
0000
0000
0101
0000
0000
0000
1001
0000
0000
0000
1000
0000
0010
0100
0010
0000
,  // measure 48
1000
0100
0010
0000
0001
1000
0001
0000
1000
0000
1010
0000
0000
0000
1001
0000
,  // measure 49
0000
0000
0101
0000
0000
0000
1010
0000
0000
0000
1000
0000
1001
0000
0000
0011
,  // measure 50
0000
0001
0100
0000
0010
0000
0000
0000
0100
0000
1001
0000
0000
0000
0000
0000
,  // measure 51
0110
0000
0000
0000
0001
0000
1000
0000
0010
0000
1000
0100
0000
1000
0010
0000
,  // measure 52
1000
0000
0100
0000
0000
0000
0010
0000
0001
0000
0100
0010
0000
0010
0100
0000
,  // measure 53
0001
0000
0010
0000
0000
0000
0001
0000
1000
0000
0010
0100
0000
0010
0001
0000
,  // measure 54
0010
0000
1000
0000
0000
0000
0001
0000
0100
0000
1000
0100
0000
0010
1000
0000
,  // measure 55
0010
0000
0100
0000
0010
0000
0001
0000
0010
0000
1000
0000
0010
0100
0001
0000
,  // measure 56
0001
0100
0010
0000
1000
0000
0010
0000
0100
0000
0010
0000
1000
0001
0010
0000
,  // measure 57
0010
0001
0100
0000
0010
0000
1000
0000
0001
0010
0001
0000
0010
0001
0010
0000
,  // measure 58
0001
1000
0001
0000
0100
0000
0010
1000
0010
0100
0001
0010
0001
1000
0010
1000
,  // measure 59
0001
0100
0001
0100
0002
0000
0000
0000
0000
0000
0000
0000
0003
0000
0000
0000
;
