#TITLE:Bubble Pop;
#SUBTITLE:;
#ARTIST:HYUNA;
#TITLETRANSLIT:;
#SUBTITLETRANSLIT:;
#ARTISTTRANSLIT:;
#GENRE:;
#CREDIT:InternalScreams;
#BANNER:Bubble Pop.PNG;
#BACKGROUND:Bubble Pop-bg.PNG;
#LYRICSPATH:;
#CDTITLE:;
#MUSIC:Bubble Pop.ogg;
#OFFSET:1.352000;
#SAMPLESTART:62.992001;
#SAMPLELENGTH:14.820000;
#LASTBEATHINT:0.719836;
#SELECTABLE:YES;
#BPMS:0.000000=146.000000
,181.000000=73.000000
,184.500000=146.000000
;
#STOPS:
;
#BGCHANGES:;
#KEYSOUNDS:;
#ATTACKS:;

//---------------dance-single - ----------------
#NOTES:
     dance-single:
     :
     Beginner:
     2:
     0.139723,0.149460,0.000000,0.000000,0.000000,100.000000,100.000000,0.000000,0.000000,0.000000,0.000000,0.139723,0.149460,0.000000,0.000000,0.000000,100.000000,100.000000,0.000000,0.000000,0.000000,0.000000:
// measure 0
0000
0000
0000
0000
,  // measure 1
0000
0000
0000
0000
,  // measure 2
0000
0000
0000
0000
,  // measure 3
0000
0000
1000
0000
,  // measure 4
0001
0000
1000
0000
,  // measure 5
0100
0000
1000
0000
,  // measure 6
0001
0000
1000
0000
,  // measure 7
0100
0000
1000
0000
,  // measure 8
0001
0000
1000
0000
,  // measure 9
0001
0000
1000
0000
,  // measure 10
0100
0000
1000
0000
,  // measure 11
0100
0000
0001
0000
,  // measure 12
0100
0000
0001
0000
,  // measure 13
0100
0000
1000
0000
,  // measure 14
0100
0000
1000
0000
,  // measure 15
0100
0000
0001
0000
,  // measure 16
0100
0000
0001
0000
,  // measure 17
0100
0000
1000
0000
,  // measure 18
1000
0000
0001
0000
,  // measure 19
0001
0000
1000
0000
,  // measure 20
1000
0000
0100
0000
,  // measure 21
0100
0000
0001
0000
,  // measure 22
0001
0000
1000
0000
,  // measure 23
1000
0000
0100
0000
,  // measure 24
0100
0000
0010
0000
,  // measure 25
0010
0000
0100
0000
,  // measure 26
0000
1000
0000
0000
,  // measure 27
0001
0000
1000
0000
,  // measure 28
0001
0000
1000
0000
,  // measure 29
0000
0100
0000
1000
,  // measure 30
0000
0100
0000
0001
,  // measure 31
0000
1000
0000
0001
,  // measure 32
0000
1000
0000
0001
,  // measure 33
0000
1000
0000
0100
,  // measure 34
0000
1000
0000
0100
,  // measure 35
0000
0001
0000
1000
,  // measure 36
0000
0001
0000
0100
,  // measure 37
0000
0000
0100
0000
,  // measure 38
1000
0000
0100
0000
,  // measure 39
1000
0000
0100
0000
,  // measure 40
1000
0000
0000
0000
,  // measure 41
0100
0000
1000
0000
,  // measure 42
0100
0000
0000
1000
,  // measure 43
0000
0001
0000
1000
,  // measure 44
0000
0001
0000
1000
,  // measure 45
0000
1000
0000
0001
,  // measure 46
0000
0000
0000
1000
,  // measure 47
0000
0000
0001
0000
,  // measure 48
0000
1000
0000
0000
,  // measure 49
0100
0000
0000
0000
,  // measure 50
1000
0000
0100
0000
,  // measure 51
1000
0000
0100
0000
,  // measure 52
0000
1000
0000
0000
,  // measure 53
0001
0000
0000
0000
,  // measure 54
1000
0000
0000
0000
,  // measure 55
0100
0000
0000
0000
,  // measure 56
0010
0000
0000
0000
,  // measure 57
0100
0000
0000
0000
,  // measure 58
0000
0001
0000
0000
,  // measure 59
0000
1000
0000
0000
,  // measure 60
0000
0100
0000
0000
,  // measure 61
0000
1000
0000
0000
0000
0000
0000
0000
;

//---------------dance-single - ----------------
#NOTES:
     dance-single:
     :
     Easy:
     3:
     0.166271,0.239136,0.019561,0.029342,0.000000,119.000000,117.000000,2.000000,3.000000,0.000000,0.000000,0.166271,0.239136,0.019561,0.029342,0.000000,119.000000,117.000000,2.000000,3.000000,0.000000,0.000000:
// measure 0
0000
0000
0000
0000
,  // measure 1
0000
0000
0000
0000
,  // measure 2
0000
0000
0000
0000
,  // measure 3
1000
0000
0001
0000
,  // measure 4
1000
0000
0001
0000
,  // measure 5
1000
0000
0100
1000
,  // measure 6
0200
0300
0001
2000
,  // measure 7
0000
3000
0010
0001
,  // measure 8
0010
0000
0100
0000
,  // measure 9
1000
0000
0001
1000
,  // measure 10
0001
0000
2000
0000
,  // measure 11
3000
0000
0001
1000
,  // measure 12
0000
0100
1000
0100
,  // measure 13
0000
0001
0000
1000
,  // measure 14
0000
0001
0000
1000
,  // measure 15
0100
1000
0000
0001
,  // measure 16
0000
1000
0000
0001
,  // measure 17
0000
1000
0000
0001
,  // measure 18
0001
0000
0000
1000
,  // measure 19
0000
0001
0000
1000
,  // measure 20
1000
0000
0000
0001
,  // measure 21
0000
1000
0000
0100
,  // measure 22
0000
1000
0000
0001
,  // measure 23
0000
1000
0000
0100
,  // measure 24
0000
1000
0000
0010
,  // measure 25
0000
1000
0000
0001
,  // measure 26
0001
0000
0000
1000
,  // measure 27
0000
0100
0000
1000
,  // measure 28
0000
0001
0000
0000
,  // measure 29
0000
1000
0001
1000
,  // measure 30
0000
0100
1000
0100
,  // measure 31
0000
1000
0000
0001
,  // measure 32
0000
1000
0100
1000
,  // measure 33
0000
0100
0000
0010
,  // measure 34
0000
0100
0000
1000
,  // measure 35
0000
0001
0001
0001
,  // measure 36
1000
0000
0000
0001
,  // measure 37
1001
0000
1000
0001
,  // measure 38
1000
0000
0100
0000
,  // measure 39
0000
1000
0000
0000
,  // measure 40
0001
0000
0000
0000
,  // measure 41
1000
0000
0000
0000
,  // measure 42
0000
0000
0000
0000
,  // measure 43
1000
1000
1000
1001
,  // measure 44
0000
0001
0001
0001
,  // measure 45
0000
1000
0001
1000
,  // measure 46
0100
0000
0000
1000
,  // measure 47
0000
0000
0001
0000
,  // measure 48
1000
0001
1000
0000
,  // measure 49
0100
0000
0010
0000
,  // measure 50
0100
0000
1000
0000
,  // measure 51
0000
0001
0000
0000
,  // measure 52
1000
0000
0000
0000
,  // measure 53
0001
0000
0000
0000
,  // measure 54
1000
0000
0001
0000
,  // measure 55
1000
0000
0000
0000
,  // measure 56
0100
0000
0000
0000
,  // measure 57
1000
0000
0000
0100
,  // measure 58
0000
0000
0001
0000
,  // measure 59
0000
0100
0000
0000
,  // measure 60
0010
0000
0000
0000
,  // measure 61
0000
1000
0000
0000
0000
0000
0000
0000
;

//---------------dance-single - ----------------
#NOTES:
     dance-single:
     :
     Medium:
     6:
     0.326952,0.508164,0.127148,0.019561,0.000000,234.000000,221.000000,13.000000,2.000000,0.000000,0.000000,0.326952,0.508164,0.127148,0.019561,0.000000,234.000000,221.000000,13.000000,2.000000,0.000000,0.000000:
// measure 0
0000
0000
0000
0000
,  // measure 1
0000
0000
0000
0000
,  // measure 2
0000
0000
0000
0000
,  // measure 3
1000
0001
1000
0001
,  // measure 4
1000
0100
1000
0100
,  // measure 5
0001
0000
0100
0000
0001
0000
0100
1000
,  // measure 6
0100
1000
0000
0100
0001
0000
0200
0000
,  // measure 7
0000
0300
1000
0001
,  // measure 8
1000
0000
0100
0000
1000
0100
1000
0000
,  // measure 9
0100
0000
0000
0000
0100
0000
1000
0100
,  // measure 10
0000
0001
0000
0100
1000
0000
0200
0000
,  // measure 11
0000
0300
1000
0100
,  // measure 12
1000
0100
1000
0100
,  // measure 13
0001
0000
0100
0000
0010
0100
0010
0000
,  // measure 14
1000
0100
1000
0000
0001
0000
1000
0000
,  // measure 15
0001
1000
0100
1000
,  // measure 16
0100
0010
0100
0010
,  // measure 17
0100
0000
1000
0000
0100
0000
0001
0100
,  // measure 18
0001
0100
0000
0000
1000
0000
0100
0000
,  // measure 19
1000
0000
0100
0000
0001
0000
0100
0001
,  // measure 20
0100
0001
0000
0000
0000
0000
0000
0000
,  // measure 21
1000
0100
1000
0100
,  // measure 22
0001
0100
0001
0100
,  // measure 23
1000
0100
0001
0100
,  // measure 24
0001
0100
0001
0100
,  // measure 25
1000
0000
0100
0000
1100
0000
0001
0100
,  // measure 26
0001
0100
0000
0000
0000
0000
1000
0000
,  // measure 27
0001
1000
0100
1000
,  // measure 28
0100
0001
0100
0000
,  // measure 29
1000
0100
1000
0100
,  // measure 30
0001
0100
0001
0100
,  // measure 31
0000
1000
0100
1000
,  // measure 32
0100
0000
0001
0000
0100
0001
0000
1000
,  // measure 33
0000
0100
0000
0000
1000
0000
0100
0001
,  // measure 34
0010
0000
1000
0000
0100
0010
0000
1000
,  // measure 35
0000
0001
1000
0001
,  // measure 36
1001
1000
0100
1100
,  // measure 37
0101
1000
0001
1000
,  // measure 38
0100
0000
1000
0000
0001
1000
0000
0000
,  // measure 39
0100
0000
1000
0000
0100
0000
1000
0100
,  // measure 40
0000
0001
1000
0001
,  // measure 41
0000
1000
0100
1000
,  // measure 42
0100
0001
0100
0001
,  // measure 43
0100
1100
1100
1100
,  // measure 44
0101
1100
1100
0101
,  // measure 45
0101
0000
1000
0001
1000
0000
0100
1000
,  // measure 46
0100
0001
0000
0000
,  // measure 47
1000
0001
1000
0000
,  // measure 48
0100
0010
0100
0000
0000
0000
1000
0000
,  // measure 49
0000
0001
1000
0001
,  // measure 50
0000
0000
1000
0000
0100
1000
0000
0000
,  // measure 51
0001
1000
0100
1000
,  // measure 52
0000
0001
1000
0001
,  // measure 53
0000
1000
0100
1000
,  // measure 54
0100
0010
0100
0000
,  // measure 55
1000
0001
1000
0000
,  // measure 56
0100
1000
0100
0000
,  // measure 57
0010
0100
0001
0000
,  // measure 58
1000
0100
0010
0000
,  // measure 59
1000
0100
1000
0000
,  // measure 60
0001
0000
1000
0100
1000
0000
0000
0000
,  // measure 61
0000
1001
0000
0000
0000
0000
0000
0000
;

//---------------dance-single - ----------------
#NOTES:
     dance-single:
     :
     Hard:
     10:
     0.518373,0.576079,0.508592,0.127148,0.019561,371.000000,319.000000,52.000000,13.000000,0.000000,0.000000,0.518373,0.576079,0.508592,0.127148,0.019561,371.000000,319.000000,52.000000,13.000000,0.000000,0.000000:
// measure 0
0000
0000
0000
0000
,  // measure 1
0000
0000
0000
0000
,  // measure 2
0000
0000
0000
0000
,  // measure 3
0101
0100
0110
0010
,  // measure 4
1010
1000
1001
0001
,  // measure 5
0101
0000
0100
0000
0010
0000
1000
0010
,  // measure 6
0001
0010
0000
1000
0001
0000
0201
0000
,  // measure 7
0000
0310
1001
0110
,  // measure 8
0001
0100
0000
0010
0100
0001
0100
0010
,  // measure 9
0100
0001
1000
0000
1010
0000
0100
0010
,  // measure 10
1000
0010
0000
0100
0001
0000
2002
0000
,  // measure 11
3003
0010
0100
0001
,  // measure 12
0100
0000
1010
0000
1000
0001
0000
0100
,  // measure 13
0001
1000
0001
0000
1000
0010
1000
0000
,  // measure 14
0001
1000
0001
0000
0100
0010
1000
0010
,  // measure 15
0100
0010
1000
0000
0001
0100
0010
0000
,  // measure 16
0100
0010
1000
0000
0100
0001
0100
1000
,  // measure 17
0001
1000
0010
0000
0101
0000
0010
1000
,  // measure 18
0001
1000
0000
0000
1010
0000
0100
0001
,  // measure 19
0010
0001
0100
0000
1001
0000
0010
0100
,  // measure 20
0001
0100
0010
0000
1000
0010
0000
1010
,  // measure 21
0000
0000
0001
0000
0100
1000
0100
0000
,  // measure 22
0001
0010
0001
0000
0010
1000
0010
0001
,  // measure 23
0100
0010
0100
0000
0001
0100
0001
0000
,  // measure 24
1000
0010
1000
0000
0001
0100
0010
0000
,  // measure 25
1001
0000
1010
0000
0100
0000
0010
1000
,  // measure 26
0010
0100
0000
0000
0001
0100
0010
0100
,  // measure 27
0001
0100
0010
0000
1000
0000
1000
0010
,  // measure 28
0100
0010
1000
0000
0001
0100
0000
0001
,  // measure 29
0100
0000
1010
0000
1000
0000
0001
0010
,  // measure 30
0001
0000
0100
0000
0010
0100
0000
0001
,  // measure 31
0010
0001
0100
0000
1010
0000
0100
0001
,  // measure 32
0100
0000
1001
0000
0001
0100
0000
0100
,  // measure 33
0010
0000
0101
0000
1001
0000
1000
0010
,  // measure 34
1000
0000
0010
0000
0100
0010
1000
0010
,  // measure 35
0100
0011
0011
1100
,  // measure 36
0011
1001
1001
0110
,  // measure 37
1001
0000
0001
0000
1000
0010
1000
0001
,  // measure 38
1000
0000
0101
0000
0010
0100
0010
0100
,  // measure 39
0010
0100
0010
0000
1000
0001
1000
0001
,  // measure 40
1000
0000
0010
0000
0100
0001
0000
0000
,  // measure 41
1001
0000
1010
0000
0010
0000
0100
0001
,  // measure 42
0100
0000
1010
0000
1000
0001
1000
0001
,  // measure 43
1000
0101
0101
1010
,  // measure 44
1001
0110
0110
1001
,  // measure 45
0110
0000
0000
0000
0100
0000
0010
0000
1000
0001
1000
0000
0001
0100
0001
0000
,  // measure 46
1000
0100
0020
0000
0000
0000
0000
0000
0031
0000
1000
0000
0000
0000
0101
0000
,  // measure 47
0000
1000
0010
0001
0010
2000
0000
0000
,  // measure 48
0000
3001
0100
0010
0100
0001
0000
1001
,  // measure 49
0000
1000
0010
0100
0000
0220
0000
0000
,  // measure 50
0330
2002
0000
3003
0010
2020
0000
3030
,  // measure 51
0000
0000
0010
0000
0010
0000
0100
0000
0001
0000
0010
0000
0000
0000
0000
1001
,  // measure 52
0000
0010
0100
0001
0010
0001
0000
1000
,  // measure 53
0010
1000
0001
0001
0000
0100
0110
0000
,  // measure 54
0000
1000
0001
0010
0001
0100
0000
0010
,  // measure 55
0000
1000
0100
0001
0100
1000
0000
1001
,  // measure 56
0000
0010
0100
0001
0100
0010
1000
1000
,  // measure 57
0000
0000
0001
0100
0000
1010
0000
0000
,  // measure 58
0000
0001
0100
0010
0100
0001
1000
0010
,  // measure 59
1000
0000
0010
0100
0001
0100
0010
0100
,  // measure 60
0000
0010
1000
0001
1000
0010
0100
0010
,  // measure 61
0000
2002
0000
0000
0000
0000
0000
0000
,  // measure 62
3003
0000
0000
0000
;
