#TITLE:Boss Rush Equinox;
#SUBTITLE:;
#ARTIST:Various Artists;
#TITLETRANSLIT:;
#SUBTITLETRANSLIT:;
#ARTISTTRANSLIT:;
#GENRE:;
#CREDIT:;
#BANNER:;
#BACKGROUND:Boss Rush Equinox-bg.png;
#LYRICSPATH:;
#CDTITLE:;
#MUSIC:Boss Rush Equinox.ogg;
#OFFSET:-10.919997;
#SAMPLESTART:49.319950;
#SAMPLELENGTH:15.000000;
#SELECTABLE:YES;
#DISPLAYBPM:158.000000:300.000000;
#BPMS:0.000000=158.020004
,72.000000=186.000000
,138.500000=300.000000
,266.500000=600.000000
,286.500000=300.000000
,288.500000=150.000000
,289.500000=75.000000
,290.000000=160.000000
,354.000000=80.000000
;
#STOPS:
;
#BGCHANGES:;
#KEYSOUNDS:;
#ATTACKS:;

//---------------dance-single - ----------------
#NOTES:
     dance-single:
     :
     Challenge:
     17:
     0.977175,1.238152,0.152193,0.025365,1.039984,809.000000,791.000000,18.000000,3.000000,1.000000,0.000000,0.977175,1.238152,0.152193,0.025365,1.039984,809.000000,791.000000,18.000000,3.000000,1.000000,0.000000:
0000
0000
0000
0000
,
0000
0000
0000
0000
,
1000
0010
0000
1000
0010
0000
0100
0000
0001
0010
0000
0001
0010
0000
0001
0000
,
1000
0001
0000
1000
0100
0000
0010
0000
0001
0100
0001
0100
0010
1000
0010
1000
,
0001
0010
0100
1000
0001
0000
0000
1000
0100
0010
0001
0000
1000
0001
1000
0000
,
0001
0100
0010
0100
0001
0100
0010
0000
0100
0001
1000
0001
0100
0001
1000
0001
,
0100
0000
0100
0010
1000
0000
1000
0001
0100
0000
0100
0010
1000
0000
0100
0010
,
0100
1000
0010
0100
0001
0010
0001
0010
0100
1000
0100
1000
0001
0100
0001
0100
,
0010
0000
0100
0001
0010
0001
0010
0000
0100
1000
0100
0010
0001
0010
0100
0000
,
1000
0001
1000
0000
1000
0001
1000
0000
0010
0100
0010
0000
0010
0100
0010
0000
,
1000
0100
0000
0010
0100
0000
0010
0000
0001
1000
0000
0010
1000
0000
0010
0000
,
0100
0010
0000
0100
0001
0000
1000
0000
0100
0010
0001
0010
0100
1000
0001
1000
,
0001
0010
0001
0100
0010
0000
0100
0000
0001
0010
0100
1000
0001
0000
1000
0001
,
1000
0100
0010
0001
1000
0100
0010
0001
1000
0100
0010
0001
0100
0010
1000
0010
,
0100
0000
0001
0010
0100
0000
1000
0100
0010
0000
0001
0010
0100
0000
1000
0100
,
0001
0000
0100
1000
0100
0010
0100
0000
1000
0010
1000
0000
0001
0010
0100
0010
,
0001
0000
1000
0001
0000
0000
0100
0000
0010
1000
0100
0000
1000
0100
1000
0001
,
0010
0100
1000
0000
0001
0100
1000
0000
0001
0010
1000
0000
0001
0100
1000
0000
,
0002
0000
0000
0000
0000
0000
0000
0000
0000
0000
1003
0000
0010
1000
0000
0100
,
0000
0010
0000
0100
1000
0001
1000
0000
0010
0000
0100
0000
0001
0100
0000
0010
,
0000
0100
0000
0001
0010
0100
0010
0001
1000
0000
0001
0000
0010
0001
0000
1000
,
0000
0100
0000
1000
0001
1000
0001
1000
0001
0000
0100
0010
0100
0010
0100
0000
,
0010
1000
0010
1000
0010
0000
1000
0000
0100
0010
0100
0000
0010
0001
0000
1000
,
0000
0001
0000
0100
0010
0100
0010
0000
1000
0000
0010
0000
1000
0010
0000
0100
,
0000
0001
0000
0010
0001
1000
0001
0000
0010
0000
0100
0000
1000
0000
0100
0000
,
1000
0000
0010
0100
0001
0100
0010
0100
0001
0000
0000
0000
1001
0000
1000
0010
,
0000
0110
0000
0000
0101
0000
0001
1000
0010
0000
1000
0000
0010
0100
0000
0001
,
0000
0010
0000
0001
1000
0010
1000
0000
0100
0000
0010
0000
0001
0010
0000
0001
,
0000
1000
0000
0010
1000
0010
0100
0000
0001
0000
0010
0000
0001
1000
0000
0010
,
0000
1000
0000
0100
0010
0100
0010
0000
0001
1000
0001
0100
0010
0100
0001
0000
,
1000
0010
0100
0010
1000
0000
1001
0000
0001
0100
0010
0000
1000
0010
0000
0100
,
0000
0010
0000
1000
0001
0010
0001
0100
0010
0000
1000
0100
0010
0001
1000
0000
,
0001
0010
0100
1000
0010
0000
0100
0000
0001
0010
0001
0000
1000
0000
0010
0000
,
0100
0000
0010
1000
0010
1000
0010
0100
0010
0100
0010
0000
0100
0000
0001
1000
,
0000
1010
0000
0000
0000
0001
0010
0000
,
0010
1000
0000
0010
0001
0000
0001
0100
,
0000
0110
0000
1010
0000
1000
0100
0000
,
0100
0001
0000
0001
0010
0000
0010
1000
,
0000
1100
0000
0110
0000
0010
0001
0010
,
0100
1000
0100
0010
0001
0000
1000
0100
,
0000
0110
0000
0001
0000
1000
0010
0000
,
0010
1000
0000
0100
1000
0000
1000
0001
,
0000
0011
0000
0110
0000
0100
1000
0000
,
1000
0010
0000
0100
0001
0010
0001
1000
,
0000
1010
0000
0110
0000
0100
0001
0000
,
0001
1000
0000
0010
1000
0001
1000
0010
,
0000
0101
0000
0011
0000
0010
0100
1000
,
0100
1000
0001
0010
0001
0100
0010
1000
,
0010
0100
0001
0010
0100
1000
0001
0000
,
0001
1000
0100
0010
0001
1000
0100
0010
,
0001
1000
0010
0001
0010
1000
0000
0001
,
0000
0010
0100
1000
0100
0010
0000
0011
,
0000
0101
0000
0100
0010
1000
0000
0100
,
0000
0001
0100
1000
0100
0001
0000
0100
,
0000
1000
0010
0100
0010
1000
0000
0001
,
0000
0100
0001
0010
0000
0100
1000
0010
,
1000
0100
0010
0001
1000
0001
0000
0100
,
0000
0010
1000
0001
0000
1000
0100
0010
,
0001
0100
0010
1000
0001
1000
0000
0001
,
0000
0100
0000
0010
1000
0001
1000
0010
,
0100
0001
0010
0100
1000
0001
0000
0100
,
0000
0010
0000
1000
0000
0001
0100
0001
,
0100
0010
1000
0010
1000
0100
0010
0001
,
0010
0100
1000
0001
0010
0001
0100
0010
,
1000
0100
0010
0001
0010
0100
0010
0001
,
1000
0100
0010
0100
1000
0001
1000
0100
,
0010
0001
1000
0100
1000
0200
0000
0000
,
0000
0000
0000
0000
,
0000
0000
0000
0000
,
0000
0000
0000
0000
,
0000
0000
0000
0000
,
0000
0000
0000
0000
,
0000
0000
0000
0000
000M
0000
0000
0000
0301
0000
0010
0000
0001
1000
0001
1000
,
0001
0100
0001
0100
0001
0010
0001
0010
0001
0000
0010
0000
0100
1000
0001
0000
,
1000
0001
0010
0001
0010
0100
1000
0000
0001
0000
1000
0000
0001
0100
0010
0000
,
1000
0001
0010
0001
0010
0100
1000
0000
1000
0010
1000
0010
0100
0001
0100
0000
,
0001
0010
0100
1000
0100
0010
0001
0000
1000
0000
0001
0000
0100
0001
0010
0000
,
0001
1000
0000
0010
1000
0000
0100
1000
0010
1000
0001
0100
0010
0100
0001
0010
,
0100
1000
0001
0010
0001
1000
0010
0000
1000
0100
0010
0000
0001
0100
0010
0100
,
0001
1000
0001
0010
0001
1000
0100
0000
0010
0000
0001
0000
1000
0010
0100
0000
,
0010
1000
0100
0000
0010
0001
0100
0010
1000
0001
0100
0010
1000
0000
0100
0000
,
0010
0001
0010
0001
1000
0000
0010
0000
1000
0100
1000
0100
1000
0100
1000
0000
,
0010
0100
0001
0000
0100
0010
1000
0000
0010
0000
0100
0000
0001
0010
0100
0000
,
0010
0001
0100
0010
1000
0000
0010
0000
0100
0001
0010
0000
0010
0100
1000
0000
,
0010
1000
0100
0010
0001
1000
0001
0010
0001
0100
0010
0100
0001
1000
0010
1000
,
0001
0010
0100
1000
0100
0010
0001
1000
0010
0100
0010
1000
0010
0100
0001
0000
,
0010
0100
1000
0000
0100
0010
0001
0000
1000
0010
0001
0010
1000
0100
0001
0100
,
1000
0100
0010
0001
0010
0100
1000
0001
0100
0010
1000
0010
0100
0001
0010
0100
,
1000
0010
0100
0010
1000
0001
0100
0001
2000
0000
0000
0000
3000
0000
0000
0000
;
