#TITLE:Bad Apple & Good Orange;
#SUBTITLE:;
#ARTIST:IOSYS;
#TITLETRANSLIT:;
#SUBTITLETRANSLIT:;
#ARTISTTRANSLIT:;
#GENRE:;
#CREDIT:;
#BANNER:Bad Apple & Good Orange.png;
#BACKGROUND:Bad Apple & Good Orange-bg.png;
#LYRICSPATH:;
#CDTITLE:;
#MUSIC:Bad Apple & Good Orange.OGG;
#OFFSET:-4.050000;
#SAMPLESTART:14.415003;
#SAMPLELENGTH:14.139999;
#SELECTABLE:YES;
#DISPLAYBPM:138.000000;
#BPMS:0.000000=138.000000
;
#STOPS:
;
#BGCHANGES:;
#KEYSOUNDS:;
#ATTACKS:;

//---------------dance-single - ----------------
#NOTES:
     dance-single:
     :
     Beginner:
     2:
     0.118113,0.154023,0.000000,0.106683,0.000000,93.000000,93.000000,0.000000,12.000000,0.000000,0.000000,0.118113,0.154023,0.000000,0.106683,0.000000,93.000000,93.000000,0.000000,12.000000,0.000000,0.000000:
0000
0000
0000
0000
,
0000
0000
0000
0000
,
0000
0000
0000
0000
,
1000
0000
1000
0000
,
0001
0000
0001
0000
,
0100
0000
0000
0000
,
0100
0100
0000
0010
,
0010
0000
1000
1000
,
0000
0000
0001
0001
,
0000
0000
0100
0100
,
0000
0000
0010
0010
,
0000
0000
1000
1000
,
0000
0000
0001
0000
,
1000
0000
0001
0000
,
1000
0000
0000
0000
,
0002
0000
0003
0000
,
2000
0000
3000
0000
,
0020
0000
0030
0000
,
0200
0000
0300
0000
,
0002
0000
0003
0000
,
1000
0000
1000
0000
,
0001
0000
0001
0000
,
0100
0000
0100
0000
,
0020
0000
0030
0000
,
1000
0000
1000
0000
,
0002
0000
0003
0000
,
0100
0000
0100
0000
,
0020
0000
0030
0000
,
1000
0000
1000
0000
,
0002
0000
0003
0000
,
0100
0000
0100
0000
,
0010
0000
0010
0000
,
1000
0000
1000
0000
,
0001
0000
0001
0000
,
0100
0000
0100
0000
,
0010
0000
0010
0000
,
1000
0000
0000
0000
,
1000
0000
0000
0000
,
0001
0000
0001
0000
,
0100
0000
0100
0000
,
0010
0000
0010
0000
,
1000
0000
1000
0000
,
0001
0000
0001
0000
,
0010
0000
0010
0000
,
0100
0000
0000
0000
,
0100
0000
0000
0000
,
2000
0000
3000
0000
,
0002
0000
0003
0000
,
0200
0000
0300
0000
,
0010
0000
1000
0000
,
1000
0000
0001
0000
,
0001
0000
0100
0000
,
0100
0000
0010
0010
,
0000
0000
1000
1000
,
0000
0000
0001
0001
,
0000
0000
0010
0010
,
0000
0000
0100
0100
,
0000
0000
0000
1000
;

//---------------dance-single - ----------------
#NOTES:
     dance-single:
     :
     Easy:
     4:
     0.220986,0.231035,0.008890,0.115573,0.000000,174.000000,173.000000,1.000000,13.000000,0.000000,0.000000,0.220986,0.231035,0.008890,0.115573,0.000000,174.000000,173.000000,1.000000,13.000000,0.000000,0.000000:
0000
0000
0000
0000
,
0000
0000
0000
0000
,
0000
0000
0000
0000
,
1000
0000
1000
0000
,
0001
0000
0001
0000
,
0010
0010
0010
0010
,
0010
0000
0100
0000
,
1000
0100
1000
0000
,
0001
0010
0001
0000
,
0100
0010
0100
0000
,
0010
1000
0010
0000
,
1000
0100
1000
0000
,
0100
0010
0100
0010
,
0001
0000
0001
0000
,
2000
0000
3000
0010
,
0020
0000
0030
0100
,
0200
0000
0301
0001
,
2000
0000
3010
0010
,
0200
0000
0301
0000
,
2000
3010
0000
0100
,
0001
0010
0100
1000
,
1001
0000
0001
0100
,
0010
0100
0001
0100
,
0010
0100
0001
0000
,
1000
0001
1000
0001
,
1000
0000
0001
0000
,
0010
0001
0010
0001
,
0010
0000
0100
1000
,
0100
1000
0010
1000
,
0010
0010
0000
0000
,
0010
0100
0010
0000
,
1000
0100
1000
0000
,
0001
0100
0001
0000
,
1000
0010
1000
0000
,
0001
0100
0001
0000
,
0010
0100
0010
0000
,
0100
1000
0100
0000
,
1000
0001
1000
0000
,
0001
0001
0001
0000
,
0100
0100
0100
0000
,
0010
0010
0010
0000
,
2000
3200
0310
0000
,
0001
1000
0001
0000
,
2000
3200
2300
3010
,
0200
0000
0300
0000
,
0010
1000
0010
0100
,
0002
0000
1003
1000
,
0010
0100
0010
0100
,
0010
1000
0100
1000
,
0001
0000
0100
0001
,
0100
0100
0010
0010
,
1000
1000
0001
0001
,
0100
0100
0010
0010
,
0100
0100
0001
0001
,
1000
0100
1000
0100
,
0010
0001
0010
0001
,
1000
0100
0010
0001
,
1000
0001
1000
0001
;

//---------------dance-single - ----------------
#NOTES:
     dance-single:
     :
     Medium:
     9:
     0.372120,0.436399,0.168914,0.035561,0.066677,293.000000,274.000000,19.000000,4.000000,0.000000,0.000000,0.372120,0.436399,0.168914,0.035561,0.066677,293.000000,274.000000,19.000000,4.000000,0.000000,0.000000:
0000
0000
0000
0000
,
0000
0000
0000
0000
,
0000
0000
0000
0000
,
1000
0100
1000
0000
0001
0000
0010
0000
,
0001
0100
0001
0000
0100
0000
0010
0000
,
0100
0010
1000
0001
,
1001
0000
1000
0100
1000
0000
0010
0000
,
0100
0010
0100
0000
0001
0010
0001
0000
,
0010
0100
1000
0100
,
0001
0010
0001
0100
,
1000
0001
1000
0000
0001
1000
0001
0000
,
0010
0001
0010
0100
,
1000
0100
1000
0100
,
0001
0100
1000
0000
0010
0001
0010
0000
,
1000
0000
0000
1000
0000
0000
1000
0000
0000
0000
0001
0000
0100
0000
0010
0000
,
0100
0000
0000
0100
0000
0000
0100
0000
0000
0000
0010
0000
1000
0000
0100
0000
,
1000
0000
0000
1000
0000
0000
1000
0000
0000
0000
0001
0000
0010
0000
0100
0000
,
0010
0000
0000
0010
0000
0000
0010
0000
0000
0000
0001
0000
0100
0000
1000
0000
,
0100
1001
1100
0110
,
0011
0101
0110
1001
,
1100
0100
0011
1001
,
0110
0000
2000
3200
,
0310
0001
0010
0000
0001
1000
0001
0000
,
1000
0100
1000
0100
,
0010
0001
0010
0000
0001
0000
0100
0000
,
0010
0100
0010
1000
,
0001
0100
1000
0100
,
0001
0010
1000
0010
,
0001
0000
1000
0100
1000
0000
0010
0100
,
0010
0000
0000
1000
0000
0000
1001
0000
0000
0001
0000
0000
0100
0000
0000
0000
,
0010
0000
1000
0000
0010
0000
0100
0010
,
0100
0001
0010
0001
,
0010
0100
1000
0100
,
1000
0100
1000
0000
0100
0000
0010
0000
,
0001
0010
0001
0000
0010
0000
0100
1000
,
0100
0000
1000
0001
1000
0000
0001
0000
,
0010
0000
0000
1000
0000
0000
0010
0000
0000
0001
0000
0000
0100
0000
1000
0100
,
0000
0001
0100
0010
0100
0000
0001
0000
,
1000
0001
1000
0000
0001
0000
0010
0001
,
0010
0000
0100
0000
1000
0000
0100
0001
,
0100
1000
0010
0001
,
0010
1000
0100
0001
,
0010
0001
0100
1000
,
0010
0000
0001
0000
0100
0000
0001
0010
,
1000
0001
0100
0001
,
0010
0000
0001
0000
0100
0000
0010
0100
,
0010
0000
0100
0000
0000
0001
0000
0000
1000
0000
0000
1000
0000
0000
1001
0000
,
0000
0000
0101
0000
0000
0100
0000
0000
0010
0000
0000
0010
0000
0000
1010
0000
,
0000
0000
1000
0000
0000
1000
0000
0000
0001
0000
0000
0001
0000
0000
0202
0000
,
0000
0303
1001
1001
,
1000
0000
0100
1000
0100
1000
0100
0000
,
0010
0001
0010
0000
0001
0010
0001
0000
,
0100
0000
0010
0000
0100
0010
0100
0000
,
0010
0000
1000
0100
0001
0000
0100
1000
,
0010
0001
0010
1000
,
0100
0001
0100
0000
1000
0010
0001
0000
,
0010
1000
0100
0001
0010
1000
0010
0001
,
0100
1000
0010
0001
0010
1000
0001
0000
;

//---------------dance-single - ----------------
#NOTES:
     dance-single:
     :
     Hard:
     12:
     0.561355,0.590423,0.328939,0.142244,0.271152,442.000000,405.000000,37.000000,16.000000,0.000000,0.000000,0.561355,0.590423,0.328939,0.142244,0.271152,442.000000,405.000000,37.000000,16.000000,0.000000,0.000000:
// measure 0
0000
0000
0000
0000
,  // measure 1
0000
0000
0000
0000
,  // measure 2
0000
0000
0000
0000
,  // measure 3
0001
0000
0000
0001
1000
0000
0010
0000
0100
0000
0100
0000
0001
0010
0001
0000
,  // measure 4
1000
0000
0010
1000
0010
0000
0000
0100
0010
0100
0010
0100
0010
0100
0010
0000
,  // measure 5
1001
0110
1001
0110
,  // measure 6
0011
0000
0100
1000
0010
0001
0010
1000
,  // measure 7
0100
0001
0100
0100
1000
1000
0001
0001
,  // measure 8
0010
1000
0010
0001
0100
0010
1000
0001
,  // measure 9
1000
0000
1000
0000
0001
0000
1000
0010
1000
0000
0000
0100
0000
0000
0010
0000
,  // measure 10
0001
0010
1000
0010
0001
0010
0100
0010
,  // measure 11
0001
0100
1000
0001
0010
1000
0001
0010
,  // measure 12
0001
0000
0000
0000
0010
0000
0000
0000
0100
0000
0000
0000
1000
0000
0000
0000
0001
0000
0000
0000
0100
0000
0000
0000
0001
0000
0000
0000
0000
0000
0000
0000
0000
0000
0000
0000
1000
0000
0000
0001
0000
0000
1000
0000
0000
0000
0000
0000
,  // measure 13
1010
0000
0000
0010
0000
0000
0110
0000
0000
0100
0000
0000
0001
0100
0001
0100
,  // measure 14
0020
0000
0000
0001
0000
0000
1030
0000
0000
0000
0001
0000
0100
0000
0010
0000
,  // measure 15
0200
0000
0000
1000
0000
0000
0310
0000
0000
0000
0001
0000
0010
0000
0100
0000
,  // measure 16
2000
0000
0000
0010
0000
0000
3001
0000
0000
0000
0010
0000
1000
0000
0100
0000
,  // measure 17
0020
0000
0000
0001
0000
0000
1030
0000
0100
0010
0100
0000
0010
0000
0001
0100
,  // measure 18
0001
0000
0000
0001
1000
0000
0000
1000
0010
0000
0100
0000
0010
0000
1000
0000
,  // measure 19
0001
0000
0000
0001
0100
0000
0000
0100
0010
0000
1000
0000
0100
0000
0010
0000
,  // measure 20
0001
0000
0000
0101
0000
0000
0100
0000
0110
0000
0000
0010
0000
0000
1000
0000
,  // measure 21
1001
0000
1002
2003
,  // measure 22
3001
0000
0010
0000
1000
0000
0010
0000
0001
1000
0001
0000
1000
0000
0010
0000
,  // measure 23
0100
0001
0100
0000
0010
0000
0100
0000
0001
0010
0001
0000
1000
0000
0100
0000
,  // measure 24
0010
0001
1000
0100
0001
1000
0010
0001
,  // measure 25
0100
0010
0100
0000
0010
0000
1000
0000
0001
0000
2002
0000
3003
0000
0001
0100
,  // measure 26
0001
1000
0010
0100
0010
1000
0001
0100
,  // measure 27
0002
0000
0000
0000
1003
0000
0010
0000
0001
0000
0010
0000
1000
0000
0001
0100
,  // measure 28
0001
1000
0010
0100
0010
1000
0001
0100
,  // measure 29
0010
0000
0000
0110
0000
0000
0101
0000
0000
1001
0000
0000
0000
0000
1000
0010
,  // measure 30
1000
0100
0010
0001
1000
0100
0001
1000
,  // measure 31
0010
0001
0100
0010
0000
1000
0001
0100
,  // measure 32
1000
0001
0010
1000
0001
0100
0001
0010
,  // measure 33
0001
0100
0010
0100
0101
0000
2001
0000
,  // measure 34
3010
0100
0001
0100
0010
1000
0001
0010
,  // measure 35
0001
0000
0100
0000
0010
0000
1000
0000
0100
0000
0000
1000
0100
0000
0010
0000
,  // measure 36
0001
0000
0000
0100
0000
0000
0101
0000
0000
0100
0000
0000
0110
0000
0010
1000
,  // measure 37
0000
0001
1000
0010
1000
0001
0100
0001
,  // measure 38
1000
0100
0001
0100
1000
0010
0001
0010
,  // measure 39
1000
0100
0010
0002
0000
0103
0010
0210
,  // measure 40
0000
0310
1000
1002
0000
0013
0001
1000
,  // measure 41
0100
0000
0010
0000
0001
0000
0100
0000
0001
0000
0000
0010
0000
0000
0001
1000
,  // measure 42
0001
0010
0100
1000
0010
0100
0001
1000
,  // measure 43
0100
1000
0010
0100
0001
0000
1000
0010
,  // measure 44
2010
0000
0001
0000
0010
0000
0001
0001
,  // measure 45
3000
0000
0000
0000
0000
0000
0100
0001
,  // measure 46
0100
0000
0010
0000
0000
1010
0000
0000
1100
0000
0000
0110
0000
0000
0011
0000
,  // measure 47
0000
0000
0101
0000
0000
0011
0000
0000
0110
0000
0000
1100
0000
0000
1001
0000
,  // measure 48
0000
0000
0001
0010
0000
0010
0001
0000
0100
0010
0000
0010
0100
0000
0220
0000
,  // measure 49
0000
0330
1001
1001
,  // measure 50
1000
0010
0001
0010
1000
0100
0001
0100
,  // measure 51
1000
0010
1000
0000
0001
0000
0100
0000
1000
0000
1000
0000
0100
0000
0001
0000
,  // measure 52
1000
0010
0001
0001
0010
1000
0001
0010
,  // measure 53
0001
0000
0100
0000
1000
0000
0100
0000
0001
1000
0001
0000
1001
0000
0000
0000
,  // measure 54
1000
0100
0001
0100
1000
0010
0001
0010
,  // measure 55
1000
0100
0001
1000
0010
0001
0100
0010
,  // measure 56
1000
0000
0000
0000
0100
0000
0000
0000
0010
0000
0000
0000
0001
0000
0000
0000
0100
0000
0000
0000
0010
0000
0000
0000
1000
0000
0000
0000
0000
0000
0000
0000
0000
0001
0000
0000
0000
0000
0000
0100
0000
0000
0001
0000
0000
0000
0000
0000
,  // measure 57
1000
0010
1010
0000
0001
0100
0101
0000
;

//---------------dance-single - ----------------
#NOTES:
     dance-single:
     :
     Challenge:
     14:
     0.679468,0.695355,0.408951,0.142244,0.648987,535.000000,489.000000,46.000000,16.000000,0.000000,0.000000,0.679468,0.695355,0.408951,0.142244,0.648987,535.000000,489.000000,46.000000,16.000000,0.000000,0.000000:
// measure 0
0000
0000
0000
0000
,  // measure 1
0000
0000
0000
0000
,  // measure 2
0000
0000
0000
0000
,  // measure 3
1000
0000
0010
0100
0010
0000
1000
0000
0001
0100
0001
0100
0001
0100
0001
0100
,  // measure 4
0001
0000
1000
0010
1000
0000
0000
0001
0100
0010
0100
0010
0100
0010
0100
0000
,  // measure 5
0110
1001
0101
1010
,  // measure 6
0011
0000
0000
0000
0100
0000
1000
0000
0010
0000
0100
0000
0001
0010
0001
0000
,  // measure 7
0100
0000
0010
0000
1000
0100
1000
0000
0001
0000
0100
0000
0010
0000
0010
0000
,  // measure 8
1000
0000
0001
0000
0100
0001
0100
0000
0010
0000
1000
0000
0100
0000
0100
0000
,  // measure 9
0010
0000
0001
0000
1000
0000
0001
1000
0001
1000
0020
0000
0000
0000
1030
0000
,  // measure 10
0010
0000
0100
0000
0010
1000
0001
0000
1000
0000
0100
0000
0001
0100
0001
0000
,  // measure 11
0100
0000
1000
0000
0001
0010
0001
0000
0010
0000
0100
1000
0100
1000
0100
0000
,  // measure 12
0010
0000
0000
0000
0001
0000
0000
0000
1000
0000
0000
0000
0010
0000
0000
0000
0001
0000
0000
0000
0010
0000
0000
0000
1010
0000
0000
0000
0000
0000
0000
0000
0000
0000
0000
0000
1000
0000
0000
0100
0000
0000
0010
0000
0000
0001
0000
0000
,  // measure 13
0100
0000
0000
0110
0000
0000
1010
0000
0000
1100
0000
0000
0100
0010
0001
0010
,  // measure 14
0200
0000
0000
1000
0000
0000
0301
0000
0000
0000
0010
0000
0001
0000
0100
0000
,  // measure 15
0020
0000
0000
1000
0000
0000
0031
0000
0000
0000
0100
0000
0010
0000
1000
0000
,  // measure 16
0200
0000
0000
0010
0000
0000
1300
0000
0000
0000
1000
0000
0100
0000
0001
0000
,  // measure 17
0200
0000
0000
1000
0000
0000
0301
0010
0001
0000
0100
0000
0010
1000
0010
1000
,  // measure 18
0100
0000
0000
0100
0010
0000
0000
0010
0001
0000
1000
0010
1000
0000
0001
0000
,  // measure 19
0100
0000
0000
0100
0001
0000
0000
0001
0010
0000
0000
0010
1000
0000
0001
0000
,  // measure 20
1001
0000
0000
0011
0000
0000
0110
0000
1100
0000
0000
1001
0000
0000
0101
0000
,  // measure 21
0220
0330
1002
0203
,  // measure 22
0310
0000
1000
0001
1000
0000
0010
0000
0100
0001
0000
0001
0010
0000
0100
0000
,  // measure 23
1000
0010
0000
0010
1000
0000
0001
0000
0100
0010
0100
0001
0000
0100
0010
0000
,  // measure 24
1000
0010
0000
0010
1000
0000
0100
0000
0010
0001
0010
0001
0000
1000
0001
0000
,  // measure 25
0100
0001
0100
0001
0000
1000
0000
0010
1000
0010
2000
0000
0000
0000
3001
0010
,  // measure 26
0001
0000
0100
0000
0010
0000
1000
0000
0001
0100
0001
0100
0010
0000
1000
0000
,  // measure 27
0100
1000
0100
1000
0000
0001
0010
0000
0001
0100
0001
0100
0000
0010
1000
0000
,  // measure 28
0100
1000
0100
1000
0000
0001
1000
0000
0010
1000
0010
0100
0000
0100
0001
0000
,  // measure 29
1001
0000
0000
0101
0000
0000
0110
0000
0000
1010
0000
0000
1000
0000
0001
0010
,  // measure 30
0001
0000
0100
0010
0100
0000
0001
0000
1000
0010
1000
0010
1000
0000
0001
0000
,  // measure 31
0100
0010
0100
0010
0001
0000
0010
0000
1000
0100
1000
0000
0001
0000
0100
0000
,  // measure 32
1000
0001
0010
1000
0001
0100
0010
0100
,  // measure 33
0001
1000
0010
0000
1000
0000
0010
0000
0100
0001
0100
0001
0020
0000
0000
0000
,  // measure 34
0031
0000
1000
0010
1000
0000
0100
0000
0010
0001
0010
0001
0100
0000
0001
0000
,  // measure 35
0100
0001
0100
0000
0010
0000
1000
0000
0100
0010
0100
0000
0010
0000
0001
0000
,  // measure 36
1001
0000
0000
0011
0000
0000
0110
0000
0000
1100
0000
0000
1001
0000
1000
0010
,  // measure 37
0000
0100
0001
0000
1000
0000
0001
1000
0010
1000
0100
0010
0100
0010
0001
1000
,  // measure 38
0001
0000
0010
0100
0010
0000
1000
0000
0010
0001
1000
0001
0010
0000
0001
0000
,  // measure 39
1000
0100
1000
0000
0010
0000
0100
0000
0001
1000
0001
0100
0001
0000
0010
0000
,  // measure 40
0100
0000
1000
0000
0010
0000
0100
0001
0100
0000
0010
0000
1000
0100
1000
0001
,  // measure 41
1000
0000
0100
0000
0010
0000
0001
0000
0100
0000
0001
0100
0001
0000
0000
0000
,  // measure 42
1001
0000
0001
0000
0100
0000
0010
1000
0010
0000
1000
0000
0100
0000
0010
0000
,  // measure 43
0001
0000
1000
0000
0001
0100
0001
0100
0001
0000
0000
0000
1000
0000
0001
0010
,  // measure 44
0002
0000
0103
0000
0010
1000
0001
2001
,  // measure 45
0000
0000
0000
0000
0000
0000
0000
0000
3000
0000
0000
0000
0001
0100
0001
0000
,  // measure 46
0000
0000
1001
0000
0000
1010
0000
0000
0110
0000
0000
0101
0000
0000
0011
0000
,  // measure 47
0000
0000
0110
0000
0000
1100
0000
0000
1001
0000
0000
0101
0000
0000
0110
0000
,  // measure 48
0000
0000
1001
0000
0000
1100
0000
0000
0110
0000
0000
0011
0000
0000
2002
0000
,  // measure 49
0000
3003
0110
1001
,  // measure 50
0001
0000
0010
0000
1000
0000
0010
0000
0001
0100
0010
0000
0100
0000
0001
0000
,  // measure 51
1000
0010
0100
0000
0001
0100
0010
0000
1000
0100
1000
0000
0001
1000
0001
0000
,  // measure 52
0100
0000
0010
0000
1000
0100
1000
0000
0001
0000
0010
0000
0001
0100
0010
0000
,  // measure 53
1000
0000
0001
0000
0100
0001
0010
0000
0100
0000
1000
0010
0200
0000
0000
0000
,  // measure 54
0301
0000
1000
0000
0010
0100
0001
0000
1000
0000
0010
0000
0100
0010
1000
0000
,  // measure 55
0001
0000
0100
0000
0010
0100
0001
0000
1000
0000
0100
0000
1000
0001
1000
0000
,  // measure 56
0001
0000
0000
0000
0010
0000
0000
0000
0100
0000
0000
0000
0001
0000
0000
0000
0100
0000
0000
0000
1000
0000
0000
0000
0010
0000
0000
0000
0000
0000
0000
0000
0000
0100
0000
0000
0000
0000
0000
0001
0000
0000
1000
0000
0000
0000
0000
0000
,  // measure 57
1001
0000
0001
0000
0100
0000
0100
0000
0010
0000
1000
0000
0100
1000
0001
1000
;
