#TITLE:Azitate;
#SUBTITLE:;
#ARTIST:Void;
#TITLETRANSLIT:;
#SUBTITLETRANSLIT:;
#ARTISTTRANSLIT:;
#GENRE:;
#CREDIT:;
#BANNER:Azitate.png;
#BACKGROUND:Azitate-bg.png;
#LYRICSPATH:;
#CDTITLE:;
#MUSIC:Azitate.ogg;
#OFFSET:-4.958000;
#SAMPLESTART:76.061981;
#SAMPLELENGTH:15.000000;
#SELECTABLE:YES;
#BPMS:0.000000=152.050003
;
#STOPS:88.000000=1.184000,
93.000000=1.184000,
98.000000=0.395000,
105.000000=1.184000
;
#BGCHANGES:;
#KEYSOUNDS:;
#ATTACKS:;

//---------------dance-single - ----------------
#NOTES:
     dance-single:
     :
     Beginner:
     3:
     0.129042,0.168114,0.008364,0.000000,0.000000,108.000000,107.000000,1.000000,0.000000,0.000000,0.000000,0.129042,0.168114,0.008364,0.000000,0.000000,108.000000,107.000000,1.000000,0.000000,0.000000,0.000000:
0000
0000
0000
0000
,
0000
0000
0000
0000
,
1000
0000
0000
0000
,
1000
0000
0000
0000
,
0001
0000
0000
0000
,
0001
0000
0000
0000
,
0100
0000
0100
0000
,
0010
0000
0010
0000
,
1000
0000
0000
0000
,
1000
0000
0000
0000
,
0001
0000
0000
0000
,
0001
0000
0001
0000
,
1000
0000
0000
0000
,
0001
0000
0000
0001
,
0000
0000
1000
0000
,
1000
0000
0000
0010
,
0000
0000
0000
0000
,
0010
0000
0010
0000
,
0010
0000
0000
0000
,
0100
0000
0100
0000
,
0100
0000
0000
0000
,
0001
0000
0001
0000
,
0001
0001
0000
1000
,
0000
0010
0010
0000
,
0100
0000
0100
0001
,
0000
0001
0000
1000
,
0000
1000
0001
0000
,
1000
0000
0001
0000
,
1000
0000
0001
0000
,
0100
0000
0010
0000
,
0100
0000
0001
0000
,
1000
0000
0001
0000
,
1000
0000
0001
0000
,
0000
0000
0000
0000
,
0000
0000
1000
0000
,
0001
0000
1000
0000
,
0000
0000
0010
0000
,
0100
0000
0010
0000
,
0000
0000
1000
0000
,
0001
0000
1000
0000
,
0000
0000
0010
0000
,
0100
0000
0010
0000
,
0000
0000
1000
0000
,
0100
0000
1000
0000
,
0001
0000
0010
0000
,
0001
0000
0100
0000
,
0010
0000
0100
0000
,
0110
0000
0010
0000
,
1000
0000
1000
0000
,
0001
0000
0001
0000
,
0100
0000
0100
0000
,
0100
0000
0000
0000
,
0010
0000
0010
0000
,
0010
0000
0000
0000
,
1000
0000
1000
0000
,
1000
0000
0000
0000
,
0001
0000
0001
0000
,
0001
0000
0000
0000
,
0000
0000
0100
0000
,
0100
0000
0010
0000
,
0010
0000
1000
0000
,
1000
0000
0001
0000
,
0000
0000
0001
0000
,
1000
0000
0001
0000
,
0100
0000
0010
0000
,
0100
0000
0001
0000
,
1000
0000
0001
0000
,
0100
0000
0000
0000
;

//---------------dance-single - ----------------
#NOTES:
     dance-single:
     :
     Hard:
     12:
     0.563963,0.710928,0.468376,0.326191,0.401465,472.000000,416.000000,56.000000,39.000000,0.000000,0.000000,0.563963,0.710928,0.468376,0.326191,0.401465,472.000000,416.000000,56.000000,39.000000,0.000000,0.000000:
// measure 0
0000
0000
0000
0000
,  // measure 1
0000
0000
0000
0000
,  // measure 2
1000
0000
0001
0000
1000
0001
0000
1000
0000
0100
1000
0000
0100
1000
0000
0000
,  // measure 3
0010
0000
0100
0000
0010
0100
0000
0010
0000
0100
0010
0000
0100
0001
0000
0000
,  // measure 4
1000
0000
0001
0000
0010
0100
0000
0010
0000
0100
0010
0000
0100
0010
0000
0000
,  // measure 5
0000
0000
0011
0000
0000
0110
0000
0000
1100
0000
0000
1001
0000
0000
0101
0000
,  // measure 6
0100
0000
0010
0000
1000
0001
0000
1000
0000
0001
1000
0000
0100
1000
0000
0000
,  // measure 7
0100
0000
1000
0000
0010
1000
0000
0010
0000
1000
0010
0000
1000
0010
0000
1000
,  // measure 8
0000
0000
0001
0000
0100
0001
0000
1000
0000
0010
1000
0000
0001
0100
0000
0000
,  // measure 9
0001
0000
1000
0000
0010
1000
0000
0001
0000
0100
0001
0000
0001
1000
0000
1000
,  // measure 10
0010
0000
0010
0000
0100
0001
0000
1000
0000
0010
1000
0000
0001
0100
0000
0000
,  // measure 11
0010
0000
0010
0000
1000
0001
0000
1000
0000
0001
1000
0000
0010
0100
0000
0000
,  // measure 12
0110
0000
0000
0000
0100
0001
0100
0000
0002
0000
0000
0000
2003
0000
0000
0000
,  // measure 13
3002
0000
0000
0203
0000
0000
0320
0000
,  // measure 14
0000
1030
0120
2030
,  // measure 15
3002
0000
0103
0020
0000
1030
0002
0000
,  // measure 16
0103
0000
0010
0000
1000
0001
1000
0000
,  // measure 17
0102
0000
0000
0203
0000
0000
0320
0000
,  // measure 18
1000
0000
0000
0000
0031
0000
0000
0001
0100
0000
0010
0000
0100
0000
0000
0000
,  // measure 19
0010
0000
1000
0000
0010
0000
0000
1000
0001
0000
1000
0000
0100
0000
0000
0000
,  // measure 20
1000
0100
0001
0000
1100
0000
1010
0000
,  // measure 21
0110
0000
0100
0001
0000
1001
0000
2020
,  // measure 22
3030
0000
0101
0000
0010
0010
0000
1001
,  // measure 23
0000
2200
3300
0000
0101
0000
1000
1001
,  // measure 24
0000
0101
0000
0220
0330
0000
1000
0100
,  // measure 25
0010
0001
0100
0000
0010
1010
0000
1001
,  // measure 26
0000
0202
0303
0000
1010
0000
1000
0001
,  // measure 27
0000
0101
0000
0000
1010
0000
1000
0010
,  // measure 28
0000
0011
0000
0000
0110
0000
0001
0100
,  // measure 29
0101
0000
0100
0010
1010
0000
1001
0000
,  // measure 30
0101
0000
0110
0000
0010
1000
0100
0010
,  // measure 31
0001
0010
1000
0010
0001
0100
1000
0100
,  // measure 32
0001
0010
0100
1000
0002
0000
0000
0000
,  // measure 33
0000
0000
0000
0000
,  // measure 34
2000
0000
0000
3003
1001
0000
1000
0001
,  // measure 35
1000
0010
0100
0001
1000
0000
1001
0000
,  // measure 36
1010
0000
0010
0100
0002
0000
1003
0100
,  // measure 37
1000
0010
0100
0010
1000
0000
1001
0000
,  // measure 38
0001
0000
0000
0101
0000
0000
0100
0000
0010
0000
0000
0000
0100
0000
0001
0000
,  // measure 39
0010
0001
1000
0100
1000
0001
0000
0100
,  // measure 40
0001
1000
0010
1000
0002
0000
0103
0020
,  // measure 41
0000
1030
0010
0100
0001
0100
0010
1000
,  // measure 42
0001
0010
0001
0100
0020
0000
1030
0100
,  // measure 43
0000
0101
0000
1100
0000
0000
1001
0000
,  // measure 44
0001
0000
0000
0100
0000
0000
0001
0000
0102
0000
0000
0000
0103
0000
0010
0000
,  // measure 45
0000
1010
0000
2002
0000
3003
0101
0000
,  // measure 46
0110
0000
0000
1010
0000
0000
1000
0000
1002
0000
0000
0000
0103
0000
0020
0000
,  // measure 47
0000
2030
0000
3002
0000
0003
0000
0100
,  // measure 48
0010
0100
0001
1000
0002
0000
1003
0020
,  // measure 49
0000
1030
0001
0010
0001
0100
0010
0000
,  // measure 50
1001
0000
0000
0000
0101
0000
0000
0000
0100
0000
0010
0000
1000
0010
0000
1000
,  // measure 51
0001
0000
0100
0000
0001
1000
0000
0001
1000
0000
0001
0000
1000
0010
0000
1000
,  // measure 52
0000
0000
0100
0000
1000
0001
0000
1000
0000
0000
0010
0000
0100
0001
0000
0100
,  // measure 53
0000
0000
0010
0000
1000
0001
0000
0010
0001
0000
0100
0000
0010
0000
1000
0000
,  // measure 54
0001
0000
0010
0000
0001
0000
0010
0000
0001
0000
0010
0000
0001
0000
0000
1000
0000
0000
0001
0000
0000
0000
0000
0000
,  // measure 55
0001
1000
0001
0000
0100
0010
0100
0000
,  // measure 56
0100
0000
0001
0000
0100
0000
0001
0000
0010
0100
0010
0000
0100
0000
1000
0000
,  // measure 57
0001
0000
1000
0000
0001
0000
0100
0000
0010
0000
0000
0110
0000
0000
0101
0000
,  // measure 58
0000
1001
0000
0000
1010
0000
0000
0110
0000
0000
0101
0000
0000
1000
0000
1000
,  // measure 59
0001
0000
0000
0001
0100
0000
0000
0100
0010
0000
0000
0010
0000
1000
0001
0000
,  // measure 60
0100
0000
0000
0001
0000
1000
0001
0000
0010
0000
0000
0000
0001
0000
0000
0000
,  // measure 61
0100
0001
0100
0010
1000
0000
0001
0000
,  // measure 62
0010
0000
0000
0001
0000
0000
0100
0000
0000
0001
0000
0000
1000
0000
0100
0000
1000
0000
0100
0000
1000
0000
0100
0000
,  // measure 63
1000
0000
0010
0100
0010
0000
1000
0000
0001
0000
0010
0000
0002
0000
0000
0000
,  // measure 64
1003
0000
0000
0000
0000
0000
0000
0000
0000
0001
0000
0000
0000
0000
0000
0000
0000
0000
0100
0000
0000
0000
0000
0000
0010
0000
0000
0000
1000
0000
0000
0000
0010
0000
0000
0000
1000
0000
0000
0000
0001
0000
0000
0000
0010
0000
0000
0000
,  // measure 65
0001
0010
0001
1000
0100
1000
0100
0010
0001
0010
0001
0100
,  // measure 66
0001
0100
0001
0100
0001
0100
0002
0000
0000
0000
0000
0000
,  // measure 67
2000
0000
0000
0000
,  // measure 68
3003
0000
0000
0000
;

//---------------dance-single - ----------------
#NOTES:
     dance-single:
     :
     Easy:
     5:
     0.228214,0.285417,0.008364,0.351282,0.000000,191.000000,190.000000,1.000000,42.000000,0.000000,0.000000,0.228214,0.285417,0.008364,0.351282,0.000000,191.000000,190.000000,1.000000,42.000000,0.000000,0.000000:
0000
0000
0000
0000
,
0000
0000
0000
0000
,
0001
0000
1000
0000
,
0001
0000
0100
0000
,
0010
0000
0100
0000
,
0001
0000
0000
0000
,
1000
0010
1000
0000
,
0001
0100
0001
0000
,
0100
0010
0100
0000
,
0010
1000
0010
0000
,
1000
0100
0001
0000
,
0100
1000
0010
0000
,
0001
0010
1000
0001
,
2000
0000
0000
3002
0000
0000
0203
0000
,
0000
0000
0320
2030
,
3002
0000
0000
2003
0000
0000
3020
0000
,
0000
0130
0100
0001
,
0002
0000
0000
2003
0000
0000
3020
0000
,
0000
0030
0100
0000
0001
0000
0200
0000
,
0320
0000
0000
2030
0000
0000
3002
0000
,
2003
0000
0000
3000
0010
0000
0110
0000
,
0100
0000
0001
1000
0000
0000
0001
0000
,
1000
0000
0010
0000
1000
0010
0000
0000
,
1000
0000
0001
0000
0000
0000
0010
1000
,
0000
0010
0000
0100
0000
0000
0001
0000
,
0100
0001
1000
0010
,
1000
0001
0000
0000
,
1000
0000
0001
0000
,
1000
0000
0010
0000
,
0010
0000
0010
0000
,
0100
0000
0100
0100
,
0001
0001
1000
1000
,
0010
0010
0200
0000
,
0000
0000
0000
0000
,
0000
0000
0301
0001
,
1000
1000
0010
0100
,
0100
0010
1000
0001
,
1000
0001
0100
0000
,
0010
0010
1000
0000
,
0001
0100
0001
0000
,
1000
0010
1000
0000
,
0001
0100
0010
0100
,
0001
0000
1000
1000
,
0010
0000
0010
0000
,
0100
0000
0010
0010
,
1000
1000
0001
0000
,
0100
0000
0100
0000
,
0010
0000
0010
0000
,
1000
1000
0001
0000
,
0001
0100
0001
0000
,
1000
0000
0010
0000
0200
0000
0000
0302
,
0000
2003
0000
3010
,
0200
0000
0302
0000
2003
0000
0000
3002
,
0000
0203
0000
0300
,
0010
1000
0020
0000
,
0230
0000
0302
0000
,
2003
3020
0230
0000
,
0310
1000
0010
0100
,
0010
1000
0010
0100
,
0020
0000
0000
2030
0000
0000
3000
0000
,
0002
0203
0320
0030
,
2000
0000
0000
3002
0000
0000
0003
0000
,
0100
0010
1000
0010
,
0100
0001
0100
0020
,
2030
3001
0100
0001
,
0010
0100
1000
0001
,
1000
0010
0200
0000
,
0302
0000
0000
0000
,
0000
0003
0000
0000
;

//---------------dance-single - ----------------
#NOTES:
     dance-single:
     :
     Medium:
     8:
     0.314242,0.341246,0.008364,0.217460,0.000000,263.000000,262.000000,1.000000,26.000000,0.000000,0.000000,0.314242,0.341246,0.008364,0.217460,0.000000,263.000000,262.000000,1.000000,26.000000,0.000000,0.000000:
// measure 0
0000
0000
0000
0000
,  // measure 1
0000
0000
0000
0000
,  // measure 2
0010
0100
0010
0000
1000
0000
0100
0000
,  // measure 3
1000
0001
1000
0000
0001
0000
0100
0000
,  // measure 4
0010
0100
0010
0000
1000
0000
0100
0000
,  // measure 5
1000
1000
0001
0001
,  // measure 6
0100
0010
0100
0001
,  // measure 7
0010
0001
1000
0100
,  // measure 8
1000
0010
0100
0010
,  // measure 9
1000
0001
1000
0000
0001
0000
0100
0000
,  // measure 10
0010
0100
0001
0010
,  // measure 11
0100
1000
0001
1000
,  // measure 12
0010
0100
0010
1000
,  // measure 13
0002
0000
0000
0203
0000
0000
0320
0000
,  // measure 14
0000
1030
1002
0203
,  // measure 15
0320
0000
1030
0002
0000
1003
0020
0000
,  // measure 16
0130
0010
1000
0001
,  // measure 17
0100
0010
0100
0001
,  // measure 18
0010
0001
1000
0100
,  // measure 19
1000
0010
1000
0000
0010
0000
0100
0000
,  // measure 20
0001
0010
0001
1000
,  // measure 21
0100
0000
0010
0001
0000
0001
0000
0000
,  // measure 22
0010
0000
0001
0000
0010
0001
0000
0001
,  // measure 23
0000
0001
0000
0000
1000
0000
0100
1000
,  // measure 24
0000
1000
0000
1000
0000
0000
0000
0000
,  // measure 25
0000
0000
0010
0000
0100
0010
0000
0010
,  // measure 26
0000
0010
0000
0000
1000
0000
0001
1000
,  // measure 27
0000
1000
0000
0000
0001
0000
0100
0010
,  // measure 28
0000
0010
0000
0000
1000
0000
0010
0100
,  // measure 29
0010
0000
1000
0001
1000
0000
0001
0000
,  // measure 30
0100
0010
0100
0001
,  // measure 31
0010
0000
0100
0000
1000
0001
1000
0001
,  // measure 32
1000
0001
0100
0000
,  // measure 33
0000
0000
0000
0000
,  // measure 34
0000
0000
0000
0000
0010
0000
1000
0010
,  // measure 35
0000
1000
0000
0010
0000
0000
0100
0000
,  // measure 36
0010
0100
0000
0010
0100
0000
0010
1000
,  // measure 37
0000
0001
0000
1000
0000
0000
0010
0000
,  // measure 38
0100
0000
0010
0100
0010
0000
1000
0000
,  // measure 39
0100
1000
0001
0000
,  // measure 40
0100
0010
0100
0000
0010
0000
1000
0100
,  // measure 41
0000
1000
0000
0000
0000
0000
0001
0000
,  // measure 42
0100
0000
0010
0000
0100
0000
0010
0100
,  // measure 43
0000
0100
0000
0010
0000
0000
1000
0000
,  // measure 44
0001
0000
1000
0001
1000
0000
0010
0100
,  // measure 45
0000
0010
0000
0100
0000
0000
0001
0000
,  // measure 46
1000
0010
0200
0310
,  // measure 47
0002
1003
0010
1000
,  // measure 48
0001
0100
0001
0000
0100
0000
0010
1000
,  // measure 49
0000
1000
0000
0010
0000
0000
0000
0000
,  // measure 50
0100
0000
0010
0000
2000
0000
0000
3002
,  // measure 51
0000
0203
0000
0300
,  // measure 52
0020
0000
2030
0000
3020
0000
0000
0230
,  // measure 53
0000
0302
0000
1003
,  // measure 54
0010
0100
0010
0100
0020
0000
1000
0000
,  // measure 55
0230
1000
0302
0100
,  // measure 56
2003
3020
0230
0000
,  // measure 57
0310
1000
0010
0100
,  // measure 58
0001
0000
0010
0000
0001
1000
0001
0000
,  // measure 59
1000
0100
1000
0010
,  // measure 60
0100
0000
0010
0000
1000
0001
1000
0000
,  // measure 61
0001
0100
0010
0100
,  // measure 62
0001
0010
0001
0000
0010
0001
0010
0000
,  // measure 63
0001
0000
0010
0000
0100
1000
0100
0000
,  // measure 64
1000
0001
0100
0010
,  // measure 65
0100
0001
0010
0001
,  // measure 66
1000
0100
2000
0000
,  // measure 67
3020
0000
0000
0000
,  // measure 68
0030
0000
0000
0000
;

//---------------dance-single - ----------------
#NOTES:
     dance-single:
     :
     Challenge:
     14:
     0.704954,0.881551,0.660745,0.292735,0.698382,590.000000,511.000000,79.000000,35.000000,0.000000,0.000000,0.704954,0.881551,0.660745,0.292735,0.698382,590.000000,511.000000,79.000000,35.000000,0.000000,0.000000:
// measure 0
0000
0000
0000
0000
,  // measure 1
0000
0000
0000
0000
,  // measure 2
1000
0000
0001
0000
1000
0010
0000
1000
0000
0001
1000
0000
0010
0100
0000
0010
,  // measure 3
0100
0000
0001
0000
1000
0010
0000
1000
0000
0010
0100
0000
0001
0010
0000
0110
,  // measure 4
0000
0000
1000
0000
0100
0001
0000
0100
0000
1000
0010
0000
0001
0010
0000
1010
,  // measure 5
0000
0000
0110
0000
0000
0011
0000
0000
1010
0000
0000
0101
0000
0000
0110
0000
,  // measure 6
0010
0000
1000
0000
0001
1000
0000
1001
0000
0001
0100
0000
0010
0100
0000
0001
,  // measure 7
0100
0000
0010
0000
1000
0010
0000
1000
0000
0010
1000
0000
1000
0001
0000
0101
,  // measure 8
0000
0000
0001
0000
0100
0010
0000
1010
0000
1000
0010
0000
0100
0001
0000
1000
,  // measure 9
0001
0000
1000
0000
0010
1000
0000
0001
0000
0100
0001
0000
0001
1000
0000
1000
,  // measure 10
0010
0000
0010
0000
0100
0001
0000
1000
0000
0010
1000
0000
0001
0100
0001
0000
,  // measure 11
0010
0000
0010
0000
1000
0001
0000
0100
0000
0001
1000
0000
1000
0010
1000
0000
,  // measure 12
0110
0000
0101
0000
0001
0010
0001
0010
0100
0000
0000
0000
1002
0000
0000
0000
,  // measure 13
0203
0000
0010
0320
0000
1000
2030
0000
,  // measure 14
0000
3001
0120
2030
,  // measure 15
3002
0000
0103
0020
0000
1030
0002
0000
,  // measure 16
0103
0010
0100
0000
0001
0000
1000
0000
,  // measure 17
0101
0000
0000
0000
0001
0000
0000
0100
0001
0000
1000
0000
0020
0000
0000
0000
,  // measure 18
1000
0000
0000
0000
0031
0000
0000
0001
0100
0010
0100
0000
0001
0000
0000
0000
,  // measure 19
0010
0000
1000
0000
0010
0000
0000
0001
1000
0000
0010
0000
0110
0000
0000
0000
,  // measure 20
1000
0000
0100
0000
0010
0001
0000
0010
0100
0000
0000
0000
1010
0000
0000
0000
,  // measure 21
0110
0000
0100
0001
0000
1001
0000
2020
,  // measure 22
3030
0000
0101
0000
0110
0110
0000
1001
,  // measure 23
0000
0000
2200
0000
3300
0000
0001
0010
0100
0000
0000
0000
1001
0000
1001
0000
,  // measure 24
0000
0101
0000
2200
3300
0001
0100
1000
,  // measure 25
0100
0001
0011
0000
1010
1010
0000
0101
,  // measure 26
0000
2002
3003
0000
1010
0000
1000
1001
,  // measure 27
0000
0202
0303
0000
1010
0000
1000
1001
,  // measure 28
0000
0022
0033
0000
1001
0000
1000
0010
,  // measure 29
0101
0000
0100
0010
1001
0000
1100
0000
,  // measure 30
0101
0000
1100
0000
0001
0010
0100
0010
,  // measure 31
0001
0000
0010
0000
1000
0000
0010
0000
0001
0010
0001
0010
0001
0010
0001
0010
,  // measure 32
0001
1000
0001
1000
0001
1000
0001
1000
0002
0000
0000
0000
0000
0000
0000
0000
,  // measure 33
0000
0000
0000
0000
,  // measure 34
2000
0000
3003
0000
1001
0000
0000
0000
0101
0000
0000
0000
0100
0000
0001
1000
,  // measure 35
0001
0010
0100
0001
0100
0000
1001
0000
,  // measure 36
1100
0000
0000
0110
0000
0000
0001
0000
0200
0000
0000
0000
0310
0000
0100
1000
,  // measure 37
0100
0000
0010
0000
0100
0000
0001
1000
0001
0000
0000
0000
0011
0000
0000
0000
,  // measure 38
0110
0000
0000
1100
0000
0000
1000
0100
0001
0000
0000
0000
0100
0000
1000
0001
,  // measure 39
0010
0001
1000
0100
1000
0010
0000
0100
,  // measure 40
0001
1000
0001
0000
0010
0000
0100
0000
2000
0000
0000
0000
3100
0000
0010
0001
,  // measure 41
0100
0000
0001
0000
0010
0000
0100
0000
0001
0000
0100
1000
0100
0000
1000
0001
,  // measure 42
1000
0010
0110
0100
0101
0000
1000
1001
,  // measure 43
0000
0011
0000
2020
0000
3030
0010
0001
,  // measure 44
0100
0000
1000
0000
0100
0000
0001
1000
0001
0000
0000
0000
0100
0000
0110
0000
,  // measure 45
0000
1001
0000
0022
0000
0033
0101
0000
,  // measure 46
0110
0000
0000
1010
0000
0000
1100
0000
0102
0000
0100
0000
1003
0000
0010
1000
,  // measure 47
0001
0000
2000
0000
0000
0000
3001
0010
0001
0000
0100
0000
0000
0000
0100
0010
,  // measure 48
0100
0000
0001
1000
0001
0000
0100
0000
1001
0000
0000
0000
1000
0010
0100
0000
,  // measure 49
0010
0000
0000
1000
0000
0000
0001
0000
0010
0000
0001
0000
0010
0000
0000
0100
0000
0000
0010
0000
0000
0100
0000
0000
,  // measure 50
1001
0000
0000
0000
0101
0000
0000
0000
0100
0000
0100
0000
0010
1000
0000
1000
,  // measure 51
0001
0010
0100
0000
1000
0001
0000
1000
0001
0000
0001
0000
0010
0100
0000
1000
,  // measure 52
0010
0000
0100
0000
0001
0010
0000
1000
0010
0000
0001
0000
0100
1000
0100
0001
,  // measure 53
0000
1000
0100
0000
0010
0100
0000
0010
0001
0000
1000
0000
0010
0001
0000
0010
,  // measure 54
1000
0000
0000
0000
0100
0000
0000
0000
0010
0000
0000
0000
0001
0000
0000
0000
0010
0000
0000
0000
0100
0000
0000
0000
1000
0000
0000
0100
0000
0000
1000
0000
0000
0100
0000
0000
1000
0000
0000
0010
0000
0000
0100
0000
0000
0010
0000
0000
,  // measure 55
0100
0010
0001
0010
0001
0000
0010
0000
1000
0010
1000
0010
0001
0010
0001
0010
,  // measure 56
0100
0010
0100
0010
1000
0000
0001
0000
0010
0100
0010
0100
0010
0100
0010
0100
,  // measure 57
1000
0001
1000
0001
1000
0001
1000
0001
0010
0000
0000
0110
0000
0000
0101
0000
,  // measure 58
0000
1001
0000
0000
1010
0000
0000
0110
0000
0000
0101
0000
0000
0001
0000
1000
,  // measure 59
0001
0000
1000
0001
0100
0000
0000
0100
0010
0000
0000
1000
0000
0010
1000
0100
,  // measure 60
1000
0000
0100
0010
0000
0001
1000
0001
0010
0000
0001
0000
0100
0010
0000
1000
,  // measure 61
0010
0000
1000
0000
0100
1000
0000
0001
1000
0000
0000
0010
0000
0100
0010
0100
,  // measure 62
0001
0000
0000
1000
0000
0000
0001
0000
0000
0101
0000
0000
1000
0000
0100
0000
0010
0000
0001
0000
0001
0000
1000
0000
,  // measure 63
1000
0100
0010
0001
0010
0100
1000
0001
1000
0000
0001
0000
2001
0000
0000
0000
,  // measure 64
3001
0000
0000
0000
0000
0000
0000
0000
0000
0101
0000
0000
0000
0000
0000
0000
0000
0000
0100
0000
0000
0000
0000
0000
1000
0000
0000
0000
0100
0000
0000
0000
0001
0000
0000
0000
1000
0000
0000
0000
0010
0000
0000
0000
0001
0000
0000
0000
,  // measure 65
0100
0010
1000
0100
0001
0100
1000
0010
0001
0010
1000
0100
,  // measure 66
0010
0001
0100
0010
1000
0100
0002
0000
0000
0000
0000
0000
,  // measure 67
0200
0000
0000
0000
,  // measure 68
0303
0000
0000
0000
;
