#TITLE:Area 184;
#SUBTITLE:;
#ARTIST:PERSONA;
#TITLETRANSLIT:;
#SUBTITLETRANSLIT:;
#ARTISTTRANSLIT:;
#GENRE:;
#CREDIT:;
#BANNER:Area 184.png;
#BACKGROUND:Area 184-bg.png;
#LYRICSPATH:;
#CDTITLE:;
#MUSIC:Area 184.ogg;
#OFFSET:-1.760000;
#SAMPLESTART:87.876991;
#SAMPLELENGTH:15.000000;
#SELECTABLE:YES;
#BPMS:0.000000=184.000000
;
#STOPS:
;
#BGCHANGES:;
#KEYSOUNDS:;
#ATTACKS:;

//---------------dance-single - ----------------
#NOTES:
     dance-single:
     :
     Beginner:
     2:
     0.104543,0.166688,0.000000,0.374032,0.000000,90.000000,90.000000,0.000000,46.000000,0.000000,0.000000,0.104543,0.166688,0.000000,0.374032,0.000000,90.000000,90.000000,0.000000,46.000000,0.000000,0.000000:
0000
0000
0000
0000
,
0000
0000
0000
0000
,
0000
0000
0000
0000
,
0001
0000
0000
0000
,
1000
0000
0000
0000
,
0002
0000
0000
0000
,
0203
0000
0000
0000
,
0320
0000
0000
0000
,
2030
0000
0000
0000
,
3200
0000
0000
0000
,
0320
0000
0000
0000
,
0031
0000
0000
0000
,
1000
0000
0000
0000
,
0001
0000
0000
0000
,
0100
0000
0000
0000
,
0010
0000
0000
0000
,
1000
0000
0000
0000
,
0010
0000
0000
0000
,
0100
0000
0000
0000
,
0001
0000
0000
0000
,
1000
0000
0000
0000
,
0002
0000
0000
0000
,
0023
0000
0000
0000
,
0230
0000
0000
0000
,
2300
0000
0000
0000
,
3002
0000
0000
0000
,
0023
0000
0000
0000
,
0032
0000
0000
0000
,
0203
0000
0000
0000
,
0320
0000
0000
0000
,
2030
0000
0000
0000
,
3200
0000
0000
0000
,
0320
0000
0000
0000
,
0032
0000
0000
0000
,
1003
0000
0000
0000
,
1000
0000
0000
0000
,
0100
0000
0000
0000
,
0100
0000
0000
0000
,
0010
0000
0000
0000
,
0001
0000
0000
0000
,
1000
0000
1000
0000
,
0001
0000
0000
0000
,
0001
0000
0000
0000
,
0001
0000
0000
0000
,
1000
0000
0000
0000
,
1000
0000
0000
0000
,
0010
0000
0010
0000
,
0100
0000
0000
0000
,
0100
0000
0000
0000
,
0001
0000
0000
0000
,
2000
0000
0000
0000
,
3200
0000
0320
0000
,
0032
0000
0000
0000
,
0023
0000
0000
0000
,
0230
0000
0320
0000
,
0230
0000
0000
0000
,
0320
0000
0000
0000
,
0032
0000
0000
0000
,
2003
0000
3200
0000
,
2300
0000
0000
0000
,
3020
0000
0000
0000
,
0230
0000
0000
0000
,
0302
0000
0000
0000
,
0023
0000
0000
0000
,
0032
0000
0000
0000
,
2003
0000
0000
0000
,
3200
0000
0000
0000
,
0320
0000
0000
0000
,
0031
0000
0001
0000
,
1000
0000
1000
0000
,
0200
0000
0000
0000
,
0320
0000
0000
0000
,
0031
0000
0001
0000
,
0001
0000
0000
0000
,
2000
0000
0000
0000
,
3200
0000
0000
0000
,
0320
0000
0000
0000
,
0032
0000
0000
0000
,
1003
0000
1000
0000
,
0001
0000
0001
0000
,
0100
0000
0000
0000
,
0100
0000
0000
0000
,
0001
0000
0000
0000
;

//---------------dance-single - ----------------
#NOTES:
     dance-single:
     :
     Easy:
     4:
     0.232318,0.300039,0.000000,0.561049,0.000000,200.000000,200.000000,0.000000,69.000000,0.000000,0.000000,0.232318,0.300039,0.000000,0.561049,0.000000,200.000000,200.000000,0.000000,69.000000,0.000000,0.000000:
0000
0000
0000
0000
,
0000
0000
0000
0000
,
0000
0000
0000
0000
,
1000
1000
0010
0000
,
0100
0100
0001
0000
,
0001
0001
0010
0000
,
0100
0100
1000
0000
,
0001
0001
0001
0000
,
0100
0100
0100
0000
,
0010
0010
0010
0000
,
1000
0000
1000
0000
,
0002
0000
2003
0000
,
3200
0000
0320
0000
,
0032
0000
2003
0000
,
3002
0000
0203
0000
,
0320
0000
2030
0000
,
3020
0000
0230
0000
,
0302
0000
2003
0000
,
3002
0000
0203
0000
,
0310
1000
0010
0000
,
1000
0100
1000
0000
,
0200
0000
0320
0000
,
0032
0000
2003
0000
,
3001
0001
0100
0000
,
0010
1000
0020
0000
,
0230
0000
0302
0000
,
2003
0000
3002
0000
,
0023
0000
0032
0000
,
0203
0000
0320
0000
,
2030
0000
3200
0000
,
0320
0000
0032
0000
,
1003
0000
0100
0000
,
0010
0000
0002
0000
,
2003
0000
0000
0000
,
3010
0000
0100
0010
,
0100
0000
0010
1000
,
0010
0000
1000
0000
,
0001
0000
1000
0001
,
1000
0000
0000
0001
,
0000
0000
1000
0010
,
1000
0000
0100
0000
,
0010
0000
0001
0000
,
0020
0000
0032
0000
,
0203
0000
0320
0000
,
2030
0000
3200
0000
,
0320
0000
0032
0000
,
1003
1000
1000
0000
,
0010
0010
0010
0000
,
0100
0100
0100
0000
,
0001
0001
0001
0000
,
2000
0000
3020
0000
,
0230
0000
0302
0000
,
0023
0100
0130
1000
,
1000
0100
0010
0001
,
0002
0000
2003
0000
,
3200
0000
2300
0000
,
0020
3000
0230
0000
,
0302
0000
2003
0000
,
3002
0000
0023
0000
,
0031
0001
2000
0000
,
3200
0000
1300
1000
,
0020
0000
0230
0000
,
0302
0000
0013
0010
,
0200
0000
2300
0000
,
3002
0000
0023
0000
,
0032
0000
0203
0000
,
0310
0010
0010
0000
,
1000
0000
0001
0000
,
1000
1000
1000
1000
,
1000
1000
1000
1000
,
0001
0000
0001
0000
,
0001
0000
0001
0000
,
0001
0001
0001
0001
,
0001
0001
0001
0001
,
0100
0000
0100
0000
,
0100
0000
0100
0000
,
0100
0100
0100
0100
,
0100
0100
0100
0100
,
0010
0000
0010
0000
,
0010
0000
0010
0000
,
0010
0010
0010
0010
,
0010
0010
0010
0010
,
1000
0000
0000
0000
;

//---------------dance-single - ----------------
#NOTES:
     dance-single:
     :
     Medium:
     10:
     0.437920,0.533403,0.146361,0.365901,0.000000,377.000000,359.000000,18.000000,45.000000,0.000000,0.000000,0.437920,0.533403,0.146361,0.365901,0.000000,377.000000,359.000000,18.000000,45.000000,0.000000,0.000000:
0000
0000
0000
0000
,
0000
0000
0000
0000
,
0000
0000
0000
0000
,
1000
0001
1000
0000
0001
0000
1000
0000
,
0010
0100
0010
0000
0100
0000
0010
0000
,
1000
0100
1000
0010
,
0100
0100
0101
0001
,
0010
0001
0100
0010
,
1000
0100
1000
0000
0001
0000
0010
0000
,
0001
0100
0010
1000
,
0100
1000
0100
0000
0010
0000
0001
0000
,
1000
0001
1000
0100
,
1000
0010
0100
0001
,
0020
0100
0130
1000
,
0100
1000
0010
0100
,
0002
0010
0013
0100
,
1000
0100
0010
0001
,
2000
0010
3010
0100
,
0001
0010
0100
1000
,
0002
1000
1003
0020
,
0100
0130
0002
1000
,
1003
0020
0100
0130
,
0002
1000
1003
0010
,
0200
0010
0310
1000
,
0002
1000
1003
0010
,
0200
0001
0301
0010
,
2000
0100
3100
0010
,
0102
0100
1003
0010
,
2010
0100
3001
0100
,
1010
1000
0001
0100
,
0010
1000
0100
0010
,
0001
1000
0001
0000
1000
0000
0100
0000
,
0010
0100
1000
0001
,
0020
0001
0031
1000
,
0010
0100
0100
0001
,
1000
0001
1000
0100
,
1100
0000
0010
0100
0000
0100
0010
0000
,
0010
1000
0000
0000
1000
0001
1000
0000
,
0001
0000
0100
0010
0000
0010
0100
0000
,
0100
0001
0000
0001
1000
0000
0100
0000
,
1000
0010
0100
0001
,
0010
0000
0001
0000
1000
0010
1000
0000
,
0001
0100
0001
0000
0100
0010
0100
0000
,
0010
1000
0010
0000
1000
0000
0100
0000
,
0010
0001
0010
0000
0001
0010
0001
0000
,
0010
0001
0010
0000
0001
0000
0100
0000
,
0010
0100
0010
0000
0100
0010
0100
0000
,
0010
0100
0010
0000
1000
0000
0100
0000
,
1000
0100
1000
0000
0100
1000
0100
0000
,
1000
0100
1000
0000
0010
0000
0100
0000
,
0002
0010
0013
0100
,
2000
0001
3001
0010
,
0200
0010
0320
1000
,
0230
0001
2300
0001
,
3020
0001
0230
0010
,
2300
0001
3200
0010
,
2300
0001
3200
0010
,
2300
0001
3200
0010
,
2300
0010
3200
0010
,
2300
0001
3200
0010
,
2300
0100
3020
0001
,
0230
0010
2300
0001
,
3200
0010
2300
0001
,
3020
0001
0230
0010
,
2300
0100
3020
0001
,
0230
0010
2300
0001
,
3100
0010
1000
0000
0001
0000
1000
0001
,
1000
0000
0001
1000
0000
1000
0010
0000
,
0110
0101
0011
0110
,
1100
0000
1010
0000
0100
0001
0010
0000
,
1000
0001
1000
0000
0001
0010
0000
0010
,
0100
0000
0100
1000
0000
1000
0010
0000
,
0110
0000
0100
0001
0000
0001
0010
0000
,
0010
0100
0000
0100
1000
0010
1000
0000
,
1001
0000
0001
0100
0000
0100
0010
0000
,
0010
1000
0000
1000
0100
1000
0001
0000
,
0011
0000
0100
1000
0100
1000
0000
0010
,
0000
0100
0000
0001
0010
0001
0010
0000
,
0001
1000
0000
0010
1000
0000
0100
1000
,
0000
0001
1000
0000
0010
0000
0100
0000
,
0101
0011
0110
1100
,
1000
0001
1000
0000
0001
0010
0001
0000
,
0100
0000
0000
0000
;

//---------------dance-single - ----------------
#NOTES:
     dance-single:
     :
     Hard:
     12:
     0.579634,0.566740,0.406557,0.406557,0.016262,499.000000,449.000000,50.000000,50.000000,0.000000,0.000000,0.579634,0.566740,0.406557,0.406557,0.016262,499.000000,449.000000,50.000000,50.000000,0.000000,0.000000:
// measure 0
0000
0000
0000
0000
,  // measure 1
0000
0000
0000
0000
,  // measure 2
0000
0000
0000
0000
,  // measure 3
0001
1000
0001
0010
0000
1100
0000
0000
,  // measure 4
1000
0100
1000
0010
0000
0101
0000
0000
,  // measure 5
0001
0010
0001
0100
0000
1010
0000
0000
,  // measure 6
1000
0100
0001
0100
0000
1000
0010
0000
,  // measure 7
0001
0010
1000
0100
0000
0010
0001
0000
,  // measure 8
0200
0000
0310
1000
0000
0001
1000
0000
,  // measure 9
0100
0010
0000
0011
0000
0101
0000
0000
,  // measure 10
0100
0010
0000
1010
0000
1000
0010
1000
,  // measure 11
0001
0010
0001
0000
0100
0010
0100
0000
,  // measure 12
0010
1000
0010
0000
1000
0100
0001
0000
,  // measure 13
1000
0010
0001
0000
0001
0010
1000
0000
,  // measure 14
1000
0100
0001
0000
0001
0100
1000
0000
,  // measure 15
0102
0000
0013
0000
0010
0100
0001
0000
,  // measure 16
2001
0000
3010
0000
0100
0001
0010
0000
,  // measure 17
1002
0000
0013
0000
0100
1000
0010
0000
,  // measure 18
0210
0000
0301
0000
0001
1000
0010
1000
,  // measure 19
0200
0000
0310
0001
0000
0001
1000
0000
,  // measure 20
0001
0010
0100
0010
0001
1000
0001
0000
,  // measure 21
1000
0100
0010
0100
1000
0001
1000
0000
,  // measure 22
0010
0100
0001
0000
0001
0100
0010
0000
,  // measure 23
2010
3010
0201
0301
,  // measure 24
0021
0031
0210
0310
,  // measure 25
2100
3100
0210
0310
,  // measure 26
0021
0031
2002
3003
,  // measure 27
1000
0001
1000
0000
1020
0000
1030
0000
,  // measure 28
0120
0000
0130
0000
0012
0000
0013
0100
,  // measure 29
2000
3001
0021
0031
,  // measure 30
2001
0000
3100
0000
0010
0001
1000
0000
,  // measure 31
0001
1000
0020
0000
0130
0000
0001
0000
,  // measure 32
0020
0031
2001
3100
,  // measure 33
1000
0001
0000
1000
0001
0000
1000
0001
0000
1000
0001
0000
0010
0000
0000
0000
,  // measure 34
1001
0000
1000
0100
0000
0100
0010
0000
,  // measure 35
0010
0001
0000
0001
1000
0000
1100
0000
,  // measure 36
0110
0000
0010
0001
0000
0001
0100
0000
,  // measure 37
0010
1000
0000
1000
0001
0010
0001
0000
,  // measure 38
0101
0000
0100
0010
0000
0010
1000
0000
,  // measure 39
1000
0001
0000
0001
0010
0000
0110
0000
,  // measure 40
1100
0000
1000
0001
0000
0001
0010
0000
,  // measure 41
0001
0100
0001
0100
0010
1000
0010
1000
,  // measure 42
0100
0010
0100
0010
0001
1000
0001
1000
,  // measure 43
0010
1000
0010
1000
0001
0100
0001
0100
,  // measure 44
0010
1000
0010
1000
0010
1000
0010
1000
,  // measure 45
0001
1000
0001
1000
0001
1000
0001
1000
,  // measure 46
0010
0100
0001
0100
0010
1000
0100
1000
,  // measure 47
0010
1000
0001
1000
0010
1000
0100
1000
,  // measure 48
0001
0010
0100
0010
1000
0010
0100
0010
,  // measure 49
0002
0000
0000
0003
,  // measure 50
0210
0301
0201
1300
,  // measure 51
0102
0000
0013
0000
0200
1000
1300
0000
,  // measure 52
2000
0001
3100
0000
0020
0100
0031
0000
,  // measure 53
2000
0001
3100
0000
0020
1000
0130
0000
,  // measure 54
2000
0001
3010
0000
0002
0100
1003
0000
,  // measure 55
0200
0001
0310
0000
2000
0010
3001
0000
,  // measure 56
0200
0010
0301
0010
1000
0100
0010
0000
,  // measure 57
0100
0001
0100
1000
0010
0100
0010
0000
,  // measure 58
0210
0000
0310
0000
2000
0100
3100
0000
,  // measure 59
0020
0001
0031
0000
0200
0010
0310
0000
,  // measure 60
0020
1000
1030
0000
0200
0000
0301
0000
,  // measure 61
0200
0010
0310
0000
0002
0100
0013
0000
,  // measure 62
2100
0010
0001
0100
,  // measure 63
3020
0230
0302
1000
,  // measure 64
1003
0100
0001
0100
1000
0010
0100
0000
,  // measure 65
0001
0010
1000
0010
0001
0100
0010
0000
,  // measure 66
1000
0001
0100
0000
0010
1000
0000
1000
,  // measure 67
0100
0000
0100
0010
0000
0010
0001
0000
,  // measure 68
0101
0110
1010
1100
,  // measure 69
0110
0000
0011
0000
0001
0100
0001
1000
,  // measure 70
0010
0100
0001
0000
0100
0010
0000
0010
,  // measure 71
1000
0000
1000
0100
0000
0100
0001
0000
,  // measure 72
1100
0000
1000
0010
0000
0010
0001
0000
,  // measure 73
0010
1000
0000
1000
0001
0010
0001
0000
,  // measure 74
0100
0001
0100
0010
0000
1000
0001
0010
,  // measure 75
0001
0100
0000
0010
1000
0100
1000
0000
,  // measure 76
1001
0000
0001
0100
0000
0110
0000
1010
,  // measure 77
0000
1001
0000
0001
0100
0010
1000
0010
,  // measure 78
0100
0001
0010
0100
0000
1000
0010
0001
,  // measure 79
0010
1000
0000
0100
0001
0100
1000
0010
,  // measure 80
0100
0101
0011
0110
,  // measure 81
0100
1000
0001
0010
0001
0100
0010
0000
,  // measure 82
1001
0000
0000
0000
;

//---------------dance-single - ----------------
#NOTES:
     dance-single:
     :
     Challenge:
     15:
     0.727156,0.833442,0.601704,0.463475,0.239869,626.000000,552.000000,74.000000,57.000000,0.000000,0.000000,0.727156,0.833442,0.601704,0.463475,0.239869,626.000000,552.000000,74.000000,57.000000,0.000000,0.000000:
// measure 0
0000
0000
0000
0000
,  // measure 1
0000
0000
0000
0000
,  // measure 2
0000
0000
0000
0000
,  // measure 3
0001
0010
0100
1000
0000
1001
0000
0000
,  // measure 4
1000
0100
0010
0001
0000
1001
0000
0000
,  // measure 5
0001
0000
0010
0000
0001
0000
0010
0001
0010
0000
0001
0000
1001
0000
0000
0000
,  // measure 6
1000
0100
1000
0000
0001
0000
0100
0000
0000
0000
0100
0000
0010
0000
0000
0000
,  // measure 7
1000
0001
1000
0000
0010
0000
0100
0000
0010
0000
1000
0000
0001
0000
0000
0000
,  // measure 8
0200
0010
0310
1000
0001
0100
0001
0000
,  // measure 9
1000
0001
1000
0000
0001
0000
0011
0000
0000
0000
0101
0000
0000
0000
0000
0000
,  // measure 10
0100
0010
0100
0000
0001
0000
0101
0000
0000
0000
1000
0000
0010
0000
1000
0000
,  // measure 11
0001
0010
0001
0000
0100
0000
0001
0000
0100
0010
0100
0000
0001
0000
1000
0000
,  // measure 12
0010
1000
0010
0000
0100
0000
0000
0000
0001
0010
0001
0000
1000
0000
0100
0000
,  // measure 13
1000
0001
1000
0000
0001
0000
0100
0000
0001
0010
0001
0000
1000
0100
1000
0000
,  // measure 14
0010
0100
0010
0100
0001
0100
0001
0000
1000
0000
0010
0000
1000
0010
1000
0000
,  // measure 15
1002
0000
0013
0000
0010
1000
0010
0000
,  // measure 16
0201
0000
0310
1000
0100
0001
0100
0000
,  // measure 17
1002
0000
0013
0100
1000
0001
1000
0000
,  // measure 18
0210
0000
0301
0000
0001
1000
0010
1000
,  // measure 19
0200
0000
0310
0001
0100
0001
2001
0000
,  // measure 20
3001
0010
0100
0010
0001
1000
0001
0000
,  // measure 21
1000
0100
0010
0100
1000
0001
1001
0000
,  // measure 22
0010
0100
0001
0010
0001
0100
0010
1000
,  // measure 23
2001
0000
3001
0000
0201
0001
0301
0000
,  // measure 24
0021
0000
0031
0000
1200
1000
1300
0000
,  // measure 25
2010
0000
3010
0000
0210
0010
0310
0000
,  // measure 26
1020
1030
2002
3003
,  // measure 27
0001
1000
0001
0010
0012
0000
1003
0000
,  // measure 28
0120
0000
1030
0000
0012
0000
0013
1000
,  // measure 29
0020
0001
0031
0000
1000
0001
0100
0000
,  // measure 30
2001
0000
3100
0000
0010
0001
1000
0000
,  // measure 31
0001
1000
0020
0000
0130
0100
0001
1000
,  // measure 32
2010
0000
3001
0000
0021
0001
0031
0000
,  // measure 33
1000
0100
0000
0010
0001
0000
0010
0100
0000
1000
0010
0000
0100
0000
0100
0000
,  // measure 34
1001
0000
0010
0100
0001
0000
0001
0010
,  // measure 35
0001
0100
0010
0000
1001
0000
0101
0000
,  // measure 36
0110
0000
0010
1000
0001
0000
0100
0001
,  // measure 37
1000
0010
1010
0000
0001
0001
0100
0000
,  // measure 38
1100
0000
0100
0001
0000
0001
1000
0000
,  // measure 39
1000
0001
0000
0001
0010
0000
0110
0000
,  // measure 40
1100
0000
1000
0001
0000
0001
0010
0000
,  // measure 41
0001
0100
0001
0100
0001
0000
0100
0000
0010
1000
0010
1000
0010
0000
1000
0000
,  // measure 42
0001
0010
0001
0000
0100
0000
0010
0000
1000
0100
1000
0000
0001
0000
0010
0000
,  // measure 43
0001
1000
0001
0000
0010
0000
0100
0000
1000
0100
1000
0000
0010
0000
0100
0000
,  // measure 44
0010
0001
0010
0000
1000
0000
0001
0000
1000
0010
1000
0000
0010
0000
1000
0000
,  // measure 45
0001
0100
0001
0000
0010
0000
0100
0000
1000
0001
0100
0000
0001
0000
0010
0000
,  // measure 46
0001
1000
0010
0000
1000
0000
0001
0000
1000
0010
0100
0000
0001
0000
1000
0000
,  // measure 47
0010
1000
0001
0000
0100
0000
0010
0000
1000
0001
0000
0001
0100
0000
0010
0000
,  // measure 48
1000
0001
0100
0000
0001
1000
0010
0000
1000
0001
0100
0000
0010
0100
0001
0000
,  // measure 49
1001
0000
0000
0000
,  // measure 50
2020
3030
1001
0000
0202
0303
1001
0000
,  // measure 51
0022
0033
0101
0000
2200
3300
2002
3003
,  // measure 52
0022
0033
0101
0000
2002
3003
0110
0000
,  // measure 53
2020
3030
0110
0000
2000
0100
3100
0000
,  // measure 54
0002
0100
0103
0000
2000
0010
3010
0000
,  // measure 55
0002
0010
0013
0000
2000
0100
3001
0000
,  // measure 56
0200
1000
0301
0010
0001
1000
0010
0000
,  // measure 57
0100
0000
0001
0000
0010
0000
0001
0000
1000
0001
1000
0000
0010
0000
0100
0000
,  // measure 58
0210
0000
0310
0000
2100
0100
3001
0000
,  // measure 59
0200
1000
1300
0001
0200
0010
0310
1000
,  // measure 60
1020
1000
0130
0100
0201
0001
1300
0000
,  // measure 61
0201
0001
0310
0000
0002
0100
0013
1000
,  // measure 62
2100
0100
0100
0000
0001
0001
0001
0000
,  // measure 63
3020
0130
0020
0031
,  // measure 64
1000
0010
0001
0010
1000
0010
0100
0000
,  // measure 65
0001
0000
0100
0000
1000
0000
0100
0000
0001
0100
0010
0000
1000
0000
0000
0000
,  // measure 66
1000
0000
0001
1000
0010
0000
0100
0000
0001
0010
0001
0000
0100
0000
0010
0000
,  // measure 67
1000
0100
1000
0000
0100
0000
0010
0000
0001
0000
1000
0000
0001
0000
0000
0000
,  // measure 68
0011
0110
1100
1001
,  // measure 69
0101
0000
0011
0000
0001
0100
0001
1000
,  // measure 70
0010
0000
0100
0000
0001
0000
0010
0000
0001
1000
0001
0000
1000
0000
0010
0000
,  // measure 71
1000
0100
1000
0000
0001
0000
0100
0000
1000
0000
0100
0000
0011
0000
0001
0000
,  // measure 72
1100
0000
1000
0101
0000
0001
0110
0000
,  // measure 73
0010
1100
0000
1000
0010
0100
0010
0000
,  // measure 74
1000
0000
1000
0000
0010
0000
0100
0000
0001
0000
1000
0000
0001
0100
0001
0000
,  // measure 75
0100
0000
0010
1000
0010
0000
1000
0000
0001
1000
0001
0000
1000
0000
0000
0000
,  // measure 76
0110
0000
0001
0100
0000
1100
0000
0101
,  // measure 77
0000
0000
1001
0000
0000
0000
1000
0000
0001
0010
0001
0000
1000
0000
0010
0000
,  // measure 78
0100
0001
0100
0000
0001
0000
1000
0001
1000
0000
0010
0000
1000
0100
1000
0000
,  // measure 79
0001
0000
0010
0001
0010
0000
0100
0000
1000
0001
1000
0000
0010
0100
0010
0000
,  // measure 80
0100
0101
0011
0110
,  // measure 81
0100
1000
0001
0000
1000
0000
0010
0000
0100
0000
0001
0000
0010
0000
0100
0000
,  // measure 82
1001
0000
0000
0000
;
