#TITLE:Area 184 (Platinum Mix);
#SUBTITLE:;
#ARTIST:PERSONA;
#TITLETRANSLIT:;
#SUBTITLETRANSLIT:;
#ARTISTTRANSLIT:;
#GENRE:;
#CREDIT:;
#BANNER:Area 184 -Platium Mix-.png;
#BACKGROUND:Area 184 -Platium Mix--bg.png;
#LYRICSPATH:;
#CDTITLE:;
#MUSIC:Area 184 -Platium Mix-.ogg;
#OFFSET:-3.880000;
#SAMPLESTART:95.216995;
#SAMPLELENGTH:15.000000;
#SELECTABLE:YES;
#BPMS:0.000000=184.000000
;
#STOPS:
;
#BGCHANGES:;
#KEYSOUNDS:;
#ATTACKS:;

//---------------dance-single - ----------------
#NOTES:
     dance-single:
     :
     Beginner:
     3:
     0.129576,0.218069,0.000000,0.042385,0.000000,107.000000,107.000000,0.000000,5.000000,0.000000,0.000000,0.129576,0.218069,0.000000,0.042385,0.000000,107.000000,107.000000,0.000000,5.000000,0.000000,0.000000:
0000
0000
0000
0000
,
0000
0000
0000
0000
,
1000
0000
0000
0000
,
0100
0000
1000
0000
,
0100
0000
0000
0000
,
0000
0000
1000
0000
,
0001
0000
0000
0000
,
0000
0000
1000
0000
,
0010
0000
0000
0000
,
0000
0000
0000
0000
,
1000
0000
0001
0000
,
1000
0000
0000
0000
,
0010
0000
0000
0000
,
0100
0000
0000
0000
,
0010
0000
0000
0000
,
1000
0000
0000
0000
,
0001
0000
0000
0000
,
1000
0000
0000
0000
,
0100
0000
0000
0000
,
0010
0000
0000
0000
,
0001
0000
0000
0000
,
0100
0000
0000
0000
,
0010
0000
0000
0000
,
2000
0000
3200
0000
,
0320
0000
0032
0000
,
2003
0000
0000
3001
,
0000
0000
0000
1000
,
0000
0000
0000
0001
,
0000
0000
0000
1000
,
0000
0000
0000
0001
,
0000
0000
1000
0000
,
0000
0001
0000
0000
,
0000
0000
1000
0000
,
0000
0000
0000
0001
,
0000
0000
0000
1000
,
0000
0000
0000
0001
,
0000
0000
0000
1000
,
0000
0000
0000
0010
,
0000
0000
0000
1000
,
0000
0000
0000
0100
,
0000
0000
0000
1000
,
0000
0000
0000
0001
,
0000
0000
0000
1000
,
0000
0000
0000
0010
,
0000
0000
0000
1000
,
0000
0000
0000
0100
,
0000
0000
0000
0010
,
0000
0000
0000
0001
,
0000
0000
0000
1000
,
0000
0000
0000
0100
,
0000
0000
0000
0010
,
0000
0000
0000
0001
,
0000
0000
0000
1000
,
0000
0000
0000
0100
,
0000
0000
1000
0000
,
0000
0000
0100
0000
,
0000
0000
1000
0000
,
0000
0000
0010
0000
,
0000
0000
0000
1000
,
0000
0000
0000
0001
,
0000
0000
0000
0100
,
0000
0000
0000
0010
,
0000
0000
1000
0000
,
0000
0010
0000
0000
,
0000
1000
0000
0000
,
0010
0000
0000
1000
,
0000
0000
0010
0000
,
0100
0000
0010
0000
,
1000
0000
0010
0000
,
0000
0000
0000
1000
,
0100
1000
0000
0001
,
0000
0000
0010
0010
,
0010
0000
0000
0000
,
0100
0000
0000
1000
,
0000
0001
0000
1000
,
0000
0100
0000
1000
,
0000
0010
0000
0100
,
0000
0001
0000
0010
,
0000
0100
0000
1000
,
0000
0001
0000
1000
,
0000
0100
0000
0010
,
0000
0001
0000
1000
,
0000
0001
0000
1000
,
0000
0010
0000
0100
,
0000
0010
0000
1000
,
0000
0001
0000
1000
;

//---------------dance-single - ----------------
#NOTES:
     dance-single:
     :
     Easy:
     6:
     0.351188,0.473861,0.084769,0.203447,0.000000,290.000000,280.000000,10.000000,24.000000,0.000000,0.000000,0.351188,0.473861,0.084769,0.203447,0.000000,290.000000,280.000000,10.000000,24.000000,0.000000,0.000000:
0000
0000
0000
0000
,
0000
0000
0000
0000
,
1000
0000
1000
0000
,
0001
0000
0001
0001
,
0001
0000
0100
0000
,
0010
0000
1000
1000
,
1000
0000
0001
0000
,
0010
0000
0001
0000
,
0100
0000
0010
0000
,
0100
0000
0001
0000
,
1000
0001
1000
0000
,
0001
0010
0001
0000
,
0100
0010
0100
0000
,
0010
1000
0010
0000
,
1000
0100
1000
0100
,
0010
0001
0010
0001
,
0100
0010
0100
0010
,
1000
0001
1000
0001
,
0010
0100
0010
0100
,
0010
0100
0010
0100
,
0010
1000
0010
1000
,
0010
1000
0010
1000
,
0001
1000
0001
1000
,
0001
1000
0001
1000
,
0100
0010
0100
0010
,
0100
0010
0100
0010
,
0001
1000
0001
0000
,
2000
0000
3200
0000
,
0320
0000
0000
0000
,
0032
0003
1000
0100
,
1000
0000
0010
0100
,
0010
0000
1000
0000
,
0100
0000
0010
0001
,
0010
0000
0100
0000
,
1000
0000
0001
1000
,
0001
0000
0010
0000
,
0100
0000
0010
0000
,
0001
0001
0001
0001
,
1000
1000
1000
1000
,
0100
0100
0100
0100
,
0001
0001
0001
0001
,
0100
0100
0100
0100
,
1000
1000
1000
1000
,
0010
0010
0010
0010
,
0100
0100
0100
0100
,
0020
0000
2030
0000
,
3200
0000
0320
0000
,
0032
0000
0000
0000
,
2003
0000
3200
0000
,
2300
0000
3020
0000
,
0230
0000
0302
0000
,
2003
0000
3020
0000
,
2030
0000
0000
0000
,
3200
0000
0320
0000
,
0031
1000
0001
1000
,
0100
1000
0100
0010
,
0001
0010
0001
0100
,
0010
0100
0010
1000
,
0100
1000
0100
0010
,
0001
1000
0001
0100
,
0010
1000
0010
0100
,
0001
0010
0001
1000
,
0100
0100
0100
0100
,
0010
0010
0010
0010
,
0001
0001
0001
0001
,
1000
1000
1000
1000
,
0010
0010
0010
0100
,
0000
0100
0100
0100
,
0001
0001
1000
0001
,
1000
0010
1000
0010
,
1000
0100
0001
0100
,
1000
0010
0001
1000
,
0100
0001
1000
0010
,
0001
1001
1001
1001
,
0001
0100
1000
0001
,
0010
1000
0100
0001
,
0010
1000
0100
0001
,
0011
0011
1100
1100
,
0100
0010
0001
0100
,
0010
1000
0200
0320
,
0031
1000
0100
1000
,
0002
0013
0200
1300
,
0100
0010
0100
0010
,
0001
1000
1001
1001
,
0100
0010
0001
1000
,
0001
0100
0010
1000
,
1100
0000
0000
0000
;

//---------------dance-single - ----------------
#NOTES:
     dance-single:
     :
     Medium:
     11:
     0.455333,0.588300,0.178016,0.381463,0.000000,376.000000,355.000000,21.000000,45.000000,0.000000,0.000000,0.455333,0.588300,0.178016,0.381463,0.000000,376.000000,355.000000,21.000000,45.000000,0.000000,0.000000:
0000
0000
0000
0000
,
0000
0000
0000
0000
,
0010
0000
0100
0010
0000
1010
0000
0000
,
0000
1100
0000
0000
1010
0000
0110
0000
,
0101
0000
0000
0010
0000
0000
0100
0000
,
0000
1000
0000
0000
0010
0100
0010
0000
,
0100
0000
0000
0001
0000
0000
0010
0000
,
0000
0001
0000
0000
1000
0000
0100
0000
,
1000
0000
0000
0010
0000
0000
0100
0000
,
0000
0010
0000
0000
1000
0000
0100
0000
,
0010
0001
0010
0001
0010
0001
0010
0000
,
1000
0100
1000
0100
1000
0100
1000
0000
,
0001
1000
0001
0100
,
0010
1000
0010
0100
,
0001
0010
0001
0000
1000
0100
1000
0000
,
0010
0100
0010
0000
0100
0001
0100
0000
,
0010
1000
0010
0000
0100
0001
0100
0000
,
0001
1000
0001
0000
1000
0010
1000
0000
,
0010
0100
0001
0010
,
0100
1000
0001
1000
,
1010
0010
0100
0001
,
0011
0010
0100
1000
,
0020
0230
0302
2003
,
3200
0320
0032
0203
,
0320
2030
3200
0320
,
0032
0203
0320
2030
,
3100
0010
0100
0010
,
0002
0000
2003
0000
,
3200
0000
1300
0010
,
1000
0100
0000
0010
,
0000
0001
0100
0010
,
0110
0000
1000
0100
,
1000
0000
0000
0000
0010
1000
0010
0000
,
0100
0001
1000
0001
,
1000
0010
0100
0110
,
0010
1000
0100
1000
,
0010
0100
0001
0010
,
0001
0010
0001
0000
1000
0100
1000
0000
,
0010
0100
0010
0000
1000
0001
1000
0000
,
0001
0100
0001
0000
0100
0010
0100
0000
,
0010
1000
0010
0000
1000
0100
1000
0000
,
0001
1000
0001
1000
,
0010
0100
0010
0100
,
0001
0010
0001
0010
,
0100
1000
0100
1000
,
0002
0000
0203
0000
,
0320
0000
2030
0000
,
3200
0000
2300
0000
,
3002
0000
0023
0000
,
0032
0000
0203
0000
,
0320
0000
2030
0000
,
3200
0000
0320
0000
,
0032
0000
2003
0000
,
3002
0000
0203
0000
,
0310
1000
0010
1000
,
0100
1000
0100
0000
1000
0001
1000
0000
,
0010
0000
0100
0000
0010
0100
0010
0000
,
1000
0000
0100
0000
1000
0100
1000
0000
,
0001
0000
0010
0000
0001
0010
0001
0000
,
0100
0000
0010
0000
0100
0010
0100
0000
,
0010
0000
1000
0000
0100
0001
0100
0000
,
1000
0010
0001
0010
,
1000
0001
1000
0001
,
0100
0010
0100
0010
,
1000
0100
1000
0001
,
0010
0001
0100
0010
,
1000
0100
1000
0100
,
0010
0001
0010
0000
0001
0000
0001
0000
,
0100
0010
0100
0000
0001
1000
0001
0000
,
1100
1000
0010
0100
,
0011
0011
1100
1100
,
0110
0110
1001
0100
,
0010
1000
0010
0000
1000
0100
1000
0000
,
0100
0001
0100
0000
1000
0010
0001
0000
,
0010
1000
0100
0000
0001
0100
1000
0000
,
0010
0001
0010
0000
1000
0000
0100
0000
,
0020
0032
0203
0320
,
2030
3200
2300
3001
,
0100
0010
0100
0000
0010
1000
0010
0000
,
1000
0100
1000
0000
0001
0000
0010
0000
,
0001
0100
0010
1000
,
1100
1100
1100
1100
,
0001
0010
0001
0000
0100
0010
0100
0000
,
0010
1000
0100
1000
,
0010
0100
0001
0010
,
0100
1000
0100
1000
0100
1000
0100
1000
,
0200
0000
0000
0300
;

//---------------dance-single - ----------------
#NOTES:
     dance-single:
     :
     Hard:
     15:
     0.764136,0.921868,0.398416,0.305170,0.351793,631.000000,584.000000,47.000000,36.000000,0.000000,0.000000,0.764136,0.921868,0.398416,0.305170,0.351793,631.000000,584.000000,47.000000,36.000000,0.000000,0.000000:
0000
0000
0000
0000
,
0000
0000
0000
0000
,
0001
0000
0100
0001
0000
0001
1000
0000
,
0010
1000
0000
1000
0010
0000
0101
0000
,
0011
0000
0010
0100
0000
0100
0001
0000
,
0100
1000
0000
0001
0100
1000
0100
0001
,
0010
0000
0001
0100
0000
0100
0010
0000
,
0010
1000
0010
0100
0001
0010
0100
1000
,
0001
1000
0001
0000
0100
0000
0010
0000
1000
0001
1000
0000
0010
0000
0100
0000
,
0001
0010
0001
0000
0010
0001
0010
0000
0001
1000
0001
0000
1000
0001
1000
0000
,
0010
0100
1000
0100
0010
1000
0100
0010
,
0001
0010
0100
1000
0001
0010
1000
0010
,
0001
0100
1000
0100
0001
0010
1000
0010
,
0001
0000
1000
0000
0100
0000
1000
0000
0010
0000
0100
0001
0010
0001
0010
0000
,
0001
1000
0001
0000
2000
0000
0010
0000
3020
0000
0100
0000
0130
0000
0000
0000
,
0001
0001
1000
0010
0100
0100
2000
0100
,
3001
1000
0001
0000
0200
0000
0000
0000
0310
0100
0010
0000
0200
0000
0000
0000
,
0301
0010
0001
0000
0010
0000
0100
0000
1000
0001
1000
0000
0010
0000
0100
0000
,
0201
0000
0301
0000
0010
0001
0100
0000
,
1020
1030
1200
1300
,
0012
0000
0013
0000
0010
0001
0100
0000
,
0120
0000
0130
0000
2010
0000
3010
0010
,
0210
0301
0021
0130
,
2100
3001
1002
0103
,
0010
1000
0100
0010
0001
1000
0010
0100
,
0010
0000
1000
0000
0001
0000
0100
0000
0010
1000
0010
0000
1000
0010
1000
0000
,
0010
0100
0010
0100
0010
1000
0010
1000
,
0001
0100
0001
0100
0010
1000
0010
1000
,
0001
0010
0001
0000
0010
0000
0100
0000
1000
0100
1000
0000
0001
0000
0100
0000
,
0110
0000
0010
1010
0000
1000
1100
0000
,
0000
0101
0000
0000
0011
0000
0110
0000
,
1100
0000
1000
1010
0000
0010
0011
0000
,
0010
1010
0000
1000
0010
0100
0101
0000
,
0011
0000
0000
0110
0000
0000
1100
0000
,
0000
1001
0000
0000
0011
0000
1001
0000
,
2010
0000
3010
0100
0201
0000
0301
0100
,
0010
1000
0010
0000
0010
0100
0010
0000
0100
0001
0100
0000
0100
0010
0100
0000
,
0001
0010
0001
0000
0010
0000
0100
0000
1000
0000
0100
0000
1000
0000
0001
0000
,
0010
0100
0010
0000
1000
0000
0010
0000
0001
0000
0010
0000
0100
0000
1000
0000
,
0001
0100
0001
0000
1000
0000
0010
0000
0100
0001
0100
0000
0001
0000
1000
0000
,
0100
0010
0100
0000
0010
0000
0001
0000
1000
0010
1000
0000
0100
0000
0100
0000
,
0001
0100
0001
0000
0100
0000
0010
0000
0001
0000
1000
0000
0010
0000
0100
0000
,
0001
0010
0001
0000
0010
0000
0100
0000
1000
0010
0100
0010
1000
0000
0001
0000
,
0100
0001
0010
1000
0010
0001
0100
0010
,
1000
0000
0100
0000
1000
0000
0010
0000
0100
0001
0100
0001
0100
0001
0100
0000
,
0002
0000
0200
0003
,
2000
0300
0002
3000
,
0020
0003
2000
0030
,
0200
3000
0020
0300
,
0002
0030
0020
0003
,
2000
0030
0002
3000
,
0200
0003
2000
0300
,
0020
3000
0200
0030
,
0301
1000
0001
1000
0001
0100
0000
0100
0010
0000
1000
0010
1000
0000
0001
0000
,
0100
0000
0010
0000
1000
0000
0000
0010
0000
0000
0100
0000
0010
0000
0100
0000
,
0001
0000
1000
0000
0010
0000
0000
0001
0000
0000
0010
0000
1000
0000
0010
0000
,
0100
0000
0001
0000
0010
0000
0000
0100
0000
0000
1000
0000
0100
0000
0001
0000
,
0100
0000
1000
0000
0010
0000
0000
0100
0000
0000
0001
0000
0010
0000
0001
0000
,
0100
0000
0000
0000
0110
0000
0000
0010
0000
0000
1000
0000
0100
0000
1000
0000
,
0001
0000
0000
0000
0101
0000
0000
0100
0000
0000
0010
0000
1000
0000
0001
0000
,
1000
0000
0000
0000
1100
0000
0000
0100
0000
0000
0001
0000
0100
1000
0100
1000
,
0010
0000
0000
0000
0110
0000
0000
0100
0000
0000
0001
0000
0010
0000
1000
0000
,
0010
0001
0010
0000
0000
0001
1000
0000
0000
1000
0100
0000
0000
0100
1000
0000
,
0000
1000
0001
0000
0000
0001
0100
0000
0000
0100
0010
0000
1000
0001
1000
0000
,
0000
1000
0001
0000
0000
0001
0100
0000
0000
0100
1000
0000
0000
1000
0001
0000
,
0000
0001
0100
0000
0001
0010
0001
0010
0100
1000
0100
1000
0001
0000
1000
0000
,
0001
0000
0010
0001
0010
0000
0001
1000
0001
0000
1000
0100
1000
0000
0001
0000
,
1000
0000
0100
0010
0100
0000
0010
0100
0010
0000
0100
0010
0100
0010
0100
0000
,
0010
0001
1000
0010
0100
0001
1000
0010
,
0100
0000
0001
1000
0001
0000
1000
0010
1000
0010
1000
0010
1000
0010
1000
0000
,
0001
0100
1000
0001
0010
2000
0000
3001
,
0100
1000
0010
0001
0100
0010
2000
0000
,
3001
0010
0100
1000
0011
0000
0110
0000
,
1100
0000
1001
0000
0001
0100
1000
0100
,
0001
1000
0010
0000
0010
0100
0000
0100
,
0001
0000
0001
0010
0000
0010
0100
0000
,
1100
0000
1000
0100
0000
0001
0100
0000
,
1000
0010
0000
0001
0010
1000
0001
0000
,
0100
0001
0100
0010
0000
1000
0010
0100
,
0001
0100
0000
0100
0001
0000
0011
0000
,
0010
0100
1000
0100
0000
0110
0000
0011
,
0000
0101
0000
0100
1000
0100
0001
0010
,
0100
1000
0100
0010
0000
0100
0010
1000
,
0010
0001
0000
1000
0010
0100
1000
0100
,
0010
1100
0011
0110
,
0100
1000
0100
0000
1000
0000
0010
0000
0100
0001
0100
0001
0100
0001
0100
0001
,
2000
0000
0000
0000
,
3000
0000
0000
0000
;

//---------------dance-single - ----------------
#NOTES:
     dance-single:
     :
     Challenge:
     17:
     0.926409,1.143116,0.661202,0.279739,0.682394,765.000000,687.000000,78.000000,33.000000,0.000000,0.000000,0.926409,1.143116,0.661202,0.279739,0.682394,765.000000,687.000000,78.000000,33.000000,0.000000,0.000000:
// measure 0
0000
0000
0000
0000
,  // measure 1
0000
0000
0000
0000
,  // measure 2
1001
0000
1000
0010
0100
0000
0110
0000
,  // measure 3
0100
0001
1000
0000
1010
0000
1001
0000
,  // measure 4
0101
0000
0010
0100
0001
0000
0101
0000
,  // measure 5
0100
1000
0000
1000
0100
0100
0001
0000
,  // measure 6
0110
0000
1000
0010
0000
0100
0010
1000
,  // measure 7
0001
1000
0001
0000
0010
0000
0100
0000
0010
0001
0010
0000
0100
0000
1000
0000
,  // measure 8
0100
1000
0100
1000
0100
0000
0010
0000
0001
1000
0001
1000
0001
0000
0100
0000
,  // measure 9
0010
1000
0010
1000
0001
0100
0001
0100
0010
0100
0010
0100
0001
1000
0001
1000
,  // measure 10
0010
0100
1000
0100
0110
0010
0001
0010
,  // measure 11
1000
1000
0100
0010
0001
0010
1000
0010
,  // measure 12
0011
0010
0001
0010
0001
0100
1000
0100
,  // measure 13
0001
0000
0010
0000
0100
0000
1000
0000
0001
0000
1000
0100
0010
0001
0010
0100
,  // measure 14
1000
0001
1000
0000
0010
0000
0010
0000
0100
0001
1000
0000
0100
0000
0100
0000
,  // measure 15
1000
0001
0010
0000
0001
0000
0001
0000
1000
0010
0100
0000
1000
0100
0010
0000
,  // measure 16
1000
0100
0010
0000
0100
0000
0100
0000
0010
0001
1000
0000
0100
1000
0100
0000
,  // measure 17
1000
0001
1000
0001
0010
0001
0010
0001
2000
0000
3200
0000
0320
0000
0032
0000
,  // measure 18
0203
0000
0310
0000
1000
0001
1000
0100
,  // measure 19
1200
0000
1300
0000
0021
0001
0031
0000
,  // measure 20
0102
0000
0103
0000
0010
1000
0100
0000
,  // measure 21
1200
0000
1300
0000
2010
0010
3010
0100
,  // measure 22
0102
0000
1003
0000
0021
0001
0130
0000
,  // measure 23
2100
0000
3100
0000
0002
0100
0103
0000
,  // measure 24
0010
0000
1000
0000
0001
0000
1000
0001
0100
0000
0001
1000
0010
0000
0100
0000
,  // measure 25
0001
1000
0001
0100
0001
1000
0001
0100
0001
0010
0001
0010
0100
1000
0100
1000
,  // measure 26
0001
0000
0100
0000
0001
1000
0001
0000
1000
0010
1000
0000
0100
1000
0100
0000
,  // measure 27
1000
0000
0001
0000
0010
0001
0010
0000
0100
1000
0100
0000
0010
0001
1000
0000
,  // measure 28
0001
1000
0001
1000
0001
1000
0001
1000
0010
0100
0010
0100
0010
0100
0010
0100
,  // measure 29
0010
0000
1001
1001
0000
1100
1100
0000
,  // measure 30
0101
0101
0000
0000
1001
0000
0110
0000
,  // measure 31
1001
0000
1001
1010
0000
1001
0101
0000
,  // measure 32
0110
1010
0000
1000
1001
0001
0101
0000
,  // measure 33
0110
0000
0001
0110
0000
1000
0110
0000
,  // measure 34
0001
0110
0000
1000
0110
0000
1001
0000
,  // measure 35
1100
0000
1010
0110
0000
0101
0110
0000
,  // measure 36
0010
1000
0010
1000
0010
1000
0010
0000
1000
0001
1000
0001
1000
0001
1000
0000
,  // measure 37
0001
0010
0001
0000
0100
0000
1000
0000
0100
0000
0001
0000
1000
0000
0010
0000
,  // measure 38
0100
0010
0100
0000
1000
0000
0100
0000
0001
0000
0010
0000
0100
0000
1000
0000
,  // measure 39
0001
0100
0001
0000
0100
0000
0001
0000
0100
0001
0100
0000
0001
0000
1000
0000
,  // measure 40
0100
0010
0100
0000
0010
0000
0100
0000
1000
0010
1000
0000
0100
1000
0100
0000
,  // measure 41
0001
0100
0001
0000
0100
0000
0010
0000
0001
0000
1000
0000
0010
0000
0100
0000
,  // measure 42
0001
0010
0001
0000
0010
0000
0100
0000
1000
0100
1000
0100
1000
0100
1000
0000
,  // measure 43
0100
0000
0010
0000
0001
0000
0100
0000
0001
0100
0010
0000
0001
0000
0010
0000
,  // measure 44
1000
0000
0100
0000
0010
0000
0001
0000
1000
0100
0010
0001
0010
0100
1000
0001
,  // measure 45
2000
0000
0200
3000
,  // measure 46
2000
0300
0002
3000
,  // measure 47
0020
0003
0002
0030
,  // measure 48
0200
0003
0020
0300
,  // measure 49
0002
0030
0020
0003
,  // measure 50
2000
0030
0002
3000
,  // measure 51
0200
0003
2000
0300
,  // measure 52
0200
3000
0020
0300
,  // measure 53
0130
0010
1000
0010
1000
0100
0000
0100
0010
0001
0010
0001
1000
0100
0010
0001
,  // measure 54
1000
0000
0010
0000
0001
0000
0000
1010
0000
0000
0100
0000
0010
0000
1000
0000
,  // measure 55
0001
0000
0100
0000
1000
0000
0000
0101
0000
0000
0010
0000
1000
0000
0010
0000
,  // measure 56
0001
0000
0000
0000
0011
0000
0000
0110
0000
0000
0100
0000
1100
0000
0001
0000
,  // measure 57
0100
0000
1000
0000
0100
0000
0000
0110
0000
0000
0001
0000
1000
0000
0001
0000
,  // measure 58
0100
0000
0000
0000
1100
0000
0000
0101
0000
0000
0001
0000
0010
0000
0100
0000
,  // measure 59
1000
0000
0000
0000
1001
0000
0000
0101
0000
0000
0110
0000
0010
0000
1000
0000
,  // measure 60
0001
0000
0000
0000
0101
0000
0000
0100
0000
0000
0001
0000
1000
0100
0010
0001
,  // measure 61
0100
0000
0000
0000
0110
0000
0000
0101
0000
0000
0001
0000
0010
0000
0100
0000
,  // measure 62
1000
0001
0010
0000
0000
0001
1000
0000
0000
1000
0010
0000
0000
0010
0001
0000
,  // measure 63
0000
0001
0100
0000
0000
0100
1000
0000
0000
1000
0010
0000
1000
0010
0100
0000
,  // measure 64
0000
0100
0001
0000
0000
0001
0010
0000
0000
0010
1000
0000
0000
1000
0001
0000
,  // measure 65
0000
0001
0100
0000
0010
0100
0010
0100
0001
1000
0001
1000
0100
1000
0100
0010
,  // measure 66
0001
0000
0010
0001
1000
0000
1000
0001
0010
0000
0010
0100
1000
0000
0001
0000
,  // measure 67
1000
0000
0010
0100
0001
0000
0001
0100
0010
0000
0100
0010
0100
0010
0100
0010
,  // measure 68
1000
0100
0010
0001
1000
0100
0010
0001
1000
0100
0010
0001
0100
0010
1000
0001
,  // measure 69
0100
0000
0001
1000
0001
0000
1000
0010
0100
0010
0001
0010
0100
0010
1000
0010
,  // measure 70
0100
0100
0001
0010
1000
0021
0000
0031
,  // measure 71
0100
1000
0100
0010
1000
0010
0012
0000
,  // measure 72
0013
1000
0100
0010
0011
0000
0110
0000
,  // measure 73
1100
0000
1001
0000
0001
0100
0001
1000
,  // measure 74
0010
1000
0010
0000
0100
0000
0001
0000
1000
0000
1001
0000
0001
0000
0100
0001
,  // measure 75
0100
0000
0010
0000
1000
0100
0010
0000
0100
0000
1000
0100
0010
0000
0000
0000
,  // measure 76
0101
0001
1000
1010
0000
0110
0101
0000
,  // measure 77
0001
0000
0101
0000
0100
0000
0010
0000
1000
0100
0010
0000
0001
0010
0100
0000
,  // measure 78
1000
0001
0100
0000
0010
0000
0110
0000
0000
0000
1000
0000
0010
1000
0001
0000
,  // measure 79
0100
0000
0101
0000
0000
0000
0100
0000
0001
1000
0100
0000
1100
0000
0000
0000
,  // measure 80
0010
0100
0001
0000
0100
0000
0101
0000
0000
0000
0110
0000
0000
0000
1010
0000
,  // measure 81
0000
0000
0011
0000
0000
0000
0010
0000
1000
0100
1000
0000
0001
0100
0001
0000
,  // measure 82
0100
0010
1000
0000
0100
0000
0010
0001
0100
0000
0010
0000
0100
0001
0010
0000
,  // measure 83
0001
0000
0010
0001
0100
0000
0010
0000
1000
0010
0100
0000
0010
1000
0100
0000
,  // measure 84
1000
0100
0010
0001
1000
0100
0010
0001
,  // measure 85
0100
0010
0100
0010
1000
0100
1000
0100
0010
0001
0010
0001
0100
0010
0100
0010
,  // measure 86
2000
0000
0000
0000
,  // measure 87
3000
0000
0000
0000
;
