#TITLE:Angelic Sphere;
#SUBTITLE:;
#ARTIST:3R2;
#TITLETRANSLIT:;
#SUBTITLETRANSLIT:;
#ARTISTTRANSLIT:;
#GENRE:;
#CREDIT:;
#BANNER:Angelic Sphere.png;
#BACKGROUND:Angelic Sphere-bg.png;
#LYRICSPATH:;
#CDTITLE:;
#MUSIC:Angelic Sphere.ogg;
#OFFSET:-1.840000;
#SAMPLESTART:4.737000;
#SAMPLELENGTH:15.000000;
#SELECTABLE:YES;
#BPMS:0.000000=143.000000
,72.000000=71.500000
,104.000000=143.000000
;
#STOPS:
;
#BGCHANGES:;
#KEYSOUNDS:;
#ATTACKS:;

//---------------dance-single - ----------------
#NOTES:
     dance-single:
     :
     Beginner:
     1:
     0.059122,0.100014,0.000000,0.000000,0.000000,60.000000,60.000000,0.000000,0.000000,0.000000,0.000000,0.059122,0.100014,0.000000,0.000000,0.000000,60.000000,60.000000,0.000000,0.000000,0.000000,0.000000:
0000
0000
0000
0000
,
0000
0000
0000
0000
,
0000
0000
0000
0000
,
0000
0000
0000
0000
,
0000
0000
0000
0000
,
0000
0000
0000
0000
,
0001
0000
0000
0000
,
1000
0000
0000
0000
,
0010
0000
0000
0000
,
0100
0000
0000
0000
,
0001
0000
0000
0000
,
1000
0000
0000
0000
,
0100
0000
0000
0000
,
1000
0000
0000
0000
,
0010
0000
0000
0000
,
0100
0000
0000
0000
,
0001
0000
0000
0000
,
1000
0000
0000
0000
,
0010
0000
1000
0000
,
0001
0000
1000
0000
,
0010
0000
0100
0000
,
0010
0000
1000
0000
,
0001
0000
1000
0000
,
0010
0000
1000
0000
,
0100
0000
0010
0000
,
0001
0000
1000
0000
,
0001
0000
0000
0000
,
0010
0000
0000
0000
,
0100
0000
0000
0000
,
1000
0000
0000
0000
,
0001
0000
0000
0000
,
1000
0000
0000
0000
,
0100
0000
0000
0000
,
1000
0000
0000
0000
,
0010
0000
0000
0000
,
0000
0000
0000
0000
,
0100
0000
0000
0000
,
0001
0000
0000
0000
,
1000
0000
0000
0000
,
0001
0000
0000
0000
,
0010
0000
0000
0000
,
0001
0000
0000
0000
,
1000
0000
0000
0000
,
0100
0000
0000
0000
,
1000
0000
0000
0000
,
0001
0000
0000
0000
,
1000
0000
0000
0000
,
0100
0000
0000
0000
,
0010
0000
0000
0000
,
0001
0000
0000
0000
,
1000
0000
0000
0000
,
0100
0000
0000
0000
,
1000
0000
0000
0000
,
0010
0000
0000
0000
,
0100
0000
0000
0000
,
0001
0000
0000
0000
,
1000
0000
0000
0000
,
0001
0000
0000
0000
,
1000
0000
0000
0000
;

//---------------dance-single - ----------------
#NOTES:
     dance-single:
     :
     Easy:
     3:
     0.092624,0.140020,0.006898,0.000000,0.000000,94.000000,93.000000,1.000000,0.000000,0.000000,0.000000,0.092624,0.140020,0.006898,0.000000,0.000000,94.000000,93.000000,1.000000,0.000000,0.000000,0.000000:
0000
0000
0000
0000
,
0000
0000
0000
0000
,
0000
0000
0000
0000
,
0000
0000
0000
0000
,
0000
0000
0000
0000
,
0000
0000
0000
0000
,
1000
0100
1000
0010
,
0100
0000
0000
0000
,
0001
1000
0001
0000
,
0100
0000
0000
0000
,
0010
1000
0010
0100
,
0001
0000
0000
0000
,
1000
0000
0000
0000
,
0010
0000
0000
0000
,
1000
0000
0000
0000
,
0001
0010
0001
0000
,
0100
0000
0100
0000
,
0010
0000
0000
0000
,
1001
0000
0001
0000
,
0100
0000
0000
0000
,
0100
0000
0010
0000
,
1000
0000
0001
0000
,
1000
0000
0001
0000
,
1000
0000
0010
0000
,
0100
0000
0001
0000
,
0100
0010
1000
0000
,
0010
0010
0010
0000
,
0100
0100
0100
0000
,
0001
0001
0001
0000
,
1000
0000
0000
0000
,
1000
0000
0000
0000
,
0001
0000
0000
0000
,
1000
0000
0000
0000
,
0100
0000
0000
0000
,
0100
0100
0100
0000
,
0010
0010
0010
0000
,
0001
0000
1000
0000
,
0001
0000
0000
0000
,
0100
0000
0010
0000
,
0100
0000
0001
0000
,
1000
0001
1000
0000
,
0010
0000
0000
0000
,
0100
0010
0100
0000
,
0001
1000
0001
0000
,
1000
0010
1000
0000
,
0100
0000
0000
0000
,
0100
0000
0000
0000
,
0010
0000
0000
0000
,
0001
0000
0000
0000
,
1000
0000
0000
0000
,
0100
0000
0000
0000
,
0010
0000
0000
0000
,
0001
0000
0000
0000
,
1000
0000
0000
0000
,
0100
0000
0000
0000
,
0010
0000
0000
0000
,
0001
0000
0000
0000
,
1000
0000
0000
0000
,
0001
0000
0000
0000
;

//---------------dance-single - ----------------
#NOTES:
     dance-single:
     :
     Medium:
     7:
     0.170468,0.260038,0.041385,0.220722,0.000000,173.000000,167.000000,6.000000,32.000000,0.000000,0.000000,0.170468,0.260038,0.041385,0.220722,0.000000,173.000000,167.000000,6.000000,32.000000,0.000000,0.000000:
0000
0000
0000
0000
,
0000
0000
0000
0000
,
0000
0000
0000
0000
,
0000
0000
0000
0000
,
0000
0000
0000
0000
,
0000
0000
0000
0000
,
1000
0100
1000
0010
,
0200
0000
0301
0010
,
0002
0000
0103
0010
,
2000
0000
3100
0010
,
0002
0000
0000
0000
0103
0000
0010
1000
,
0010
1000
0100
0010
,
1001
0001
0100
0010
,
1000
0000
0100
0010
,
0002
0000
2003
3200
,
0302
0000
0000
0000
,
0103
0000
1000
0010
,
0002
0000
0000
0000
,
1003
0100
1000
0010
0100
0000
0001
0000
,
2000
0000
3010
0100
0002
0000
0013
0100
,
2000
0000
3001
0100
0002
0000
0013
0001
,
0020
0030
0002
0003
,
0200
0300
0020
0030
,
2000
0000
3200
0000
,
0320
0000
0032
0000
,
2003
0000
3200
0000
,
2300
0000
0000
0000
,
3200
0000
0000
0000
,
0320
0000
0000
0000
,
0032
0000
0000
0000
,
2003
0000
0000
0000
,
3200
0000
0000
0000
,
2300
0000
0000
0000
,
3020
0000
0000
0000
,
0130
0100
0001
0001
,
0010
0010
0100
0100
,
1000
0001
1000
0000
,
0010
0100
0001
0000
,
0100
0010
1000
0000
,
0010
0100
0010
0000
0100
0000
0001
0000
,
0010
0001
1000
0100
,
2000
0000
0000
0000
,
3010
0010
0100
0100
,
0001
1000
0001
1000
,
0010
0100
0010
1000
,
0001
1000
0001
0000
0100
0000
0010
0000
,
1000
0010
0100
0001
,
0011
0010
0100
1100
,
1000
0001
0010
0001
,
0101
0100
0100
0100
,
0110
0000
0010
0000
1000
0000
0100
1000
,
0100
0000
0010
0000
0001
0000
1000
0001
,
1000
0001
1000
0001
,
0010
0001
0010
0100
,
0010
0100
1000
0001
,
1000
0001
0100
0001
,
0100
0010
1000
0010
,
1000
0100
0010
0001
,
1001
0000
0000
0000
;

//---------------dance-single - Copied from----------------
#NOTES:
     dance-single:
     Copied from:
     Hard:
     9:
     0.329112,0.420061,0.269004,0.110361,0.148297,334.000000,295.000000,39.000000,16.000000,0.000000,0.000000,0.329112,0.420061,0.269004,0.110361,0.148297,334.000000,295.000000,39.000000,16.000000,0.000000,0.000000:
0000
0000
0000
0000
,
0000
0000
0000
0000
,
0000
0000
0000
0000
,
0000
0000
0000
0000
,
0000
0000
0000
0000
,
0000
0000
0000
0000
,
1000
0000
0010
0100
0010
0100
0010
0100
,
0010
0000
0000
0000
0100
0000
0001
0010
,
0001
0000
1000
0000
0100
0000
1000
0010
,
1000
0001
0100
0010
,
1010
0000
1000
0100
1000
0100
1000
0100
,
1000
0000
0010
0000
0100
0000
0001
0010
,
0001
0000
1000
0000
0000
1100
0000
0000
,
0110
0000
0000
0011
0000
0000
0001
1000
,
0100
0000
1000
0001
1000
0001
1000
0001
,
1000
0000
0001
0000
1000
0000
0100
0010
,
0001
0000
0010
0000
0001
0000
1000
0010
,
2000
0000
0000
0000
,
3002
0000
0103
0100
0010
0000
0100
0000
,
1000
0000
0100
0001
1000
0000
1000
0001
,
0200
0000
0000
0000
0300
0010
1000
0010
2000
0000
0100
0000
3200
0000
0010
0000
,
0320
0001
0032
0000
0203
0000
0320
1000
,
2030
0000
0000
0000
3100
0000
0010
0000
0011
0000
0001
0000
0100
0000
0010
1000
,
0020
0000
0130
0000
0000
0001
0000
0001
0010
0000
0001
0000
0101
0000
0100
0000
,
0020
0000
2030
0000
3200
0010
0302
1000
,
0013
0000
0100
0010
0100
0010
0000
0000
0010
0000
1000
0000
0010
0000
0100
0000
,
1001
0000
0000
1010
0000
0000
0110
0000
0000
0101
0000
0000
0001
0000
0010
0000
,
0011
0000
0000
1010
0000
0000
0011
0000
0000
0101
0000
0000
0100
0000
0010
0000
,
1000
0000
0000
0001
0000
0000
1000
0000
0000
0010
0000
0000
0100
0000
0001
0000
,
0100
0000
0000
0001
0000
0000
0010
0000
0000
0100
0000
0000
1000
0000
0010
0000
,
1000
0000
0000
0001
0000
0000
1000
0000
0000
0010
0000
0000
1000
0000
0100
0000
,
0001
0000
0000
0100
0000
0000
1000
0000
0000
0010
0000
0000
0100
0000
0001
0000
,
0100
0000
0000
0001
0000
0000
0010
0000
0000
0100
0000
0000
1000
0000
0010
0000
,
0001
0000
0000
0010
0000
0000
1000
0000
0000
0001
0000
0000
1000
0000
0010
0000
,
0100
0010
1000
0001
0000
0100
0001
0010
,
0001
0100
0010
1000
0000
0001
1000
0010
,
1000
0000
0000
0001
0000
0000
1000
0000
0000
0000
0010
0000
0100
0000
0001
0000
,
0100
0000
0000
0010
0000
0000
1000
0000
0000
0001
0000
0000
0100
0000
0001
0000
,
0010
0000
0000
0001
0000
0000
0100
0000
0001
0000
0000
1000
0000
0000
0010
0000
,
1000
0000
0000
0100
0000
0000
0010
0000
0100
0000
0000
1000
0000
0000
0001
0000
,
1000
0100
0010
0001
1000
0100
0010
0001
,
2000
0000
0000
0000
,
3001
0000
0000
0001
0000
0000
0100
0000
0000
0010
0000
0000
1000
0000
0100
0000
,
1000
0000
0000
0001
0000
0000
0010
0000
0000
1000
0000
0000
0010
0000
0001
0000
,
0100
0000
0000
0100
0000
0000
0010
0000
0000
0010
0000
0000
1000
0000
0001
0000
,
1001
1100
0110
0011
,
1001
1010
0110
0101
,
0011
0110
1100
1001
,
0001
0000
0000
0001
0000
0000
0100
0000
0010
0000
0000
0000
1010
0000
0000
0000
,
1100
0000
0110
0000
0010
0001
0010
0001
,
0010
0000
0000
0100
0000
0000
1000
0000
0000
0001
0000
0000
1000
0000
0100
0000
,
0001
0000
0000
0100
0000
0000
1000
0000
0000
0010
0000
0000
1000
0000
0010
0000
,
0001
0000
0000
0010
0000
0000
1000
0000
0000
0100
0000
0000
0010
0000
0001
0000
,
0100
0110
1010
1001
,
0101
0000
0110
0000
1010
0000
1000
0001
,
1000
0011
0110
1100
,
1001
0000
0001
0010
1000
0010
0001
0100
,
0010
0000
1000
0010
1000
0001
0100
0010
,
1000
0000
0000
0000
;

//---------------dance-single - ----------------
#NOTES:
     dance-single:
     :
     Challenge:
     13:
     0.472975,0.578834,0.572497,0.193131,0.275902,480.000000,397.000000,83.000000,28.000000,0.000000,0.000000,0.472975,0.578834,0.572497,0.193131,0.275902,480.000000,397.000000,83.000000,28.000000,0.000000,0.000000:
// measure 0
0000
0000
0000
0000
,  // measure 1
0000
0000
0000
0000
,  // measure 2
0000
0000
0000
0000
,  // measure 3
0000
0000
0000
0000
,  // measure 4
0000
0000
0000
0000
,  // measure 5
0000
0000
0000
0000
,  // measure 6
1001
0000
0001
0010
0100
1000
0100
0010
,  // measure 7
0001
0000
0000
0000
0100
0000
0000
0000
0010
0000
0000
0010
1000
0000
0001
0000
,  // measure 8
0100
0100
0010
1000
0001
0001
0100
0001
,  // measure 9
0000
1000
0100
1000
0001
0001
1000
0010
,  // measure 10
0110
0000
0100
0001
1000
0100
0010
0001
,  // measure 11
0201
0000
0000
0000
0310
0000
0000
0000
1000
0000
0001
0100
0001
0000
0100
0000
,  // measure 12
0010
0000
1001
0000
0000
0101
0000
0000
,  // measure 13
0110
0000
0000
1010
0000
0010
1000
0100
,  // measure 14
0010
0100
0000
0000
1000
0000
0001
0000
1000
0000
0010
0000
0100
0000
0001
0000
,  // measure 15
0010
0000
0001
0000
0100
0010
1000
0010
,  // measure 16
0210
0000
0000
0000
0301
0000
0000
0000
0012
0000
0000
0000
1003
0000
0010
1000
,  // measure 17
0020
0000
0000
0000
,  // measure 18
0230
0000
0000
0310
1000
0001
1001
0000
0022
0000
0033
0000
0000
0001
1001
0000
,  // measure 19
0202
0000
0303
0100
0010
0000
1000
0000
1001
0000
0101
0000
0110
0000
1010
0000
,  // measure 20
2200
0000
3300
0000
0000
0100
0010
0001
0010
0000
0110
0000
1100
0000
1001
0000
,  // measure 21
0101
0000
0100
0010
1000
0010
0100
0001
0020
0000
0230
0000
2300
0000
3001
0000
,  // measure 22
0101
0000
0110
0000
1010
0000
1100
0000
1200
0000
0320
0000
0032
0000
0103
0010
,  // measure 23
1000
0000
0001
1000
0000
1010
0000
0010
0200
0000
0302
0000
0023
0000
2030
0000
,  // measure 24
3002
0003
0200
0300
2000
3002
0203
0310
,  // measure 25
0110
0000
0010
1000
0010
0100
0001
0010
0100
1000
0001
0010
0001
0000
0100
0000
,  // measure 26
1010
0000
0000
1100
0000
0000
0110
0000
0000
0011
0000
0000
0001
0000
0100
0000
,  // measure 27
1000
0000
0100
0001
0100
0000
0010
0000
0100
0010
0100
0000
0001
0000
1000
0000
,  // measure 28
0100
0000
1000
0010
1000
0000
0100
0000
0000
0110
0000
0000
0010
0000
0001
0000
,  // measure 29
1000
0000
0000
1100
0000
0000
1010
0000
0000
0110
0000
0000
0101
0000
0001
0010
,  // measure 30
0001
0000
1000
0100
0000
0100
0010
0000
0001
0010
0000
0010
0001
0000
1000
0000
,  // measure 31
1010
0000
0000
0110
0000
0000
0101
0000
0000
1001
0000
0000
0010
0000
0100
0000
,  // measure 32
0001
1000
0000
1000
0010
0000
0100
0000
0001
0010
0000
0010
0001
0000
1000
0000
,  // measure 33
1010
0000
0000
0110
0000
0000
0101
0000
0000
0000
0001
0100
0001
0000
1000
0000
,  // measure 34
0100
0010
0001
0200
0000
0301
1000
0010
,  // measure 35
1000
0001
0010
0001
0000
0100
0010
0100
,  // measure 36
0001
0000
0000
1000
0000
0000
0010
0000
1000
0000
0100
0000
0010
0000
0001
0000
,  // measure 37
0100
0000
0000
0110
0000
0000
1010
0000
0000
1001
0000
0000
1000
0000
0010
0000
,  // measure 38
0100
0000
0001
0000
0010
0000
0100
0000
1000
0000
0010
0100
0010
0000
1000
0000
,  // measure 39
0001
0000
1000
0010
1000
0000
0100
0000
0010
0000
0001
0010
0001
0000
1000
0000
,  // measure 40
0010
0100
0010
0000
0100
0010
0100
0000
0001
1000
0001
0000
1000
0001
0100
0000
,  // measure 41
0102
0000
0000
0000
0000
0000
0000
0000
1003
0010
1000
0010
1000
0010
1000
0010
,  // measure 42
1000
0000
0001
0010
0001
0000
1000
0000
0100
0001
0100
0000
1000
0000
0010
0000
,  // measure 43
0100
0000
0010
0100
0010
0000
1000
0000
0100
0010
0100
0000
0001
0000
0100
0000
,  // measure 44
0010
0001
0000
0001
1000
0000
0010
0000
1000
0001
0000
0001
0010
0000
0001
0000
,  // measure 45
0101
0000
1001
0000
0101
0000
0110
0010
,  // measure 46
1010
0000
1100
0000
0110
0000
0011
0001
,  // measure 47
1001
0000
1100
0000
0101
0000
1100
1000
,  // measure 48
1001
0000
0000
0101
0000
0000
0110
0000
1010
0000
1000
0000
0001
1000
0001
0000
,  // measure 49
0101
0000
0000
0000
0110
0000
0000
0000
0010
0000
1000
0000
0001
0000
0010
0001
,  // measure 50
0010
0000
0001
0100
0001
0000
1000
0000
0010
1000
0010
0000
0100
0000
1000
0000
,  // measure 51
0100
0000
0001
0010
0001
0000
0100
0000
0010
0100
0010
0000
1000
0000
0100
0000
,  // measure 52
1100
0000
0000
0110
0000
0000
0011
0000
0000
0101
0000
0000
0100
0000
0010
0000
,  // measure 53
1000
0100
0000
0100
1000
0000
0001
0000
0010
0001
0000
0001
0010
0000
0001
1000
,  // measure 54
0001
0000
1010
1000
1001
0001
0101
0100
,  // measure 55
0110
0000
1001
0000
0001
0001
0010
0100
,  // measure 56
1100
0000
0000
1001
0000
0000
0101
0000
0110
0000
0010
0000
1000
0000
0100
0000
,  // measure 57
1010
0000
1001
0000
0001
0100
0010
0101
;
