#TITLE:ARACHNE;
#SUBTITLE:;
#ARTIST:MAX MAXIMIZER;
#TITLETRANSLIT:;
#SUBTITLETRANSLIT:;
#ARTISTTRANSLIT:;
#GENRE:;
#CREDIT:;
#BANNER:ARACHNE.png;
#BACKGROUND:ARACHNE-bg.png;
#LYRICSPATH:;
#CDTITLE:;
#MUSIC:ARACHNE.ogg;
#OFFSET:-3.060000;
#SAMPLESTART:23.119947;
#SAMPLELENGTH:14.999995;
#SELECTABLE:YES;
#BPMS:0.000000=179.020004
;
#STOPS:
;
#BGCHANGES:;
#KEYSOUNDS:;
#ATTACKS:;

//---------------dance-single - ----------------
#NOTES:
     dance-single:
     :
     Beginner:
     3:
     0.190142,0.348174,0.044073,0.000000,0.000000,151.000000,146.000000,5.000000,0.000000,0.000000,0.000000,0.190142,0.348174,0.044073,0.000000,0.000000,151.000000,146.000000,5.000000,0.000000,0.000000,0.000000:
0000
0000
0000
0000
,
0000
0000
0000
0000
,
0000
0000
0000
0000
,
1000
0000
0000
0000
,
0001
0000
0000
0000
,
1000
0000
1000
0000
,
0001
0000
0001
0000
,
0100
0000
0000
0000
,
0000
0000
0000
0000
,
0000
0000
0000
0000
,
0000
0000
0000
0000
,
0010
0010
1000
1000
,
0001
0001
0100
0100
,
0010
0010
1000
1000
,
0001
0001
1001
0000
,
1000
0000
0100
0000
,
1000
0000
0010
0000
,
0100
0000
0010
0000
,
1000
0000
0001
0001
,
0001
0000
0100
0000
,
0010
0000
0100
0000
,
0001
0000
1000
0000
,
0001
0000
1000
0000
,
0010
0010
0010
0000
,
0100
0100
0100
0000
,
0001
0000
0001
0000
,
1000
0000
1000
0000
,
0100
0000
0100
0000
,
0010
0000
0010
0000
,
0001
0000
1001
0000
,
1000
0000
1010
0000
,
0010
0000
0000
0000
,
0000
0000
0000
0000
,
0100
0000
0000
0000
,
0000
0000
0000
0000
,
0001
0000
0000
0000
,
0000
0000
0000
0000
,
1000
0000
0000
0000
,
0000
0000
0000
0000
,
0100
0000
0100
0000
,
0010
0000
0001
0000
,
1000
0000
0001
0001
,
0001
0000
0100
0000
,
0010
0000
1000
0000
,
0010
0000
0100
0000
,
0001
0000
0010
0000
,
1000
0000
0010
0000
,
0001
0000
0000
0000
,
0000
0000
0000
0000
,
0000
0000
0000
0000
,
0000
0000
0000
0000
,
1000
0000
1000
0000
,
0001
0000
0001
0000
,
0100
0000
0100
0000
,
1000
0000
1000
0000
,
0100
0000
0100
0000
,
0001
0000
0001
0000
,
1000
0000
0001
0000
,
1000
0000
0010
0100
,
0010
0000
0100
0000
,
0001
0000
1000
0000
,
0010
1000
0010
0000
,
0100
0000
0001
0000
,
0010
0000
0100
0000
,
1000
0000
0001
0000
,
0010
0000
0001
0000
,
0100
0000
0010
0000
,
0100
0100
0001
0001
,
1000
1000
0001
0001
,
0010
0010
0001
0001
,
0100
0100
1000
1000
,
0100
0000
1001
0000
,
0010
0000
0010
0000
,
0100
0000
0101
0000
,
1000
0000
0001
0000
,
1000
0000
1000
0000
,
0001
0000
0001
0000
,
0100
0000
0100
0000
,
0001
0000
0001
0000
,
1000
0000
0000
0000
;

//---------------dance-single - ----------------
#NOTES:
     dance-single:
     :
     Easy:
     5:
     0.298435,0.423098,0.220363,0.220363,0.000000,237.000000,212.000000,25.000000,25.000000,0.000000,0.000000,0.298435,0.423098,0.220363,0.220363,0.000000,237.000000,212.000000,25.000000,25.000000,0.000000,0.000000:
0000
0000
0000
0000
,
0000
0000
0000
0000
,
0000
0000
0000
0000
,
1001
1000
0010
0000
,
0100
0010
0100
0000
,
0001
0010
1000
0010
,
0001
0100
1000
0100
,
0002
0000
0000
0000
,
2003
0000
0000
0000
,
3200
0000
0000
0000
,
0320
0000
0000
0000
,
0031
0001
1000
1000
,
0100
0100
0010
0010
,
0001
0001
0100
0100
,
1000
1000
0100
0100
,
1001
0001
0010
0100
,
1000
0100
0010
0001
,
0010
1000
0010
0001
,
0100
1000
0100
0100
,
0001
0010
0001
1000
,
0100
1000
0010
0100
,
0010
1000
0001
0100
,
0001
0010
0001
0010
,
0100
1000
0100
1000
,
0100
0010
0001
0010
,
0001
0100
0010
0100
,
0010
1000
0100
1000
,
0100
0001
0100
1000
,
0100
0001
0100
1000
,
0010
0001
0010
1000
,
0100
0001
0100
1000
,
0002
0000
0000
0000
,
0203
0000
0000
0000
,
0320
0000
0000
0000
,
2030
0000
0000
0000
,
3200
0000
0000
0000
,
0320
0000
0000
0000
,
0032
0000
0000
0000
,
0203
0000
0000
0000
,
0310
0000
1000
0010
,
1010
0000
0001
0000
,
0100
0000
0001
0100
,
0002
0000
2003
0000
,
3010
0000
0100
0010
,
0200
0000
0302
0000
,
2003
0000
3200
0000
,
0320
0000
0032
0000
,
2003
0000
0000
0000
,
3002
0000
0000
0000
,
2003
0000
0000
0000
,
3002
0000
0000
0000
,
1003
1000
0010
0010
,
0001
0001
0010
0010
,
1000
1000
0100
0100
,
0001
0001
0100
0100
,
1000
1000
0001
0001
,
0100
0100
0010
0010
,
0100
0100
0001
1001
,
1000
1010
0010
0110
,
0100
0001
0010
0100
,
1000
0010
0100
0010
,
1000
0100
0001
0100
,
1000
0010
0001
0010
,
1000
0000
0001
0000
,
1000
0000
0100
1000
,
0100
0000
0010
0000
,
0001
0000
0010
0000
,
1100
0000
0001
0000
,
1001
0000
1000
0000
,
1010
0000
0010
0000
,
0110
0000
0100
0000
,
0101
0000
1001
0000
,
1100
0000
0110
0000
,
0011
0000
1001
0000
,
1100
0000
0110
0000
,
0011
0000
1001
0000
,
1100
0000
0110
0000
,
0011
0000
1001
0000
,
1001
0000
0100
0100
,
0020
0000
0000
0000
,
0030
0000
0000
0000
;

//---------------dance-single - ----------------
#NOTES:
     dance-single:
     :
     Medium:
     10:
     0.418061,0.522261,0.246807,0.123403,0.000000,332.000000,304.000000,28.000000,14.000000,0.000000,0.000000,0.418061,0.522261,0.246807,0.123403,0.000000,332.000000,304.000000,28.000000,14.000000,0.000000,0.000000:
0000
0000
0000
0000
,
0000
0000
0000
0000
,
0000
0000
0000
0000
,
1010
0000
0010
0000
0100
0000
0001
0010
,
0001
1000
0100
0010
,
0011
0010
0110
0100
,
1100
0000
1000
0000
0001
1000
0001
1000
,
0002
0000
0000
0000
,
0203
0000
0000
0000
,
0310
0000
1000
0000
,
0010
0000
0100
0000
,
1001
1000
0001
0100
,
0010
0000
0100
0000
0001
0010
0001
0010
,
0001
0000
1000
0000
0100
1000
0100
1000
,
0100
0010
0001
0000
,
0100
0010
0100
0000
0010
0000
1000
0000
,
0100
0010
0001
0100
,
1000
0100
0001
0010
,
1000
0000
0010
0000
0001
1000
0001
1000
,
0001
1000
0100
0010
,
0001
0010
0100
1000
,
0100
0001
0010
0001
,
0100
1000
0001
0010
,
0101
0010
0100
1000
,
1100
0010
0001
0100
,
0110
0010
1100
0001
,
1001
0100
1100
0010
,
0100
0000
0010
0000
1000
0000
0100
1000
,
0100
0010
0001
0100
,
0010
0100
0010
0000
0100
0010
0100
0000
,
0100
1000
0100
0000
1000
0100
1000
0000
,
0002
0000
0000
0000
,
0203
0000
0000
0000
,
0320
0000
0000
0000
,
2030
0000
0000
0000
,
3200
0000
0000
0000
,
0320
0000
0000
0000
,
0032
0000
0000
0000
,
0203
0000
0000
0000
,
0320
0000
1000
1000
,
1030
0001
0100
0010
,
0100
0000
0000
0000
0001
1000
0001
1000
,
0001
1000
0100
0010
,
0001
0000
0000
0000
0100
0001
0100
0001
,
0100
0010
1000
0100
,
1000
0000
0000
0000
0010
0100
0010
0100
,
0010
0100
0001
0010
,
2000
0000
0000
0000
,
3020
0000
0000
0000
,
0032
0000
0000
0000
,
1003
0100
1000
0100
1000
0100
1000
0100
,
1000
0000
0001
0000
0100
0010
0100
0010
,
0100
0000
0001
0000
0010
0001
0010
0001
,
0010
0001
0100
1000
,
0100
0000
0001
0000
1000
0001
1000
0000
,
1010
0010
0100
0001
,
0011
0000
0010
0000
0100
1000
0100
0000
,
1100
1000
1001
0001
,
0101
0100
0110
0010
,
1000
0000
0100
0000
1000
0100
1000
0100
,
1000
0000
0010
0000
0100
0010
0100
0010
,
0100
0001
0010
0100
,
1000
0001
1001
1000
,
0100
0000
0010
0000
0100
1000
0100
0000
,
1000
0000
0100
0000
0010
0100
0010
0000
,
0001
0010
0001
0000
1000
0001
1000
0000
,
0001
0100
0001
0000
0100
0010
0100
0010
,
0100
0010
1000
0100
,
0010
0001
0100
1000
,
0100
0001
0010
1000
,
0010
0001
0100
1000
,
1100
0100
0001
0100
,
1100
1000
0001
1000
,
1010
0010
0110
0100
,
0101
0001
1001
1000
,
1100
0100
0110
0010
,
0011
0001
1001
1000
,
0100
1000
0100
0000
0010
0100
0010
0000
,
0100
0010
0100
0000
0010
0001
0010
0001
,
0010
0000
0000
0000
;

//---------------dance-single - ----------------
#NOTES:
     dance-single:
     :
     Hard:
     14:
     0.725310,0.910982,0.475985,0.211549,0.555316,576.000000,522.000000,54.000000,24.000000,0.000000,0.000000,0.725310,0.910982,0.475985,0.211549,0.555316,576.000000,522.000000,54.000000,24.000000,0.000000,0.000000:
// measure 0
0000
0000
0000
0000
,  // measure 1
0000
0000
0000
0000
,  // measure 2
0000
0000
0000
0000
,  // measure 3
1001
0000
0000
1100
0000
0000
0100
0010
0000
0010
0001
1000
0001
0000
0010
0000
,  // measure 4
0100
0000
0000
1100
0000
0000
0110
0000
0001
0100
0001
0000
0010
0000
0100
0000
,  // measure 5
1000
0010
1000
0000
0010
0000
0100
0000
0001
0010
0001
0000
0010
0000
0100
0000
,  // measure 6
1100
1001
0011
0110
,  // measure 7
2100
0000
0000
0000
,  // measure 8
0000
0002
3000
0000
,  // measure 9
0000
0200
0003
0000
,  // measure 10
0000
0020
0000
0330
,  // measure 11
1000
0000
0000
1001
0000
0000
0001
0000
0001
0000
0100
0000
1000
0000
0100
0000
,  // measure 12
0001
0000
0000
0011
0000
0000
0100
0000
1000
0000
0010
0000
0100
0000
0010
0000
,  // measure 13
1000
0000
0000
1001
0000
0000
0001
0000
0010
0000
0100
0000
1000
0000
0001
0000
,  // measure 14
0100
0000
0000
0101
0000
0000
0100
0000
0010
0000
1000
0100
1000
0000
0000
0000
,  // measure 15
0001
1000
0000
0010
1000
0000
0010
0000
0100
0000
0001
0000
0100
0000
1000
0000
,  // measure 16
0100
0010
0000
1000
0010
0000
0100
0000
0001
0000
1000
0000
0010
0000
0100
0000
,  // measure 17
0010
0100
0000
1000
0100
0000
0010
0000
0100
0000
0001
0000
1000
0000
0001
0000
,  // measure 18
1000
0010
0000
0100
0010
0000
1000
0000
0100
0000
0001
0000
0100
1000
0100
0000
,  // measure 19
0010
0001
0000
0001
0100
0000
0010
0000
1000
0000
0001
0000
0100
0000
0001
0000
,  // measure 20
1000
0010
0000
1000
0010
0000
0100
0000
0001
0000
0010
0000
0100
0000
0001
0000
,  // measure 21
0101
0000
0000
0110
0000
0000
0010
0000
1100
0000
0000
0101
0000
0000
0001
0000
,  // measure 22
0010
0100
0000
0100
0010
0000
0001
0000
0010
1000
0010
0000
0001
0000
0100
0000
,  // measure 23
0010
0100
0010
0000
1000
0000
0001
0000
0010
0000
0001
0000
0100
0000
0010
0000
,  // measure 24
0100
0001
0000
0001
1000
0000
0010
0000
0100
0000
0100
0000
0001
0000
1000
0000
,  // measure 25
0010
0100
0000
0010
0100
0000
0001
0000
1000
0001
0000
1000
0001
0000
0100
0000
,  // measure 26
0010
0100
0000
0001
0100
0000
0010
0000
0000
0000
0100
0000
0001
1000
0001
0000
,  // measure 27
1000
0100
1000
0000
0100
0000
0010
0000
0001
0000
1000
0100
1000
0000
0001
0000
,  // measure 28
0010
0001
0010
0000
0001
0000
1000
0001
1000
0000
0100
0000
0010
0000
0001
0000
,  // measure 29
0011
0000
0000
0110
0000
0000
1100
0000
1001
0000
0000
1100
0000
0000
0110
0000
,  // measure 30
0011
0000
0000
0110
0000
0000
1001
0000
0000
0000
0001
0000
0010
0000
0100
0000
,  // measure 31
0020
0000
0000
0000
,  // measure 32
0000
0000
0000
0000
,  // measure 33
0002
0000
0030
0000
,  // measure 34
0000
0000
0000
0000
,  // measure 35
0200
0000
0003
0000
,  // measure 36
0000
0000
0000
0000
,  // measure 37
0020
0000
0300
0000
,  // measure 38
0000
0000
0000
0030
,  // measure 39
1001
0000
0000
0000
0001
0010
0100
1000
,  // measure 40
2002
3003
0000
0000
0100
0001
0000
0001
,  // measure 41
2002
3003
0000
0000
0010
0010
1000
1000
,  // measure 42
0202
0000
0303
0000
0000
0000
0010
1000
0010
0000
2002
0000
3003
0000
0000
0000
,  // measure 43
0220
0000
0330
0000
0001
0100
1000
0100
,  // measure 44
0002
0103
0000
0000
0010
1000
0000
0001
,  // measure 45
0101
0000
0100
0000
0010
0010
1000
1000
,  // measure 46
0100
0001
0100
1000
0001
1000
0001
1000
,  // measure 47
0020
0000
0000
0000
,  // measure 48
0000
0000
0000
0000
,  // measure 49
0200
0000
0000
0000
0000
0000
0000
0330
,  // measure 50
0001
0100
0001
0200
0001
0000
0010
0000
1300
0100
1000
0100
1000
0000
0000
0000
,  // measure 51
1000
0000
0100
0000
0010
0000
0001
0000
0100
0000
0010
1000
0010
1000
0010
0000
,  // measure 52
0100
0001
0000
0001
1000
0000
0001
0000
1000
0000
0001
0010
0100
0010
0001
0000
,  // measure 53
1001
0000
0000
1010
0000
0000
1000
0000
0001
0000
0010
0100
0010
0100
0010
0000
,  // measure 54
0001
1000
0000
1000
0100
0000
0010
0000
0011
0000
0001
0000
0100
0000
0100
0000
,  // measure 55
0110
0000
0000
1001
0000
0000
0001
0000
0010
0000
0100
1000
0100
0010
0001
0000
,  // measure 56
0100
0001
0000
0100
0001
0000
0100
0000
0001
0000
1000
0010
1000
0010
1000
0000
,  // measure 57
0001
0100
0000
0100
0001
0000
0100
0000
0010
1000
0000
1000
0010
0000
0100
0000
,  // measure 58
0001
0010
0000
0100
1000
0000
0001
0000
0100
0000
1000
0000
0100
0000
0001
0000
,  // measure 59
0010
0100
0010
0100
0010
0000
0100
1000
0100
0000
1000
0001
1000
0001
1000
0000
,  // measure 60
0010
0100
0000
0010
1000
0000
0001
1000
0001
0000
0010
0100
0010
0100
0010
0000
,  // measure 61
0100
1000
0000
1000
0001
0000
0011
0000
0010
0001
0000
0001
0010
0000
1100
0000
,  // measure 62
1000
0100
0000
0100
1000
0000
1001
0000
0000
0000
0001
0100
0001
0100
0001
0000
,  // measure 63
0010
0100
0000
1000
0001
0000
0010
0000
0100
0000
1000
0000
0001
0100
0001
0000
,  // measure 64
0010
0100
0000
0010
0100
0000
1000
0000
0001
0000
0010
0001
0010
0001
0100
0000
,  // measure 65
0010
0100
0000
0010
0100
0000
0001
0000
1000
0010
0000
0100
0010
0000
1000
0000
,  // measure 66
0010
0001
0000
0010
1000
0000
0001
0000
0100
0000
0010
0000
0100
0001
0100
0001
,  // measure 67
1000
0000
0000
1010
0000
0000
0010
0000
0100
0000
0001
0000
0010
0000
1000
0000
,  // measure 68
0010
0000
0000
0101
0000
0000
0100
0000
0010
0000
1000
0000
0010
0000
0100
0000
,  // measure 69
0001
0000
0000
1001
0000
0000
1000
0000
0100
0000
0001
0000
0100
0000
1000
0000
,  // measure 70
0010
0000
0000
1001
0000
0000
0001
0000
0010
0000
0100
0000
1000
0001
1000
0001
,  // measure 71
0100
0000
0000
0110
0000
0000
0010
0000
1000
0000
0100
0000
0010
0000
0001
0000
,  // measure 72
0101
0000
0000
0110
0000
0000
1001
0000
0000
0000
0001
0000
0010
0000
0100
0000
,  // measure 73
1000
0000
0000
0011
0000
0000
1000
0000
0001
0000
0100
0001
1000
0000
0010
0000
,  // measure 74
0100
0000
0001
1000
0010
0000
1000
0000
0100
0000
0001
0000
0100
0000
1000
0000
,  // measure 75
0001
0000
0010
0001
0100
0000
0010
0000
0100
0000
0000
0000
1001
0000
0000
0000
,  // measure 76
1000
0000
0010
0100
0001
0000
0010
0000
0011
0000
0000
0000
1001
0000
0000
0000
,  // measure 77
1000
0000
0010
0100
0010
0000
1000
0000
0001
0000
0100
0010
0100
0000
0001
0000
,  // measure 78
1000
0000
0010
1000
0010
0000
1000
0000
0001
0000
0001
0000
0100
0000
0100
0000
,  // measure 79
2020
0000
3030
0000
;
