#TITLE:ARACHNE dj noriken remix;
#SUBTITLE:;
#ARTIST:MAX MAXIMIZER;
#TITLETRANSLIT:;
#SUBTITLETRANSLIT:;
#ARTISTTRANSLIT:;
#GENRE:;
#CREDIT:;
#BANNER:ARACHNE (dj noriken remix).png;
#BACKGROUND:ARACHNE (dj noriken remix)-bg.png;
#LYRICSPATH:;
#CDTITLE:;
#MUSIC:ARACHNE (dj noriken remix).ogg;
#OFFSET:-4.068000;
#SAMPLESTART:24.351917;
#SAMPLELENGTH:14.999995;
#SELECTABLE:YES;
#BPMS:0.000000=177.020004
;
#STOPS:
;
#BGCHANGES:;
#KEYSOUNDS:;
#ATTACKS:;

//---------------dance-single - ----------------
#NOTES:
     dance-single:
     :
     Beginner:
     4:
     0.233486,0.296335,0.000000,0.000000,0.000000,206.000000,206.000000,0.000000,0.000000,0.000000,0.000000,0.233486,0.296335,0.000000,0.000000,0.000000,206.000000,206.000000,0.000000,0.000000,0.000000,0.000000:
0000
0000
0000
0000
,
0000
0000
0000
0000
,
0000
0000
0000
0000
,
1000
0000
0000
0000
,
0001
0000
0000
0000
,
1000
0000
0000
0000
,
0010
0000
0010
0000
,
0100
0100
0100
0000
,
0001
0001
0001
0000
,
1000
1000
1000
0000
,
0010
0010
0010
0000
,
0001
0001
0001
0000
,
0010
0010
0010
0000
,
1000
1000
1000
0100
,
0001
0001
0001
0100
,
1000
0001
1000
0001
,
1000
0000
0001
0010
,
0001
0000
1000
0100
,
1000
0000
0010
0100
,
0010
0000
0100
0001
,
0100
0000
0001
1000
,
0001
0000
1000
0000
,
0010
0000
0100
0010
,
0100
0000
0001
1000
,
0001
0000
1000
0010
,
0001
0000
0010
1000
,
0100
0001
0010
0001
,
0100
0000
1000
0000
,
0001
0000
0010
0000
,
0001
0100
1000
0100
,
0001
1000
0010
1000
,
0001
0001
0100
0100
,
0010
0000
1000
0000
,
0010
0100
0001
0000
,
0100
0000
0010
1000
,
0100
0000
0010
0000
,
0001
0000
0100
1000
,
0100
0000
0001
0000
,
0010
1000
0010
0000
,
0001
1000
0001
0000
,
1000
0010
1000
0001
,
0100
0000
0010
0100
,
0010
0000
1000
0100
,
1000
0000
0001
0100
,
0001
0000
0010
0001
,
0010
0000
0001
0000
,
1000
0100
1000
0000
,
0100
0010
0100
0010
,
0001
0000
1000
0001
,
1000
0000
0001
0100
,
0010
0000
0100
0001
,
0010
0000
0100
1000
,
0001
0000
1000
0001
,
0010
0000
0001
0000
,
0100
0000
0000
0000
,
0010
0000
0100
0000
,
0010
0000
1000
0000
,
0010
0000
0100
0000
,
0001
0000
1000
0000
,
0001
0000
0010
0000
,
0001
0000
0100
0000
,
1000
0000
0100
0000
,
0001
0000
0001
0000
,
1000
0000
1000
0000
,
0001
0000
0010
0000
,
0001
0000
1000
0000
,
0100
0000
1000
0000
,
0010
0000
0100
0000
,
0010
0000
1000
0000
,
0100
0000
0010
0000
,
0001
0000
0010
0000
,
0100
0000
1000
0000
,
0001
0000
0010
0001
,
0010
0000
0001
0000
,
1000
0000
0100
0000
,
1000
0000
0001
0000
,
0010
0000
0001
0000
,
0100
0000
0010
0000
,
0100
0000
0001
0000
,
1000
0000
0001
0000
,
1000
0000
0001
0000
,
1000
0000
0010
0000
,
0100
0000
0010
0000
,
0100
0000
0000
0000
;

//---------------dance-single - ----------------
#NOTES:
     dance-single:
     :
     Easy:
     7:
     0.403500,0.493891,0.293558,0.000000,0.000000,356.000000,319.000000,37.000000,0.000000,0.000000,0.000000,0.403500,0.493891,0.293558,0.000000,0.000000,356.000000,319.000000,37.000000,0.000000,0.000000,0.000000:
0000
0000
0000
0000
,
0000
0000
0000
0000
,
0000
0000
0000
0000
,
0001
1000
0001
0010
,
0001
0100
0010
0100
,
0001
0010
1000
0010
,
0001
0000
0000
0000
,
1000
0100
1000
0000
0100
0000
0010
0000
,
0001
0010
0100
1000
,
0100
0001
0100
1000
,
0010
0001
0010
1000
,
1001
0001
0100
0010
,
0110
0100
0001
0011
,
0100
1100
1000
1010
,
0010
0100
0010
0000
0100
0000
0001
0000
,
0010
0001
1000
0100
,
1000
0010
0100
0001
,
0010
0100
1000
0100
,
0010
0001
0100
1000
,
0100
0001
0010
1000
,
0010
0001
0100
1000
,
0100
0001
0010
1000
,
0010
0001
1001
1001
,
1001
0100
0010
0001
,
0100
0010
0110
0100
,
0001
0010
0100
1000
,
1001
0001
0101
0100
,
0110
0010
1000
0100
,
0001
0010
0001
0100
,
1001
1000
1001
0001
,
0101
0100
0010
0100
,
0001
0010
0010
0010
,
0001
0001
0001
0100
,
0100
0100
1000
1000
,
1000
0100
0100
0100
,
0001
0001
0001
0010
,
0010
0010
1000
1000
,
1000
0100
0100
0100
,
0001
0001
0001
0010
,
1000
0100
0001
0010
,
1000
0100
0001
0010
,
1000
0100
0001
0010
,
0100
1000
0100
0010
,
0001
1000
0001
1000
,
0100
0010
0100
0010
,
0001
0010
0001
0010
,
0100
1000
0100
1000
,
0001
0000
1000
0000
0001
1000
0001
0000
,
1000
0000
0001
0000
1000
0001
1000
0000
,
0001
1000
0001
1000
,
0001
1000
0001
1000
,
0010
0100
0010
0100
,
0010
0100
0010
0100
,
0001
0100
0001
0100
,
0001
1000
0100
1000
,
1010
0010
0110
0100
,
0001
0100
0010
0100
,
0101
0001
0010
0100
,
1100
1000
0100
0010
,
0001
0100
1000
0100
,
0001
0010
1000
0010
,
1001
0100
1001
0100
,
1001
0000
0000
0000
,
0010
0100
0010
0100
,
0010
1000
0100
0010
,
0001
0010
0100
1000
,
0100
0001
0010
0001
,
0100
1000
0010
0001
,
0100
0001
0010
1000
,
0100
0001
1000
0100
,
0001
1000
0010
0001
,
1000
0010
0001
0100
,
1000
0010
0001
0100
,
1000
0100
0010
0001
,
1000
0100
0010
0001
,
1001
0100
1010
0010
,
0101
0010
0110
1000
,
1100
0001
0101
1000
,
0100
0010
0001
0100
,
0101
0001
1000
0100
,
1100
0010
0110
0001
,
0101
1000
1100
0001
,
0101
0100
0110
1010
,
1001
0000
0000
0000
;

//---------------dance-single - ----------------
#NOTES:
     dance-single:
     :
     Medium:
     12:
     0.584848,0.559743,0.174548,0.000000,0.015868,516.000000,494.000000,22.000000,0.000000,0.000000,0.000000,0.584848,0.559743,0.174548,0.000000,0.015868,516.000000,494.000000,22.000000,0.000000,0.000000,0.000000:
// measure 0
0000
0000
0000
0000
,  // measure 1
0000
0000
0000
0000
,  // measure 2
0000
0000
0000
0000
,  // measure 3
1000
0000
0100
0000
0010
0001
0010
0001
,  // measure 4
0010
0000
0100
0000
1000
0100
1000
0100
,  // measure 5
1000
0000
0010
0000
0100
0001
0010
0100
,  // measure 6
1000
1010
0110
0101
,  // measure 7
0001
0000
1000
0000
0100
1000
0100
0000
,  // measure 8
1000
0010
1000
0000
0001
0100
0001
0000
,  // measure 9
0100
0010
0100
0000
0010
1000
0010
0000
,  // measure 10
1000
0100
1000
0000
0100
0010
0100
0010
,  // measure 11
0100
0000
0010
0000
0001
0100
0001
0000
,  // measure 12
1000
0100
1000
0000
0010
0100
0010
0000
,  // measure 13
0100
0001
0010
0100
1000
0001
0010
0100
,  // measure 14
1000
0000
0000
0000
,  // measure 15
0001
1000
0001
1000
0001
1000
0001
1000
,  // measure 16
0001
0000
1000
0000
0100
1000
0100
1000
,  // measure 17
0100
0000
0010
0000
0001
0010
0001
0010
,  // measure 18
0001
0100
1010
0101
,  // measure 19
1000
0001
1000
0000
0001
0100
0001
0000
,  // measure 20
0110
0000
0110
0000
1000
0100
1000
0100
,  // measure 21
1000
0001
0011
0100
,  // measure 22
0110
1100
1001
0110
,  // measure 23
1000
0001
1000
0001
1000
0001
1000
0001
,  // measure 24
1000
0000
0100
0000
0010
0100
0010
0100
,  // measure 25
0010
0000
0001
0000
0100
0001
0100
0001
,  // measure 26
0100
0001
0100
0001
0100
0001
0100
0001
,  // measure 27
0100
0000
0000
1001
0000
0000
1000
0000
0010
0000
0000
0010
0000
0000
0100
0000
,  // measure 28
0001
0000
0000
0001
0000
0000
0010
0000
0100
0000
0000
1000
0000
0000
0100
0000
,  // measure 29
0001
0100
1000
0010
0001
0010
1000
0100
,  // measure 30
0010
0100
0010
0001
1000
0001
0100
0000
,  // measure 31
1010
0000
1000
0100
1000
0000
0001
0100
,  // measure 32
0001
0000
0100
0010
0100
0000
0010
0000
,  // measure 33
1000
0000
0100
0000
0010
0001
0010
0000
,  // measure 34
0001
0000
0100
0000
0010
0100
0010
0000
,  // measure 35
1000
0100
1000
0100
,  // measure 36
0010
0001
0010
0001
,  // measure 37
0100
1000
0100
0001
,  // measure 38
1000
0001
1000
0001
,  // measure 39
0101
0100
0010
1000
,  // measure 40
0100
0000
0010
0000
0001
0010
0001
0010
,  // measure 41
0001
0000
1000
0000
0100
1000
0100
1000
,  // measure 42
0100
0000
0010
0000
0100
0010
0100
0010
,  // measure 43
0100
0000
0001
0000
0010
0001
0010
0001
,  // measure 44
0010
0000
0100
0000
1000
0100
1000
0100
,  // measure 45
1000
0000
0010
0000
0100
0010
0100
0010
,  // measure 46
0100
0001
0010
0100
,  // measure 47
1100
0000
1000
0000
0001
0100
0001
0100
,  // measure 48
0001
0000
1000
0000
0100
1000
0100
1000
,  // measure 49
0100
0000
1000
0000
0010
0100
0010
0100
,  // measure 50
0010
0000
1000
0000
0100
1000
0100
1000
,  // measure 51
0100
0000
1001
0000
0001
0100
0001
0100
,  // measure 52
0001
0000
0110
0000
0010
1000
0010
1000
,  // measure 53
0010
0000
1000
0000
0100
0010
0001
0010
,  // measure 54
0100
1000
0100
0001
,  // measure 55
1000
0100
0001
0100
1000
0010
0001
0010
,  // measure 56
1000
0000
0001
0000
0100
0000
0010
1000
,  // measure 57
0010
0000
1000
0000
0100
0000
1000
0100
,  // measure 58
1000
0000
0100
0010
0100
0000
0010
0001
,  // measure 59
0010
0000
0001
0010
0001
0010
0001
0010
,  // measure 60
0001
0000
1000
0100
1000
0100
1000
0100
,  // measure 61
1000
0000
1000
0100
0001
0100
1000
0010
,  // measure 62
0001
0010
1000
0100
0001
0100
1000
0100
,  // measure 63
0001
0100
0000
1000
0100
0001
0100
1000
,  // measure 64
0100
0001
0100
1000
0100
0001
0100
1000
,  // measure 65
0100
0001
0100
1000
0010
0001
0010
1000
,  // measure 66
0010
0001
0010
1000
0010
0001
0010
1000
,  // measure 67
0001
0100
0001
0000
1000
0100
1000
0000
,  // measure 68
0010
0100
0001
0100
0010
0100
0001
0100
,  // measure 69
0010
1000
0100
0001
0100
1000
0100
0001
,  // measure 70
0100
1000
0100
0001
0010
1000
0010
0000
,  // measure 71
0001
0100
1000
0100
0001
0010
1000
0010
,  // measure 72
0001
0100
1000
0100
0001
0010
1000
0010
,  // measure 73
0001
0100
1000
0100
0001
0010
0100
1000
,  // measure 74
0001
0010
0100
1000
0001
0100
0010
0100
,  // measure 75
0001
0100
0010
0100
0001
0100
0010
0100
,  // measure 76
0001
0100
0010
0100
0001
0100
0010
0100
,  // measure 77
0001
0010
0100
1000
0001
0010
0001
0100
,  // measure 78
0010
0100
0001
0010
0100
1000
0100
0010
,  // measure 79
0001
0000
1001
0000
1000
0100
0010
0100
,  // measure 80
1000
0000
1001
0000
0001
0010
0100
0010
,  // measure 81
0001
0000
0101
0000
0100
0010
1000
0010
,  // measure 82
0100
0000
0011
0000
1000
0010
0001
0010
,  // measure 83
1000
0000
0000
0000
;

//---------------dance-single - ----------------
#NOTES:
     dance-single:
     :
     Hard:
     16:
     0.854604,0.833069,0.460171,0.031736,0.638686,754.000000,696.000000,58.000000,4.000000,0.000000,0.000000,0.854604,0.833069,0.460171,0.031736,0.638686,754.000000,696.000000,58.000000,4.000000,0.000000,0.000000:
// measure 0
0000
0000
0000
0000
,  // measure 1
0000
0000
0000
0000
,  // measure 2
0000
0000
0000
0000
,  // measure 3
1001
0000
0000
1010
0000
0000
1000
0000
0010
0000
0100
0000
0001
0000
0010
0000
,  // measure 4
0100
0000
0010
0100
0000
0000
1000
0000
0001
0000
1000
0001
0000
0000
0100
0000
,  // measure 5
0010
0000
0100
0010
0000
0000
1000
0000
0100
0000
0001
0000
0100
0000
1000
0000
,  // measure 6
0001
0000
0001
0000
0100
0000
0100
0000
0010
0000
0010
0000
1000
0001
1000
0001
,  // measure 7
0100
0000
0000
0010
0000
0000
0001
0000
0010
0000
1000
0000
0100
0000
0010
0000
,  // measure 8
0001
0000
0000
1001
0000
0000
1000
0000
0010
0100
0010
0000
0001
0000
0010
0000
,  // measure 9
0100
0000
0000
0101
0000
0000
0100
0000
0001
0000
0010
0100
0010
0000
0100
0000
,  // measure 10
1000
0000
0000
1100
0000
0000
0100
0000
0010
0000
0001
0000
0010
0000
1000
0000
,  // measure 11
0010
0000
0000
0101
0000
0000
0100
0000
0010
0000
1000
0000
0100
0000
0010
0001
,  // measure 12
0010
0000
0001
0000
0100
0000
1000
0000
0100
0000
0001
0000
1000
0000
0010
0001
,  // measure 13
0010
0000
1000
0000
0001
0000
0100
0000
0010
1000
0010
1000
0010
1000
0010
0000
,  // measure 14
1000
0001
1000
0000
0001
0000
0100
0010
0100
0000
0010
0000
1001
0000
0000
0000
,  // measure 15
0001
0100
0010
0000
1000
0000
0010
0000
0001
0000
0001
0000
0010
0000
1000
0000
,  // measure 16
0001
0000
0100
0001
1000
0000
0010
0000
0100
0000
0100
0000
0001
0000
1000
0000
,  // measure 17
0010
0000
1000
0010
1000
0000
0001
0000
0100
0000
1000
0000
0100
0000
0001
0000
,  // measure 18
0010
0000
0100
1000
0000
0000
0010
0000
0100
0000
0001
0000
0010
0000
0001
0000
,  // measure 19
1000
0000
0000
1010
0000
0000
0010
0000
0100
0000
0001
0000
0010
0000
0100
0000
,  // measure 20
1000
0000
0000
1010
0000
0000
0100
0000
0010
0000
0001
0000
1000
0000
0100
0000
,  // measure 21
0010
0000
0000
0011
0000
0000
0001
0000
0100
0000
0000
1100
0000
0000
1000
0000
,  // measure 22
0100
0000
0000
0101
0000
0000
0001
0000
0010
0100
1000
0000
0002
0000
0000
0000
,  // measure 23
0103
0010
1000
0000
0010
0000
0100
0000
0001
0000
0001
0000
1000
0000
1000
0000
,  // measure 24
0010
0000
0100
0010
0000
0000
1000
0000
0100
0000
0001
0000
0100
0000
1000
0000
,  // measure 25
1010
0000
0000
0001
0000
0000
0010
0000
0100
0000
0000
1100
0000
0000
1000
0000
,  // measure 26
0100
0000
0010
0100
0010
0000
0001
0000
0010
0000
0100
0000
0010
0000
1000
0000
,  // measure 27
1010
0000
0000
0011
0000
0000
0001
0000
0101
0000
0000
0110
0000
0000
1000
0000
,  // measure 28
0101
0000
0000
1001
0000
0000
1000
0000
0010
0000
0100
0001
0100
0000
0010
0000
,  // measure 29
1000
0000
0001
0000
1000
0000
0010
0000
1000
0010
1000
0010
1000
0010
1000
0000
,  // measure 30
0001
0100
0001
0000
0100
0000
0010
0100
0010
0000
0100
0000
1001
0000
0000
0000
,  // measure 31
0001
0010
0100
0001
0100
1000
0001
0100
,  // measure 32
1000
0000
0100
0000
0001
0000
0100
0000
0010
1000
0001
0000
0100
0000
0010
0000
,  // measure 33
0100
0001
0010
0001
1000
0010
1000
0100
0001
0100
1000
0100
,  // measure 34
0010
0000
0001
0000
1000
0000
0100
0000
0000
0010
0000
0000
0001
0000
0000
0100
0000
0000
0001
0000
0000
0000
0000
0000
,  // measure 35
1000
0100
0010
0100
0010
0001
1000
0001
,  // measure 36
1000
0010
0100
0001
1000
0001
1000
0010
,  // measure 37
0100
0001
0100
0010
1000
0100
0010
0001
1000
0010
0100
0010
,  // measure 38
1000
0000
1100
0000
0110
0010
0011
0001
,  // measure 39
1001
0000
1000
0000
0110
0100
0001
0001
,  // measure 40
1010
0000
1000
0000
0101
0100
0010
0010
,  // measure 41
1000
0100
0010
0001
1000
0100
0001
0100
1000
0010
0001
0010
,  // measure 42
1000
0000
0000
0000
0100
0000
0000
0000
1000
0000
0000
0000
0001
0000
0000
0000
0100
0000
0000
0000
0001
0000
0000
0000
0100
0000
0000
0010
0000
0000
0100
0000
0000
0000
0000
0000
0010
0000
0000
0000
0000
0000
1000
0000
0000
0000
0000
0000
,  // measure 43
0001
0010
0001
1000
0001
0100
0001
0010
,  // measure 44
0001
1000
0001
0100
1000
0100
0001
0010
,  // measure 45
0100
1000
0100
0000
1000
0001
1000
0001
1000
0001
1000
0001
1000
0001
1000
0001
,  // measure 46
1000
0000
0000
0000
,  // measure 47
1001
0000
0000
0001
0000
0000
0010
0000
1000
0000
0010
0000
0001
0000
0010
0000
,  // measure 48
0100
0000
1000
0010
1000
0000
0100
0000
0010
0000
0001
1000
0001
0000
1000
0000
,  // measure 49
0001
0000
0100
0001
0100
0000
0010
0000
1000
0000
0010
0000
0001
0000
0010
0000
,  // measure 50
1000
0000
0000
1001
0000
0000
0010
0000
0010
0000
0100
0000
0100
0000
0001
1000
,  // measure 51
0010
0000
1000
0100
1000
1000
0001
0001
,  // measure 52
0100
0000
0010
0100
0000
0000
0001
0000
1000
0000
0010
1000
0000
0000
0100
0000
,  // measure 53
0010
0000
0001
1000
0001
0000
0100
0000
0010
0000
1000
0000
0100
0000
0010
0000
,  // measure 54
0001
0000
0001
0000
1000
0000
0010
0000
0100
0000
0001
0000
1000
0001
1000
0000
,  // measure 55
0001
0100
0001
0100
0001
0000
1000
0000
0010
0000
0100
0000
0001
0010
0001
0000
,  // measure 56
0100
0000
0010
0100
0000
0010
0100
0000
0001
0000
1000
0000
0001
1000
0001
0000
,  // measure 57
0010
0000
0100
0001
0000
0001
0100
0000
1000
0000
0010
0000
0001
0000
0010
0000
,  // measure 58
1000
0000
0001
1000
0000
1000
0100
0000
0010
0000
0010
0000
0100
0000
1000
0000
,  // measure 59
0100
0000
0001
0100
0001
0000
0100
0000
0010
0000
0001
0010
0001
0000
0010
0000
,  // measure 60
0100
0000
1000
0010
1000
0000
0100
0000
0010
0000
1000
0010
1000
0000
0010
0000
,  // measure 61
0001
0100
0001
0000
1000
0010
1000
0000
0010
0100
0010
0100
0001
1000
0001
0000
,  // measure 62
1000
0001
1000
0000
0001
0000
0100
0010
0100
0000
0010
0000
1001
0000
0000
0000
,  // measure 63
1000
0000
0000
1010
0000
0000
0010
0000
0100
0000
0001
0010
0001
0010
0001
0000
,  // measure 64
1000
0000
0100
0000
0001
0000
0100
0000
1000
0000
0100
0010
0100
0010
0001
0000
,  // measure 65
0100
0001
0000
0001
0010
0000
1000
0000
0010
0000
0001
0000
0100
0010
0100
0010
,  // measure 66
1000
0100
0001
0100
1000
0010
0100
0001
,  // measure 67
1000
0100
0000
1000
0001
0000
0100
0000
1000
0000
0100
0000
0010
1000
0001
0000
,  // measure 68
0010
1000
0000
0010
0001
0000
0100
0000
0010
0000
1000
0100
1000
0100
1000
0000
,  // measure 69
1001
0000
0000
0101
0000
0000
0100
0000
1010
0000
0000
1001
0000
0000
0010
0000
,  // measure 70
0101
0000
0000
0110
0000
0000
1000
0000
1001
0000
0001
0000
2002
0000
3003
0000
,  // measure 71
0001
0100
0001
0000
0010
0000
1000
0000
0010
0000
0001
1000
0001
1000
0001
0000
,  // measure 72
0100
0010
1000
0000
0100
0000
0010
0000
0001
0000
1000
0010
1000
0010
1000
0000
,  // measure 73
1100
0000
0000
1001
0000
0000
1010
0000
0110
0000
0000
0101
0000
0000
1001
0000
,  // measure 74
1010
0000
0000
0110
0000
0000
0100
0000
0001
1000
0100
0010
0001
0000
0000
0000
,  // measure 75
0101
0000
0000
0011
0000
0000
0110
0000
1100
0000
0000
0110
0000
0000
0011
0000
,  // measure 76
0101
0000
0100
0010
1000
0000
0100
0000
1100
0000
0000
0101
0000
0000
0100
0000
,  // measure 77
0010
0000
0100
0000
1000
0000
0001
0000
0100
0010
0100
0010
0100
0010
0100
0000
,  // measure 78
0001
0010
0001
0000
0100
0000
1000
0100
1000
0100
1000
0000
0100
0000
0000
0000
,  // measure 79
1001
0000
0001
0100
0001
0000
0010
0000
0100
0000
1000
0000
0010
0100
0010
0000
,  // measure 80
0100
0000
0001
0010
0001
0000
1000
0000
0100
0000
0010
0000
0001
0000
0100
0000
,  // measure 81
1000
0000
0100
0001
0100
0000
0010
0000
1000
0000
0100
0000
0010
0000
0001
0000
,  // measure 82
0100
0000
0010
1000
0010
0000
0100
0000
0001
0000
1000
0000
0001
0100
0001
0100
,  // measure 83
0002
0000
0000
0000
,  // measure 84
0003
0000
0000
0000
;

//---------------dance-single - ----------------
#NOTES:
     dance-single:
     :
     Challenge:
     17:
     0.963413,0.999683,0.682323,0.031736,0.837036,850.000000,764.000000,86.000000,4.000000,4.000000,0.000000,0.963413,0.999683,0.682323,0.031736,0.837036,850.000000,764.000000,86.000000,4.000000,4.000000,0.000000:
// measure 0
0000
0000
0000
0000
,  // measure 1
0000
0000
0000
0000
,  // measure 2
0000
0000
0000
0000
,  // measure 3
1001
0000
0000
0101
0000
0000
0001
0000
0100
0000
0010
0000
1000
0000
0100
0000
,  // measure 4
0010
0000
0001
0100
0001
0000
1000
0000
0001
0000
1000
0001
1000
0000
0100
0000
,  // measure 5
0010
0000
0100
1000
0100
0000
0010
0000
0001
0000
0100
0000
1000
0000
0100
0000
,  // measure 6
0001
0000
0001
0000
0100
0000
0100
0000
0010
0000
0010
0000
1000
0001
1000
0001
,  // measure 7
0100
0000
0010
0000
1000
0010
1000
0000
0001
0000
0100
0000
0010
0001
0010
0000
,  // measure 8
0100
0000
0000
1010
0000
0000
1000
0000
0010
0100
0010
0000
1000
0000
0010
0000
,  // measure 9
0100
0000
0000
0101
0000
0000
0001
0000
1000
0000
0010
0100
0010
0000
0100
0000
,  // measure 10
0001
0000
0000
0011
0000
0000
0010
0000
0001
1000
0001
0000
1000
0010
1000
0000
,  // measure 11
0010
0000
0000
0110
0000
0000
0101
0000
0011
0000
0001
1000
0001
0000
1001
0000
,  // measure 12
1010
0000
0010
0100
0001
0000
1001
0000
1100
0000
0100
0010
0001
0000
0010
0000
,  // measure 13
0001
1000
0100
1000
0001
1000
0100
1000
0001
1000
0100
1000
0010
1000
0001
0000
,  // measure 14
1000
0010
1000
0000
0001
0000
0100
0010
0100
0000
0010
0000
1001
0000
0000
0000
,  // measure 15
0001
1000
0100
1000
0001
0000
0010
0000
0001
0000
0100
0000
0010
1000
0001
0000
,  // measure 16
1000
0000
0010
1000
0100
0000
1000
0000
0010
0100
0001
0000
0100
0010
0001
0000
,  // measure 17
0010
0000
1000
0100
0010
0000
0001
0000
0100
0010
1000
0000
0100
1000
0001
0000
,  // measure 18
0010
0000
0001
1000
0010
0000
0100
0000
0010
0000
0010
0000
1000
0000
0001
0000
,  // measure 19
1001
0000
0000
1010
0000
0000
0010
0000
0100
0001
1000
0000
0010
1000
0100
0000
,  // measure 20
1000
0000
0010
0100
0001
0000
0100
0000
0010
0000
0001
0000
0010
0000
1000
0000
,  // measure 21
1010
0000
0000
0110
0000
0000
0101
0000
0011
0000
0000
0110
0000
0000
1100
0000
,  // measure 22
1001
0000
0000
0101
0000
0000
0001
0000
0010
0100
1000
0100
0020
0000
0000
0000
,  // measure 23
0031
0010
1000
0010
0100
0000
0010
0000
1001
0000
0001
0000
1100
0000
1000
0000
,  // measure 24
0010
0000
0100
0001
0010
0000
0001
0000
0100
0001
0100
0000
0100
1000
0100
0000
,  // measure 25
0001
0010
0001
0100
0010
0000
1000
0000
0010
1000
0010
0100
0001
0000
0010
0000
,  // measure 26
0001
0100
0010
1000
0010
0000
1000
0000
0010
0000
0010
0000
0100
0000
0100
0000
,  // measure 27
1001
0000
0000
0011
0000
0000
0101
0000
0110
0000
0000
1010
0000
0000
1001
0000
,  // measure 28
0101
0000
0000
0011
0000
0000
1001
0000
1010
0000
1000
0001
0100
0000
0010
0000
,  // measure 29
1000
0100
0010
0001
0100
0010
1000
0100
0010
0001
0100
0010
1000
0100
0010
0001
,  // measure 30
0100
0010
0100
0000
0100
0000
0010
0100
0010
0000
0010
0000
1001
0000
0000
0000
,  // measure 31
1000
0100
0010
1000
0010
0001
1000
0100
,  // measure 32
0001
0000
0100
0000
1000
0000
0100
0000
0010
0001
0010
0000
0100
0000
0010
0000
,  // measure 33
0100
0001
0100
1000
0010
0100
0001
0010
0100
1000
0001
1000
,  // measure 34
0010
0000
1000
0000
0001
0000
0100
0000
0000
0010
0000
0000
0001
0000
0000
0010
0000
0000
1000
0000
0000
0001
0000
0000
,  // measure 35
1000
1000
0010
0100
0100
0010
0001
0001
,  // measure 36
0010
1000
1000
0100
0001
0001
0100
0010
,  // measure 37
0001
0001
0100
0010
0010
1000
0001
0001
0100
0010
0010
1000
,  // measure 38
0001
0000
1100
0000
0011
0001
0101
0100
,  // measure 39
0110
0010
0110
0000
0110
0100
0101
0001
,  // measure 40
1001
1000
0010
0100
0101
0100
0110
0010
,  // measure 41
1000
0000
0100
0000
0010
0000
0001
0000
0100
0000
0010
0000
1000
0001
1000
0000
0010
0000
0100
0000
0001
0000
0010
0000
,  // measure 42
0001
0000
0100
0000
0001
0000
0000
0000
1000
0000
0000
0000
0010
0000
0000
0000
0100
0000
0000
0000
0001
0000
0000
0000
1000
0000
0000
0010
0000
0000
1000
0000
0000
0000
0000
0000
0010
0000
0000
0000
0000
0000
0010
0000
0000
0000
0000
0000
,  // measure 43
0100
0001
0100
0010
0100
0001
0100
0010
,  // measure 44
1000
0100
0001
0100
1000
0010
0100
0010
,  // measure 45
0100
0001
0100
0001
1000
0100
1000
0100
0010
0001
0010
0001
0100
0010
0100
0010
,  // measure 46
1000
0000
0000
0000
,  // measure 47
1001
0000
0000
1010
0000
0000
0010
0000
0001
0000
0010
0000
1000
0000
0100
0000
,  // measure 48
0010
0000
0001
0100
0001
0000
0100
0000
0010
0000
1000
0001
1000
0000
0001
0000
,  // measure 49
0100
0000
0001
0010
0001
0000
0100
0000
1000
0000
0100
0000
0001
0000
0010
0000
,  // measure 50
1000
0000
0000
0011
0000
0000
0001
0000
0001
0000
0100
0000
0100
0000
0001
1000
,  // measure 51
0010
0010
1000
0100
1000
1000
0001
0001
,  // measure 52
0100
0000
0010
0100
0010
0000
0001
0000
0010
0000
1000
0100
1000
0000
0100
0000
,  // measure 53
0010
0000
0001
1000
0001
0000
0100
0000
0010
0000
1000
0000
0100
0000
1000
0000
,  // measure 54
0001
0000
0001
0000
1000
0000
1000
0000
0010
0000
0010
0000
1000
0001
1000
0000
,  // measure 55
0010
1000
0010
1000
0010
0000
0100
0000
0001
0000
0010
0000
0001
0010
0001
0000
,  // measure 56
0100
0000
0010
1000
0010
0000
1000
0000
0001
0000
0010
0000
0001
1000
0001
0000
,  // measure 57
0010
0000
0100
1000
0100
1000
0100
0000
1000
0000
0010
0000
0100
0010
0100
0000
,  // measure 58
0001
0000
1000
0001
1000
0000
0100
0000
0010
1000
0010
0000
0010
0001
0010
0000
,  // measure 59
0001
0100
0001
0100
0001
0000
0100
0000
0010
1000
0010
1000
0010
0000
0100
0000
,  // measure 60
0001
0010
0001
0010
0001
0000
0010
0000
0100
0010
0100
0010
0100
0000
1000
0000
,  // measure 61
0010
1000
0100
0010
0001
0100
0010
1000
0100
0010
0001
0100
0001
0100
1000
0100
,  // measure 62
1000
0100
0001
0000
0100
0000
0001
0010
1000
0000
0010
0000
0011
0000
0000
0000
,  // measure 63
0110
0000
0000
1001
0000
0000
0010
0000
0100
0000
0001
1000
0001
1000
0001
0000
,  // measure 64
1000
0100
0000
1000
0010
0000
0100
0000
1000
0000
0100
0010
0100
0010
1000
0000
,  // measure 65
0100
0001
0000
0001
0100
0000
1000
0000
0010
0000
0100
0001
0010
0001
0010
0000
,  // measure 66
0001
0100
1000
0100
1010
0010
0101
0100
,  // measure 67
0001
0010
0000
0001
0010
0000
0100
0000
1000
0000
0010
0100
1000
0100
0010
0000
,  // measure 68
1000
0100
0000
0001
0100
0000
0100
0000
0010
0000
0001
0010
0100
1000
0001
0000
,  // measure 69
1001
0000
0000
0101
0000
0000
0110
0000
1010
0000
0000
1100
0000
0000
0101
0000
,  // measure 70
0110
0000
0000
0011
0000
0000
1001
0000
1010
0000
0010
0000
0220
0000
0330
0000
,  // measure 71
0001
0010
0100
0010
0001
0000
1000
0000
0010
0000
1000
0100
0010
0100
1000
0000
,  // measure 72
0001
0100
0000
0001
1000
0000
0010
0100
0000
0010
1000
0100
0010
0001
0100
0000
,  // measure 73
0110
0000
0000
1001
0000
0000
1010
0000
0110
0000
0000
0101
0000
0000
0011
0000
,  // measure 74
0110
0000
0000
1100
0000
0000
0100
0000
1000
0001
0100
1000
0100
0000
MMMM
0000
,  // measure 75
0110
0000
0000
1010
0000
0000
1001
0000
0101
0000
0000
0110
0000
0000
1010
0000
,  // measure 76
1001
0000
0000
0101
0000
0000
1100
0000
0110
0000
0000
1010
0000
0000
0100
0000
,  // measure 77
0010
0001
0010
0001
1000
0001
1000
0001
0100
0010
0100
0010
1000
0100
1000
0100
,  // measure 78
0010
0001
1000
0000
0100
0000
1000
0100
1000
0000
0001
0000
0101
0000
0000
0000
,  // measure 79
1001
0000
0001
0100
0001
0000
0010
0000
0100
0000
1000
0000
0010
0100
0010
0000
,  // measure 80
0100
0000
0001
0010
0001
0000
1000
0000
0100
0000
0010
0000
0010
0000
0100
0000
,  // measure 81
1000
0000
0100
0001
0100
0000
0010
0000
0001
0000
0001
0000
0100
0000
1000
0000
,  // measure 82
0100
0000
0010
1000
0010
0000
0100
0000
0001
0000
1000
0000
0001
0100
0001
0100
,  // measure 83
0002
0000
0000
0000
,  // measure 84
0003
0000
0000
0000
;
