#TITLE:ALBIDA;
#SUBTITLE:;
#ARTIST:DJ YOSHITAKA;
#TITLETRANSLIT:;
#SUBTITLETRANSLIT:;
#ARTISTTRANSLIT:;
#GENRE:;
#CREDIT:;
#BANNER:ALBIDA.png;
#BACKGROUND:ALBIDA-bg.png;
#LYRICSPATH:;
#CDTITLE:;
#MUSIC:ALBIDA.ogg;
#OFFSET:-2.755003;
#SAMPLESTART:20.873020;
#SAMPLELENGTH:15.000002;
#SELECTABLE:YES;
#BPMS:0.000000=185.080002
;
#STOPS:
;
#BGCHANGES:;
#KEYSOUNDS:;
#ATTACKS:;

//---------------dance-single - ----------------
#NOTES:
     dance-single:
     :
     Beginner:
     2:
     0.121178,0.171770,0.000000,0.000000,0.000000,100.000000,100.000000,0.000000,0.000000,0.000000,0.000000,0.121178,0.171770,0.000000,0.000000,0.000000,100.000000,100.000000,0.000000,0.000000,0.000000,0.000000:
0000
0000
0000
0000
,
0000
0000
0000
0000
,
1000
0000
0000
0000
,
1000
0000
0000
0000
,
0001
0000
0000
0000
,
0001
0000
0000
0000
,
0100
0000
0000
0000
,
0100
0000
0000
0000
,
0010
0000
0000
0000
,
0010
0000
0000
0000
,
1000
0000
0000
0000
,
1000
0000
0000
0000
,
0001
0000
0000
0000
,
0001
0000
0001
0000
,
0001
0000
0000
0000
,
1000
0000
0000
0000
,
1000
0000
0000
0000
,
0010
0000
0000
0000
,
0010
0000
0000
0000
,
0100
0000
0000
0000
,
0100
0000
0000
0000
,
0001
0000
0000
0000
,
0001
0000
0000
0000
,
1000
0000
0000
1000
,
0000
0000
1000
0000
,
0000
0001
0000
0000
,
0001
0000
0000
0000
,
0100
0000
0100
0000
,
0100
0000
0000
0000
,
0010
0000
0010
0000
,
0010
0000
0000
0000
,
1000
0000
0000
0000
,
1000
0000
0000
0000
,
0001
0000
0001
0000
,
0001
0000
0000
0000
,
0100
0000
0100
0000
,
0100
0000
0000
0000
,
0010
0000
0010
0000
,
0010
0000
0000
0000
,
1000
0000
1000
0000
,
1000
0000
0000
0000
,
0001
0000
0001
0000
,
0001
0000
0000
0000
,
0100
0000
0100
0000
,
0100
0000
0000
0000
,
0010
0000
0010
0000
,
0010
0000
0000
0000
,
1000
0000
0000
0000
,
1000
0000
0000
0000
,
0001
0000
0000
0000
,
0001
0000
0000
0000
,
0100
0000
0000
0000
,
0100
0000
0000
0000
,
0010
0000
0000
0000
,
0010
0000
0000
0000
,
1000
0000
0000
0000
,
0001
0000
0000
0000
,
0100
0000
0000
0000
,
0100
0000
0000
0000
,
0010
0000
0000
0000
,
0010
0000
0000
0000
,
1000
0000
1000
0000
,
1000
0000
0000
0000
,
0001
0000
0001
0000
,
0001
0000
0000
0000
,
0100
0000
0100
0000
,
0100
0000
0010
0000
,
0010
0000
0010
0000
,
1000
0000
0000
0000
,
0001
0000
0000
0000
,
0001
0000
0000
0000
,
0100
0000
0000
0000
,
0100
0000
0000
0000
,
0010
0000
0010
0000
,
0010
0000
0000
0000
,
1000
0000
1000
0000
,
1000
0000
0000
0000
,
0001
0000
0000
0001
,
0000
0000
0001
0000
,
0100
0000
0000
0000
,
0100
0000
0010
0000
,
0100
0000
0000
0000
;

//---------------dance-single - ----------------
#NOTES:
     dance-single:
     :
     Easy:
     4:
     0.229027,0.274832,0.000000,0.000000,0.000000,189.000000,189.000000,0.000000,0.000000,0.000000,0.000000,0.229027,0.274832,0.000000,0.000000,0.000000,189.000000,189.000000,0.000000,0.000000,0.000000,0.000000:
0000
0000
0000
0000
,
0000
0000
0000
0000
,
1000
0000
0001
0000
,
1000
0000
0010
0000
,
0100
0000
0010
0000
,
1000
0000
0100
0000
,
0001
0000
0000
0000
,
0100
1000
0100
0000
,
1000
0001
1000
0000
,
0001
0010
0001
0000
,
1000
0000
0001
0000
,
1000
0001
1000
0000
,
0001
0100
0001
0000
,
0100
0000
0010
0000
,
0100
0000
0000
0000
,
0001
0000
0010
0000
,
0001
0000
0100
0000
,
0010
0100
0010
0000
,
1000
0000
0001
0000
,
1000
0000
0001
0000
,
0100
0000
0010
0000
,
0100
0010
0100
0000
,
0010
0000
1000
0000
,
0001
0000
1000
0000
,
0001
0000
0100
0000
,
0010
0000
0100
0000
,
0001
0000
1000
0000
,
0010
1000
0010
0000
,
0100
0000
0001
0000
,
1000
0001
1000
0000
,
0001
0000
0010
0000
,
0001
0000
1000
0100
,
1000
0000
0010
0100
,
0010
0000
0100
0000
,
0001
0000
0010
0000
,
0001
1000
0001
0000
,
1000
0100
1000
0000
,
0100
0010
0100
0000
,
0010
0001
0010
0000
,
0001
0000
1000
0000
,
0001
0000
0100
0000
,
0010
0000
0100
0000
,
0001
0000
1000
0000
,
0010
1000
0010
0000
,
1000
0001
1000
0000
,
0001
0100
1000
0100
,
0001
0000
1000
0000
,
0001
0000
0000
0000
,
1000
0000
0000
0000
,
0001
0000
0000
0000
,
1000
0000
0000
0000
,
0001
0000
0000
0000
,
1000
0000
0010
0000
,
1000
0010
1000
0000
,
0001
0000
0100
0000
,
0010
0000
0100
0000
,
0001
0000
0010
0000
,
0001
1000
0001
0000
,
1000
0000
0010
0000
,
0100
0010
0100
0000
,
0001
1000
0001
0000
,
1000
0010
1000
0000
,
0001
0000
0100
0000
,
0010
0100
0010
0000
,
0100
0000
0001
0000
,
1000
0001
1000
0000
,
0001
0010
0001
0000
,
0100
0001
0100
0000
,
0001
1000
0001
0000
,
1000
0010
1000
0000
,
0010
0100
0010
0000
,
0100
0000
0100
0000
,
0001
0000
0001
0000
,
1000
0000
1000
1000
,
1000
0000
0010
0010
,
0010
0000
0100
0000
,
0100
0000
0001
0000
,
1000
0001
1000
0000
,
0001
0010
0001
0000
,
0100
0100
0100
0000
,
0010
1000
0010
0000
,
0100
0000
0000
0000
;

//---------------dance-single - ----------------
#NOTES:
     dance-single:
     :
     Medium:
     10:
     0.386559,0.412249,0.008482,0.000000,0.000000,319.000000,318.000000,1.000000,0.000000,0.000000,0.000000,0.386559,0.412249,0.008482,0.000000,0.000000,319.000000,318.000000,1.000000,0.000000,0.000000,0.000000:
0000
0000
0000
0000
,
0000
0000
0000
0000
,
1000
0001
1000
0001
,
0010
0001
0100
0010
,
0100
0000
0001
0010
,
0001
0000
1000
0000
,
0100
0000
0000
0000
,
1000
0100
1000
0000
0100
0010
0100
0000
,
0010
0000
0001
0010
0000
0001
0010
0000
,
0010
0100
1000
0100
,
0010
0000
0001
0010
0000
0001
0010
0000
,
0100
1000
0100
1000
,
0001
0010
0001
0010
,
1100
1000
0001
0100
,
0010
0100
0001
0010
,
0001
0000
1000
0000
0100
0000
1000
0100
,
1000
0010
0100
0010
,
1000
0000
0010
1000
0000
1000
0000
0001
,
0000
0100
0000
0010
0000
0100
0000
0000
,
0001
0000
1000
0001
0000
1000
0010
0000
,
0000
1000
0010
1000
0000
0010
0100
0010
,
0100
0010
0100
0001
,
1000
0001
0010
1000
,
0010
0001
0100
0010
,
0100
0001
0010
0001
,
1000
0000
0100
1000
0000
1000
0000
0001
,
0000
0100
0000
0010
0000
0100
0000
0000
,
0001
0000
1000
0001
0000
1000
0010
1000
,
0000
0001
0100
0001
0000
0000
1000
0000
,
0001
0010
0001
0100
,
0010
0100
0010
1000
,
0001
0000
0100
0000
0010
0100
0010
0000
,
1000
0000
0001
0000
1000
0001
1000
0000
,
0001
0100
0010
0100
,
0001
0010
1000
0010
,
0001
0100
0001
0000
1000
0010
1000
0000
,
0010
0000
0100
0010
0100
0000
0010
0000
,
1000
0100
0010
0001
,
0010
0100
1000
0001
,
0100
0010
0100
0001
,
0010
0001
1000
0100
,
1000
0010
0100
0010
,
1000
0001
0100
0010
,
0100
0001
0010
0001
,
1000
0100
1000
0010
,
0100
0010
0100
0000
0010
1000
0010
0000
,
1000
0001
0010
0001
,
0100
0000
0000
0000
,
0010
0000
0000
0000
,
1000
0000
0000
0000
,
0001
0000
0100
0000
,
0010
0000
1000
0000
,
0010
0000
0100
0000
,
0001
0100
0001
0000
1000
0000
0010
0000
,
1000
0000
0001
0100
,
0010
0000
0100
0001
,
0010
0000
0001
0000
,
1000
0100
1000
0100
,
0010
0001
0010
0001
,
0100
0010
0100
0010
,
1000
0100
1000
0100
,
0010
0001
0010
0001
,
1000
0010
1000
0010
,
0100
0000
0001
0100
0000
0001
0000
0100
,
0000
0010
0000
0000
1000
0000
0000
0000
,
0010
1000
0010
0000
1000
0010
1000
0000
,
0001
0000
0100
0000
0010
0100
0010
0000
,
0100
0010
1000
0100
,
0010
0001
0010
0100
,
1000
0001
1000
0001
,
0100
0001
0100
0000
0010
0100
0010
0000
,
1000
0100
0010
0001
,
0010
0001
0010
0100
,
1000
0000
0001
0000
1000
0001
1000
0000
,
0010
0100
0010
0000
1000
0000
0001
0000
,
0010
0001
0100
0010
,
0100
0001
0010
0100
,
1000
0001
0010
0001
,
0010
0100
1000
0100
,
1000
0100
0010
0001
,
0010
0001
0010
0000
0001
1000
0001
0000
,
1000
0000
0000
0000
;

//---------------dance-single - ----------------
#NOTES:
     dance-single:
     :
     Hard:
     14:
     0.716164,0.844855,0.458054,0.279922,0.241751,591.000000,537.000000,54.000000,33.000000,0.000000,0.000000,0.716164,0.844855,0.458054,0.279922,0.241751,591.000000,537.000000,54.000000,33.000000,0.000000,0.000000:
// measure 0
0000
0000
0000
0000
,  // measure 1
0000
0000
0000
0000
,  // measure 2
1000
0100
0010
0002
0000
0103
0010
2000
,  // measure 3
0000
3010
0100
0002
0000
0103
0001
0010
,  // measure 4
0002
0000
0000
0000
0000
0000
0000
0000
0003
0000
0000
0000
0000
0000
1000
0100
,  // measure 5
2000
0000
0000
3000
0010
0000
0000
0000
,  // measure 6
1001
0000
0000
0000
,  // measure 7
0001
0100
0100
0010
1000
1000
0001
0100
,  // measure 8
0110
0000
0010
1001
0000
0101
0000
0001
,  // measure 9
0010
0100
0010
0001
1000
0100
0010
0100
,  // measure 10
1000
0000
0010
0101
0000
1001
0000
1000
,  // measure 11
0010
0010
0100
0001
0010
0100
0010
0001
,  // measure 12
0100
0100
0010
0001
0010
0100
0001
1000
,  // measure 13
0100
1100
0000
1000
1001
0000
0110
0000
,  // measure 14
0001
0010
0001
0000
1000
0000
0100
0000
0010
0000
0001
0000
0010
0000
0100
0000
,  // measure 15
1000
0000
1000
0000
0001
0000
0201
0000
0000
0000
0301
1000
0001
0000
0200
0000
,  // measure 16
0000
0000
0310
1000
0010
0000
2000
0000
0000
0000
3001
0000
0010
0000
0100
0000
,  // measure 17
1000
0000
0001
0101
0000
0110
0000
1010
,  // measure 18
0000
1001
0000
0101
0000
0100
0010
1000
,  // measure 19
0001
0000
0010
0000
0100
0000
2100
0000
0000
0000
3001
0100
0001
0000
0020
0000
,  // measure 20
0000
0031
1000
0200
0000
1300
0001
0010
,  // measure 21
0011
0000
1000
0001
0000
0101
0000
0100
,  // measure 22
0001
0000
0010
0000
0100
0000
0010
0000
0100
1000
0100
0000
1000
0001
1000
0000
,  // measure 23
0001
0000
0010
0000
0100
0000
2000
0000
0000
0000
3001
1000
0001
0000
0200
0000
,  // measure 24
0000
0000
0301
1000
0001
0000
0020
0000
0000
0000
0031
0000
0001
0000
0100
0000
,  // measure 25
0110
0000
0010
1000
0000
1001
0000
0101
,  // measure 26
0000
0011
0000
1000
0001
0010
0100
1000
,  // measure 27
0001
0000
0010
0000
0001
0000
0200
0000
0000
0000
0310
1000
0010
0000
2000
0000
,  // measure 28
0000
3001
0100
0120
0000
1030
0001
0100
,  // measure 29
0110
0000
0010
1000
0000
1100
0000
1000
,  // measure 30
0100
0000
0010
0000
0001
0000
0100
0000
0010
1000
0010
0000
1000
0100
1000
0000
,  // measure 31
0001
0000
0100
0000
0010
0000
0000
0110
0000
0000
0100
0000
0001
0000
1000
0000
,  // measure 32
0001
0000
0010
0000
1000
0000
0000
0011
0000
0000
0001
0000
0100
0000
0010
0000
,  // measure 33
1001
0000
0000
0000
1000
0000
0010
0100
0010
0000
1000
0000
0001
0000
0020
0000
,  // measure 34
0000
0000
0031
0000
0100
0000
0010
0000
0100
0001
1000
0000
0001
0000
0100
0000
,  // measure 35
0001
1000
0010
0100
0001
0001
1000
0100
,  // measure 36
1000
1000
0010
0100
0001
0001
0100
0010
,  // measure 37
0000
0110
0000
0000
0101
0000
0000
1001
0000
0000
1000
0000
0010
0000
0100
0000
,  // measure 38
0010
0000
0010
0000
1000
0000
0000
1001
0000
0000
0001
0000
0100
0000
0010
0000
,  // measure 39
0100
0000
0001
0000
0010
0000
0000
1001
0000
0000
1000
0000
0010
0000
0100
0000
,  // measure 40
0010
0000
1000
0000
0001
0000
0000
0101
0000
0000
0100
0000
0010
0000
1000
0000
,  // measure 41
1002
0000
0000
0000
0103
0000
0200
0000
0000
0000
0301
0010
0100
0000
2000
0000
,  // measure 42
0000
3001
0001
0010
0100
0001
0100
1000
,  // measure 43
0001
0001
0100
1000
1000
0100
0001
0001
,  // measure 44
0010
0001
0001
0010
1000
1000
0010
0001
,  // measure 45
1000
0001
1000
0000
0010
0000
0100
0010
0001
0000
0010
0000
1000
0100
1000
0000
,  // measure 46
0001
0010
0001
0010
0001
0000
0010
0000
0100
0000
0000
0110
0000
0000
0100
0000
,  // measure 47
1001
0000
0000
0000
,  // measure 48
0000
0000
0000
0000
,  // measure 49
0001
0010
0100
1000
0000
1000
0010
0001
,  // measure 50
0000
0001
0010
1000
0000
0010
0100
0001
,  // measure 51
0020
0000
0030
0000
0000
0001
0010
0100
,  // measure 52
2000
3000
1001
0000
,  // measure 53
1000
0100
0010
0001
0000
0001
0100
0010
,  // measure 54
0000
0100
0010
1000
0000
0010
0100
0001
,  // measure 55
0200
0000
0000
0000
0000
0000
0000
0000
0300
0000
0000
0000
0000
0000
0001
1000
,  // measure 56
0002
0000
0203
0000
,  // measure 57
0310
0000
1000
0000
0001
0000
0020
0000
0000
0000
0031
0100
0001
0000
2000
0000
,  // measure 58
0000
0000
3010
0100
0010
0000
0200
0000
0000
0000
0301
0000
0010
0000
0001
0000
,  // measure 59
0100
0000
0100
0110
0000
1010
0000
1001
,  // measure 60
0000
0101
0000
0110
0000
1001
0001
0010
,  // measure 61
1000
0010
0001
0100
0010
1000
0010
0100
,  // measure 62
0001
0010
0001
0010
0100
1000
0100
1000
,  // measure 63
0001
1000
0001
0000
1000
0010
1000
0000
0001
1000
0001
0000
0010
0001
0100
0000
,  // measure 64
0001
0000
0001
0000
0010
0000
0100
0000
1000
0001
1000
0000
0001
1000
0001
0000
,  // measure 65
0100
0000
0100
0000
0010
0000
0000
1001
0000
0000
0001
0000
0010
0000
0100
0000
,  // measure 66
1000
0000
0001
0000
1000
0000
0000
1010
0000
0000
0010
0000
0100
0000
0001
0000
,  // measure 67
0100
0000
0000
0000
0010
0000
1000
0001
1000
0000
0001
0100
0001
0000
0020
0000
,  // measure 68
0000
0031
0010
0100
1000
1000
0010
0001
,  // measure 69
0010
0000
0010
0000
0100
0000
0001
0000
0010
0100
0010
0000
1000
0000
0010
0000
,  // measure 70
0001
0000
1000
0000
0010
0000
0100
0000
0010
1000
0010
0000
0100
0000
0001
0000
,  // measure 71
0000
1001
0000
0000
1010
0000
0000
0110
0000
0000
0010
0000
0100
0000
0001
0000
,  // measure 72
1000
0100
1000
0000
0010
0000
0000
0110
0000
0000
0100
0000
0001
0000
1000
0000
,  // measure 73
0100
0000
1000
0000
0010
0000
0000
0110
0000
0000
0100
0000
0001
0000
1000
0000
,  // measure 74
0001
0000
0010
0000
1000
0000
0000
0010
0000
0000
0001
0000
1000
0000
0001
0000
,  // measure 75
0100
0000
0000
0000
0100
0000
0010
1000
0010
1000
0010
0000
0100
0000
0002
0000
,  // measure 76
0000
0013
1000
0010
0001
0100
1000
0100
,  // measure 77
0001
0001
1000
0010
0010
0100
0001
0001
,  // measure 78
1000
0100
0100
1000
0010
0010
0100
1000
,  // measure 79
1000
0100
0001
0000
0100
0000
0010
1000
0001
0000
0100
0000
0010
1000
0001
0000
,  // measure 80
1000
0010
1000
0010
1000
0000
0001
0000
0010
0000
0000
0011
0000
0000
0101
0000
,  // measure 81
0220
0000
0000
0000
,  // measure 82
0000
0000
0000
0000
,  // measure 83
0330
0000
0000
0000
;

//---------------dance-single - ----------------
#NOTES:
     dance-single:
     :
     Challenge:
     17:
     0.871272,1.056069,0.610739,0.347782,0.665875,719.000000,647.000000,72.000000,41.000000,0.000000,0.000000,0.871272,1.056069,0.610739,0.347782,0.665875,719.000000,647.000000,72.000000,41.000000,0.000000,0.000000:
// measure 0
0000
0000
0000
0000
,  // measure 1
0000
0000
0000
0000
,  // measure 2
1000
0100
0001
0200
0000
0310
0001
0012
,  // measure 3
0000
0103
0010
2010
0000
3001
0100
0010
,  // measure 4
0002
0000
0000
0000
0000
0000
0000
0000
0003
0000
0000
0000
0000
0000
0010
1000
,  // measure 5
0002
0000
0000
0003
0101
0000
0000
0000
,  // measure 6
1001
0000
0000
0000
,  // measure 7
1000
0001
0100
0000
0010
0000
1000
0000
0001
1000
0010
0000
0100
0000
0001
0000
,  // measure 8
1001
0000
0110
1001
0000
0101
0000
0001
,  // measure 9
1000
0010
1000
0000
0010
0000
0001
0000
0010
1000
0001
0000
0100
0001
1000
0000
,  // measure 10
1001
0000
0110
1001
0000
0110
0000
1000
,  // measure 11
0010
0100
0010
0000
0001
0000
0010
0000
0100
0001
0100
0000
0010
0000
0010
0000
,  // measure 12
1001
1000
0010
0001
0010
0010
0100
0100
,  // measure 13
0011
0000
0000
0110
0000
0000
1100
0000
,  // measure 14
0001
0010
0001
0010
0100
1000
0100
1000
0010
0100
0010
0100
0001
1000
0001
1000
,  // measure 15
0010
0000
1000
0000
0001
0100
0002
0000
0000
0000
1003
0010
0100
0010
0200
0000
,  // measure 16
0000
0000
0301
1000
0010
1000
0020
0000
0000
0000
0130
0000
0001
0000
1000
0000
,  // measure 17
1001
0000
1000
1010
0000
0110
0000
0101
,  // measure 18
0000
1001
0000
0011
0000
0001
0100
0100
,  // measure 19
0010
1000
0100
0000
1000
0000
2001
0000
0000
0000
3001
0100
0001
0100
0020
0000
,  // measure 20
0000
0000
1030
0001
1000
0000
1002
0000
0000
0000
0013
0000
0100
0000
0010
0000
,  // measure 21
1001
0000
0100
1010
0000
0110
0000
0100
,  // measure 22
0001
0010
0001
0000
0010
0100
0010
0000
0100
1000
0100
1000
0001
0100
0001
0100
,  // measure 23
0010
0000
1000
0000
0001
0100
0020
0000
0000
0000
1030
0100
0010
0001
0200
0000
,  // measure 24
0000
0000
0301
0010
0001
0100
0020
0000
0000
0000
1030
0000
0001
0000
0100
0000
,  // measure 25
0101
0000
0001
1001
0000
1010
0000
0110
,  // measure 26
0000
0101
0000
0001
0001
0010
0100
1000
,  // measure 27
0010
0100
0010
0000
0100
0001
2000
0000
0000
0000
3001
0100
0010
0100
0002
0000
,  // measure 28
0000
0000
1003
0100
1000
0001
0020
0000
0000
0000
0031
0000
1000
0000
0010
0000
,  // measure 29
1010
0000
1001
0110
0000
1001
0000
1000
,  // measure 30
0001
0010
0001
0000
0100
0001
0100
0000
0001
0010
0001
0010
0100
1000
0100
1000
,  // measure 31
0010
0000
0100
0001
0100
0000
0001
0010
0000
0001
0100
0000
0010
0000
0010
0000
,  // measure 32
1000
0000
0001
0100
0001
0000
0010
0001
0000
0001
0100
0000
0010
0000
0100
0000
,  // measure 33
1001
0000
0000
0000
0010
0000
1000
0001
0100
0001
1000
0001
0100
0001
2000
0000
,  // measure 34
0000
0000
3010
0000
0100
0000
0001
0000
0100
0010
1000
0010
0100
0010
1000
0010
,  // measure 35
0100
0100
0001
0001
0100
0100
1000
1000
,  // measure 36
0100
0100
0010
0010
1000
1000
0100
0011
,  // measure 37
0000
0101
0000
0000
1001
0000
0000
1010
0000
0000
0010
0000
0100
0000
0001
0000
,  // measure 38
0010
0001
0010
0001
0010
0000
0001
1000
0000
1000
0010
0000
0110
0000
0100
0000
,  // measure 39
0010
0000
0100
0000
0110
0000
0001
1000
0000
1000
0001
0000
0110
0000
0100
0000
,  // measure 40
1001
0000
0001
0000
0011
0000
0010
0100
0000
0100
0010
0000
0001
0000
1000
0000
,  // measure 41
1100
0000
0000
0000
1001
0000
0101
0000
0000
0000
1000
0100
0010
0001
0200
0000
,  // measure 42
0000
0000
0301
0000
1000
0000
0010
0000
1000
0100
1000
0100
1000
0100
1000
0000
,  // measure 43
0001
0000
0001
0100
1000
0000
1000
0000
1000
0100
0001
0000
1000
0000
1000
0010
,  // measure 44
0001
0000
0001
0000
0001
0010
1000
0000
0010
0000
0010
0100
0001
0000
1000
0001
,  // measure 45
1000
0001
0100
0001
0100
0000
0001
1000
0010
1000
0010
0000
1000
0100
1000
0000
,  // measure 46
0001
0010
0100
1000
0010
0100
0001
0010
0100
1000
0010
0100
0001
0010
0100
1000
,  // measure 47
0020
0000
0000
0000
,  // measure 48
0000
0000
0000
0000
,  // measure 49
1030
0100
0100
2000
0000
3001
0100
0002
,  // measure 50
0000
0103
0001
0200
0000
0301
0010
0010
,  // measure 51
0002
0000
0000
0000
0003
1000
0001
1000
,  // measure 52
2002
0000
0000
3003
0220
0000
0000
0330
,  // measure 53
0010
1000
1000
0002
0000
0103
0010
0200
,  // measure 54
0000
0301
1000
0002
0000
1003
0100
0010
,  // measure 55
0002
0000
0000
0000
0000
0000
0000
0000
0000
0000
0000
0000
0003
0000
1000
0100
,  // measure 56
2000
0000
3002
0000
,  // measure 57
0103
0000
0100
0000
0010
0000
2010
0000
0000
0000
3001
0100
0001
0100
0020
0000
,  // measure 58
0000
0000
1030
0001
1000
0001
0200
0000
0000
0000
0310
0000
1000
0000
0001
0000
,  // measure 59
0101
0000
1001
1010
0000
0110
0000
0011
,  // measure 60
0000
0101
0000
1100
0000
1001
1000
0100
,  // measure 61
0001
0100
1000
0010
0100
0001
1000
0001
,  // measure 62
1000
0100
0010
0001
1000
0001
0010
0100
,  // measure 63
1000
0010
0100
0000
0100
0010
1000
0000
0001
0100
0010
1000
0100
1000
0001
0000
,  // measure 64
0100
0000
0100
0000
0010
0000
1000
0000
0010
1000
0010
0000
1000
0001
1000
0000
,  // measure 65
0110
0000
0100
0001
1000
0000
0100
1000
0000
1000
0001
0000
0010
0000
0001
0000
,  // measure 66
0100
0000
0010
1000
0001
0000
1000
0010
0000
0010
0100
0000
0001
0000
1000
0000
,  // measure 67
1010
0000
0000
0000
0010
0000
1000
0001
1000
0001
0100
0001
0100
0001
0200
0000
,  // measure 68
0000
0000
0301
0000
0010
0000
0100
0000
1000
0001
0010
0001
1000
0001
0010
0001
,  // measure 69
1000
0000
1000
0000
0010
0100
0010
0000
0100
0001
1000
0000
0010
0000
0010
0000
,  // measure 70
1000
0100
0001
0000
0100
0000
0100
0000
1000
0001
0010
0000
0100
0000
0101
0000
,  // measure 71
0000
1100
0000
0000
1010
0000
0000
0110
0000
0000
0010
0000
0001
0000
0010
0000
,  // measure 72
1000
0100
1000
0100
1000
0000
0000
0000
0001
0100
0001
0000
0100
0000
0010
0000
,  // measure 73
1000
0000
0001
0000
1001
0000
1000
0010
0000
1000
0001
0000
0100
0000
0001
0000
,  // measure 74
1000
0000
0010
1000
0010
0000
0100
0010
0000
1000
0010
0000
0100
0000
0001
0000
,  // measure 75
0101
0000
0000
0000
0100
0000
0010
1000
0010
1000
0010
0000
1000
0000
1002
0000
,  // measure 76
0000
0000
0103
0000
1000
0000
0100
0000
0001
1000
0100
1000
0001
1000
0100
0000
,  // measure 77
1000
0100
0001
0000
0001
0000
0001
0010
1000
0000
1000
0000
1000
0100
0001
0000
,  // measure 78
0001
0000
0001
0010
1000
0000
1000
0000
1000
0100
0001
0000
0001
0000
0001
0100
,  // measure 79
1000
0010
0100
0010
0100
0000
0001
0010
0100
1000
0001
0000
1000
0001
1000
0000
,  // measure 80
0100
0010
0001
0010
0100
1000
0001
1000
0001
0000
0000
0110
0000
0000
1001
0000
,  // measure 81
2002
0000
0000
0000
,  // measure 82
0000
0000
0000
0000
,  // measure 83
3003
0000
0000
0000
;
