#TITLE:アキネイション;
#SUBTITLE:;
#ARTIST:ビートまりお(COOL&CREATE);
#TITLETRANSLIT:Aki Nation;
#SUBTITLETRANSLIT:;
#ARTISTTRANSLIT:beatMARIO (COOL&CREATE);
#GENRE:;
#CREDIT:;
#BANNER:Aki Nation.png;
#BACKGROUND:Aki Nation-bg.png;
#LYRICSPATH:;
#CDTITLE:;
#MUSIC:Aki Nation.ogg;
#OFFSET:-2.620000;
#SAMPLESTART:13.033010;
#SAMPLELENGTH:12.999996;
#SELECTABLE:YES;
#DISPLAYBPM:185.009995;
#BPMS:0.000000=185.000000
;
#STOPS:
;
#BGCHANGES:;
#KEYSOUNDS:;
#ATTACKS:;

//---------------dance-single - ----------------
#NOTES:
     dance-single:
     :
     Beginner:
     3:
     0.211563,0.290835,0.008921,0.000000,0.000000,166.000000,165.000000,1.000000,0.000000,0.000000,0.000000,0.211563,0.290835,0.008921,0.000000,0.000000,166.000000,165.000000,1.000000,0.000000,0.000000,0.000000:
0000
0000
0000
0000
,
0000
0000
0000
0000
,
0000
0000
0000
0000
,
0000
0000
0000
0000
,
1000
0000
0000
0000
,
1000
0000
0001
0000
,
0001
0000
0100
0000
,
0100
0100
0100
0000
,
0010
0010
0010
0010
,
0010
0000
1000
0000
,
0001
0001
0001
0000
,
1000
1000
1000
0000
,
0010
0000
0010
0000
,
0100
0000
0100
0000
,
0001
0000
0001
0000
,
1000
1000
1000
0000
,
0010
0000
0010
0000
,
0100
0000
0100
0000
,
0001
0000
0001
0000
,
1000
1000
1000
0000
,
0001
0000
0010
0000
,
0001
0000
0100
0000
,
0010
0000
0100
0000
,
0001
0000
1000
0000
,
0010
0000
0010
0000
,
1000
0000
1000
0000
,
0100
0000
0100
0000
,
0010
0000
0010
0000
,
0001
0000
0001
0000
,
0010
0000
0010
0000
,
1000
0000
1000
0000
,
0001
0000
0001
0000
,
0100
0000
0100
0000
,
0010
0010
0010
0000
,
1000
0000
1000
0000
,
0001
0001
0001
0000
,
0101
0000
0100
0000
,
0100
0000
0010
0000
,
0010
0000
1000
0000
,
1000
0000
0001
0000
,
0001
0000
0100
0000
,
0100
0000
0010
0000
,
0010
0000
1000
0000
,
1000
0000
0001
0000
,
0001
0000
0010
0000
,
0001
0000
0100
0000
,
0010
0000
0010
0000
,
0100
0000
0100
0000
,
0001
0000
0001
0000
,
1000
0000
1000
0000
,
0001
0000
0001
0000
,
0010
0010
0010
0000
,
0100
0000
0100
0000
,
1000
0000
1000
0000
,
0100
0000
0100
0000
,
0001
0000
0000
0000
,
0001
0000
1000
0000
,
0001
0000
1000
0000
,
0010
0000
1000
0000
,
0010
0000
0100
0000
,
0010
0000
1000
0000
,
0100
0000
1000
0000
,
0001
0000
0010
0000
,
0001
0000
0001
0000
,
0100
0000
0010
0000
,
0100
0000
0010
0000
,
0100
0000
0001
0000
,
0100
0000
0001
0000
,
1000
0000
0010
0000
,
1000
0000
0010
0000
,
0100
0000
0001
0000
,
0100
0000
0001
0000
,
1000
0000
0001
0000
,
1000
0000
0001
0000
,
1000
0000
0100
0000
,
1000
1000
1000
0000
,
0001
0000
0010
0000
,
0001
0000
0010
0000
,
0100
0000
1000
0000
,
0100
0000
1000
0000
,
0001
0000
0001
0000
,
1000
0000
1000
0000
;

//---------------dance-single - ----------------
#NOTES:
     dance-single:
     :
     Easy:
     7:
     0.430772,0.618025,0.454987,0.000000,0.000000,338.000000,287.000000,51.000000,0.000000,0.000000,0.000000,0.430772,0.618025,0.454987,0.000000,0.000000,338.000000,287.000000,51.000000,0.000000,0.000000,0.000000:
0000
0000
0000
0000
,
0000
0000
0000
0000
,
0000
0000
0000
0000
,
0000
0000
0000
0000
,
1000
1000
0001
0001
,
0010
0010
0100
0100
,
1000
0100
0001
0010
,
0001
0100
1000
0001
,
0010
0001
0010
0001
,
0100
1000
0010
1000
,
0001
1000
0010
0001
,
0100
0001
0010
1000
,
0001
0100
0010
0100
,
0001
0010
0001
1000
,
0100
1000
0010
0100
,
0110
0100
0101
0001
,
1000
0010
1000
0100
,
0010
0001
0100
0000
,
0010
1000
0100
1000
,
0001
0001
1001
0000
,
1000
0100
1000
0100
,
0010
0001
0011
0000
,
0010
0100
1000
0100
,
0010
0001
1000
0100
,
0010
0100
1000
0001
,
0010
0001
0100
0000
,
0010
1000
0100
1000
,
0001
0001
0011
0000
,
0010
0100
1000
0100
,
0010
0001
1000
0100
,
0001
0010
0001
0100
,
1000
0000
0000
0000
,
1001
0001
0011
0010
,
0110
0100
1100
0000
,
1001
1001
0000
0000
,
1001
1001
0010
0010
,
0100
0100
1000
0010
,
0001
0010
1000
0000
,
0100
0001
0010
0001
,
0100
1000
0010
0000
,
0001
0010
1000
0100
,
1001
1001
1001
0000
,
1010
1010
0000
0000
,
0110
0110
0110
0000
,
0100
0001
0010
0001
,
0100
0010
1000
0100
,
1000
0010
0100
0001
,
0010
0100
1000
0001
,
1001
1000
0100
0010
,
0011
0001
0100
0010
,
0100
0010
1000
0100
,
1100
0100
0100
0001
,
0010
0100
1000
0010
,
0001
0100
1000
0010
,
0001
0100
1000
0100
,
0001
0010
1000
0000
,
1001
0001
0101
0100
,
1100
1000
1010
0010
,
0011
0001
0101
0100
,
1100
1100
1100
0101
,
0101
0000
0010
1000
,
0100
0000
1000
0100
,
0010
0001
1000
0100
,
1000
0000
0000
0000
,
0001
0010
0001
0100
,
0010
0100
0001
0010
,
0100
1000
0010
0001
,
0010
1000
0100
0001
,
0100
1000
0010
0001
,
0010
1000
0100
0001
,
0010
0001
0100
1000
,
1001
1001
1001
0000
,
0110
0010
0010
0010
,
0100
0100
0100
0001
,
0001
1000
0100
0010
,
0001
0010
0100
1000
,
0001
0010
1000
0010
,
1001
0100
0001
0100
,
1100
0001
0011
0110
,
1100
0101
1010
0110
,
1001
0100
0010
0100
,
1010
0101
1010
0000
;

//---------------dance-single - ----------------
#NOTES:
     dance-single:
     :
     Medium:
     11:
     0.439694,0.472607,0.098135,0.151662,0.004461,345.000000,334.000000,11.000000,17.000000,0.000000,0.000000,0.439694,0.472607,0.098135,0.151662,0.004461,345.000000,334.000000,11.000000,17.000000,0.000000,0.000000:
0000
0000
0000
0000
,
0000
0000
0000
0000
,
0000
0000
0000
0000
,
0000
0000
0000
0000
,
0010
1000
0010
0000
1000
0000
0100
0000
,
0010
0000
0001
0010
0001
0000
0100
0000
,
0010
1000
0001
1000
,
0010
0100
0010
0000
0100
0000
0001
0000
,
0010
1000
0010
0000
0001
0000
0100
0000
,
1000
0100
0001
0000
0010
0000
0100
0000
,
1000
0001
1000
0010
,
0100
0001
0011
0010
,
0100
1000
0001
1000
,
0001
1000
0001
0000
0100
0000
0010
0000
,
0100
0000
0001
1000
0001
0000
1000
0000
,
0010
1000
0010
0000
1000
0000
0100
0000
,
0020
0000
0031
0100
,
1000
0100
0002
0000
,
0013
1000
0010
0001
,
1000
0000
0001
1000
0001
0000
0100
0000
,
0010
1000
0100
1000
,
0001
0010
0002
0103
,
0010
0000
1000
0010
1000
0010
1000
0010
,
1000
0100
0010
0001
,
2000
3001
0100
0010
,
1000
0010
0100
0001
,
0010
0001
1000
0100
,
1000
0000
0010
0100
0020
0000
0030
0000
,
1000
0001
2000
3002
,
0203
0320
2030
3020
,
0130
0000
0001
0000
1000
0001
1000
0001
,
1000
0010
0100
0001
,
0011
0000
0010
0000
0100
1000
0100
0000
,
0010
0001
0010
0000
0001
0000
1000
0000
,
0100
1000
1010
0010
,
0100
0001
0100
0001
0100
0000
0001
0000
,
0010
0100
1000
0001
,
1001
0000
1000
0000
1010
0000
0010
0100
,
0010
0100
0001
0010
,
0001
0010
0001
0000
0100
0000
0010
0000
,
1000
0010
1000
0010
,
0100
0001
0100
0001
,
0010
0000
0100
0000
1000
0100
1000
0000
,
0001
1000
0001
0000
1000
0000
0010
0000
,
0100
0001
0100
0000
0001
0100
0001
0000
,
0100
0001
0100
0000
0001
0100
0001
0000
,
1000
0010
0100
0001
,
0020
0000
0000
0000
,
0130
0000
1000
0000
0100
1000
0100
0000
,
1000
0000
0001
0000
1000
0001
1000
0000
,
0001
0000
0010
0000
0001
0010
0001
0000
,
0100
0010
0100
0001
,
2002
3003
0100
0010
,
1000
0000
0010
1000
0010
0000
0100
0000
,
0001
0010
0001
0010
,
0200
0000
0000
0000
,
1300
0000
0001
1000
0001
1000
0001
0000
,
1000
0100
0010
0011
,
0001
0100
1000
0100
,
0101
0010
0100
1000
,
1200
0300
0010
0001
,
0100
0000
0010
0000
,
1000
0010
1000
0001
,
1000
0001
1000
0000
,
0001
0100
0010
0100
,
0001
0000
1000
0000
0010
1000
0010
0000
,
1000
0100
0010
0001
,
1000
0001
1001
0000
,
0001
0100
1000
0100
,
0001
0010
1000
0010
,
0001
0100
0010
0100
,
0001
1000
0001
0000
1000
0001
1000
0000
,
0100
0010
0001
0010
,
0100
1000
0001
1000
,
0001
0010
0001
0100
,
0010
0000
1000
0010
1000
0000
0010
0000
,
0100
0001
0100
0010
,
1000
0001
1000
0100
,
1000
0000
0010
0000
0100
0010
0100
0000
,
0010
1000
0010
0000
1000
0001
1000
0000
,
0002
0000
0000
0000
,
0103
0000
0000
0100
0000
0000
0010
0000
0110
0000
0000
0000
0000
0000
0000
0000
;

//---------------dance-single - ----------------
#NOTES:
     dance-single:
     :
     Hard:
     14:
     0.723902,0.703446,0.231954,0.223033,0.205190,568.000000,542.000000,26.000000,25.000000,0.000000,0.000000,0.723902,0.703446,0.231954,0.223033,0.205190,568.000000,542.000000,26.000000,25.000000,0.000000,0.000000:
// measure 0
0000
0000
0000
0000
,  // measure 1
0000
0000
0000
0000
,  // measure 2
0000
0000
0000
0000
,  // measure 3
0000
0000
0000
0000
,  // measure 4
0001
0100
0010
0100
0001
1000
0100
1000
,  // measure 5
0001
0000
0100
0000
0010
0000
0100
0000
0001
0000
0000
0001
1000
0000
0010
0000
,  // measure 6
1000
0000
0001
0100
0001
0000
1000
0000
0010
0000
0100
0000
0001
0000
0010
0000
,  // measure 7
0001
0000
1000
0000
0010
0000
0100
0000
0010
0000
1000
0001
1000
0000
0001
0000
,  // measure 8
0100
0010
1000
0010
0100
0001
0010
0001
,  // measure 9
1000
0000
0100
0000
0001
0000
0100
0000
1000
0000
0000
1000
0001
0000
0010
0000
,  // measure 10
0100
0001
0100
1000
0001
0010
1000
0010
,  // measure 11
0001
0000
0000
0100
0000
0000
0010
0000
2000
0000
0000
0000
3001
0000
0000
0000
,  // measure 12
0100
0010
1000
0010
0100
0001
0010
0001
,  // measure 13
1000
0000
0100
0000
0010
0000
0001
0000
0100
0000
0000
0010
1000
0000
0010
0000
,  // measure 14
0001
0000
0010
1000
0100
1000
0001
0100
,  // measure 15
0010
0000
1000
0001
1000
0000
0001
0000
0200
0000
0000
0000
0310
0000
0000
0000
,  // measure 16
2010
0000
3000
0010
0100
0001
1000
0002
,  // measure 17
0000
0013
1000
0010
0200
0000
0301
0000
,  // measure 18
0100
0000
0000
1000
0000
0000
0001
0000
0001
0000
0100
0000
0010
0000
1000
0000
,  // measure 19
0100
0000
0000
0100
0010
0000
0001
0000
2000
0000
0000
0000
0000
0000
3000
0000
,  // measure 20
0102
0000
0000
0000
0000
0000
1003
0010
1000
0000
0100
0000
0001
0000
0200
0000
,  // measure 21
0000
1300
0010
0001
0020
0000
2030
0000
,  // measure 22
3001
0000
0001
0100
1000
0100
0001
0010
,  // measure 23
0002
0000
0000
0000
0000
0000
0000
0000
1003
0000
0000
1000
0010
0000
0100
0000
,  // measure 24
0020
0000
0000
0000
1030
0000
0000
1000
0100
0000
0001
0000
0100
0000
1000
0000
,  // measure 25
0000
0010
0001
0010
2000
0000
3001
0000
,  // measure 26
0100
0000
0000
0001
0000
0000
1000
0000
0001
0000
0100
0000
1000
0000
0100
0000
,  // measure 27
0001
0000
0000
0001
0100
0000
0010
0000
1000
0000
0010
0000
0100
0000
0000
0000
,  // measure 28
1002
0000
0000
0000
0103
0000
0000
0100
0001
0000
0010
0000
0001
0000
1000
0000
,  // measure 29
0020
0000
0230
0000
0301
0010
1000
0010
,  // measure 30
0002
0000
0203
0000
1300
0100
0002
0000
,  // measure 31
1003
0000
0100
0000
0010
0000
0001
0000
1000
0000
0000
1000
0010
0000
0000
0000
,  // measure 32
1001
0000
0000
0000
0011
0000
0000
0010
0100
0000
1000
0000
0010
0000
0001
0000
,  // measure 33
0010
0010
1000
1000
0002
0000
0103
0010
,  // measure 34
1000
0000
0000
0000
1001
0000
0000
0001
0100
0000
0010
0000
0100
0000
0001
0000
,  // measure 35
0010
0100
1000
0001
0100
0000
0001
1000
,  // measure 36
0001
0000
0000
0000
0101
0000
0000
0001
0010
0000
1000
0000
0010
0000
0001
0000
,  // measure 37
0100
1000
0100
0001
1000
0000
0010
0100
,  // measure 38
0001
0000
0000
0000
1001
0000
0000
1000
0010
0000
0001
0000
0010
0000
1000
0000
,  // measure 39
0100
0001
0100
1000
0001
0000
0100
0000
,  // measure 40
0101
0000
0000
0000
0011
0000
0000
0010
1000
0000
0010
0000
0001
0000
0100
0000
,  // measure 41
0010
0100
0000
0010
0100
0000
0001
1000
,  // measure 42
0010
0000
0000
0000
0110
0000
0000
0100
0001
0000
1000
0000
0001
0000
0010
0000
,  // measure 43
0001
0001
0100
0100
0010
0000
0100
0000
,  // measure 44
0001
0010
1000
0000
1000
0010
0001
0000
,  // measure 45
0001
0100
1000
0000
1000
0100
0001
0000
,  // measure 46
0110
1100
1001
0110
,  // measure 47
0001
0010
0001
0010
0100
1000
0100
1000
,  // measure 48
0001
0000
0100
0000
0010
0000
1000
0010
1000
0000
0001
0000
0100
0000
0000
0000
,  // measure 49
0010
0000
1000
0000
0010
0000
0100
0001
0100
0000
0010
0000
1000
0000
0000
0000
,  // measure 50
0001
0010
0100
0001
0100
1000
0010
0100
,  // measure 51
0001
0000
0000
0100
0000
0000
0001
0000
1000
0000
0000
0010
1000
0000
0100
0000
,  // measure 52
0020
0000
0000
0000
0030
0000
0001
0100
0001
0000
1000
0000
0001
0000
0010
0000
,  // measure 53
0001
0100
0010
1000
0200
0000
0300
0000
,  // measure 54
1001
0011
0110
1100
,  // measure 55
1000
0000
0000
1000
0000
0000
0001
0000
0100
0000
0000
0000
0010
0000
0100
0000
,  // measure 56
0001
0000
1000
0000
0001
0010
0001
0000
1000
0000
0100
0000
0010
0000
0000
0000
,  // measure 57
0001
0010
1000
0100
0001
1000
0010
0000
,  // measure 58
0010
0100
0001
0010
0001
0100
0010
0000
,  // measure 59
1001
0000
0000
1010
0000
0000
0010
0000
0100
0000
0001
0010
0001
0000
1000
0000
,  // measure 60
0002
0000
0000
0000
0003
0000
0100
0010
0100
0000
0010
0000
1000
0000
0001
0000
,  // measure 61
0100
0000
0010
0000
1000
0000
0100
0000
0010
0000
0000
0010
0001
0000
1000
0000
,  // measure 62
0001
0000
0000
1000
0000
0000
0100
0000
0001
0000
0100
0000
1000
0000
0100
0000
,  // measure 63
0010
0000
0000
0011
0000
0000
0001
0000
0100
0000
0000
0000
0010
0000
1000
0000
,  // measure 64
0001
1000
0010
0100
0001
0100
1000
0100
,  // measure 65
0010
0000
1000
0000
0001
0000
0100
0000
0001
0000
0000
0100
0010
0000
1000
0000
,  // measure 66
0010
0100
0001
0010
1000
0010
0100
0010
,  // measure 67
0001
0000
0000
1001
0000
0000
0001
0000
0100
0000
0000
0000
0010
0000
0000
0000
,  // measure 68
1000
1000
0001
0010
0001
0001
0100
0010
,  // measure 69
1000
0000
1000
0000
0100
0000
0010
0000
0001
0000
0000
0001
0100
0000
1000
0000
,  // measure 70
0100
0100
0001
0001
0010
0010
1000
1000
,  // measure 71
0010
0000
0010
0000
0001
0000
0100
0000
0010
0000
1000
0001
1000
0000
0001
0000
,  // measure 72
0100
0010
0001
0010
0100
0010
1000
0010
,  // measure 73
0100
0000
0010
0000
0001
0000
0010
0000
0100
0000
0000
0100
0001
0000
1000
0000
,  // measure 74
0010
0000
0100
0001
0100
0000
0001
0000
0010
0000
0100
1000
0100
0000
1000
0000
,  // measure 75
0010
0000
0000
0110
0000
0000
0100
0000
0001
0000
0000
0000
0001
0000
0000
0000
,  // measure 76
0100
0010
1000
0010
0100
0001
0010
0001
,  // measure 77
0100
0000
0010
0000
1000
0000
0100
0000
0010
0000
0000
0010
0001
0000
1000
0000
,  // measure 78
0001
0100
0001
0000
1000
0010
1000
0000
,  // measure 79
0001
0000
0010
0000
0001
0000
0010
0000
0100
1000
0100
0000
1000
0000
0100
0000
,  // measure 80
0010
0100
0010
0001
0010
0001
1000
0000
,  // measure 81
0010
0000
0000
0110
0000
0000
0100
0000
2002
0000
0000
0000
0000
0000
0000
0000
,  // measure 82
0000
0000
0000
0000
,  // measure 83
3003
0000
0000
0000
;

//---------------dance-single - ----------------
#NOTES:
     dance-single:
     :
     Challenge:
     16:
     0.934190,0.999634,0.669099,0.196269,0.548661,733.000000,658.000000,75.000000,22.000000,0.000000,0.000000,0.934190,0.999634,0.669099,0.196269,0.548661,733.000000,658.000000,75.000000,22.000000,0.000000,0.000000:
// measure 0
0000
0000
0000
0000
,  // measure 1
0000
0000
0000
0000
,  // measure 2
0000
0000
0000
0000
,  // measure 3
0000
0000
0000
0000
,  // measure 4
1000
0100
0010
0100
1001
0010
0100
0010
,  // measure 5
1001
0000
0100
0000
0010
0000
0100
0000
1001
0000
0000
0001
0100
0000
0010
0000
,  // measure 6
0100
0000
0010
0100
0010
0000
1000
0000
1100
0000
1000
0100
1000
0000
0001
0000
,  // measure 7
0011
0000
0100
1000
0100
0000
0010
0000
0001
0010
0100
1000
0001
0000
1000
0000
,  // measure 8
1010
0010
0100
0100
0101
0001
0010
0010
,  // measure 9
1010
0000
1000
0000
1000
0000
0010
0000
0011
0000
0000
0001
0010
0000
0100
0000
,  // measure 10
1000
0000
0010
0100
0001
0000
1000
0000
1100
0000
0100
1000
0001
0000
1000
0000
,  // measure 11
1010
0000
0000
0110
0000
0000
0101
0000
1001
0000
0000
1000
0001
0000
1000
0000
,  // measure 12
0010
0000
0100
0010
1000
0000
0001
0000
0010
0000
0100
1000
0001
0000
0010
0000
,  // measure 13
0001
0000
1000
0010
0100
0000
0001
0000
1001
0000
0000
0010
0100
0000
0001
0000
,  // measure 14
0101
0000
0000
0000
1000
0000
0010
0000
0100
0001
0100
0000
0010
0000
1000
0000
,  // measure 15
0100
0010
0001
1000
0001
0000
1000
0000
1001
0000
0000
0001
0100
0000
0010
0000
,  // measure 16
2000
0000
0000
0000
0000
0000
3100
0010
0100
0000
0001
0000
0100
0000
2000
0000
,  // measure 17
0000
0000
3100
0000
0010
0000
0001
0000
0200
0000
0000
0000
0301
0000
1000
0001
,  // measure 18
0010
0000
0000
0011
0000
0000
0001
0000
1000
0000
0010
0000
0001
0000
0010
0000
,  // measure 19
1000
0000
0001
1000
0001
0000
0100
0000
0020
0000
1000
0000
1030
0000
0001
0000
,  // measure 20
2001
0000
0000
0000
3000
0000
0001
0100
0010
0000
1000
0000
0010
0000
0200
0000
,  // measure 21
0000
0000
0301
1000
0001
0000
0010
0000
0200
0000
0000
0000
0320
0000
0000
0000
,  // measure 22
0031
1000
0100
0000
1000
0000
0001
0000
0100
0000
0100
0000
0010
0000
0010
0000
,  // measure 23
1000
0001
1000
0000
0010
0000
0000
0000
0110
0000
0000
0100
0001
0000
0010
0000
,  // measure 24
0012
0000
0000
0000
1003
0000
0010
0100
0001
0000
0100
0000
0010
0000
2000
0000
,  // measure 25
0000
3100
0001
0100
2100
0000
3001
0000
,  // measure 26
0100
0000
0000
0001
0000
0000
0010
0000
0100
0000
1000
0000
0100
0000
0010
0000
,  // measure 27
0001
0000
0000
0001
0100
0000
0010
1000
0010
0000
0100
0000
0001
0000
1000
0000
,  // measure 28
0002
0000
0000
0000
0103
0000
0001
1000
0001
0000
1000
0000
0010
0000
0100
0000
,  // measure 29
0102
0000
2003
0000
3010
0100
0001
0010
,  // measure 30
0100
0001
0100
0000
1000
0010
1000
0000
,  // measure 31
1000
0100
1000
0100
0010
0001
0010
0001
0100
0010
0100
0010
1000
0001
1000
0001
,  // measure 32
0100
0000
0000
0000
0110
0000
0000
0010
1000
0000
0001
0000
0100
0000
0010
0000
,  // measure 33
1000
1000
0001
0100
0201
0000
0310
1000
,  // measure 34
0001
0000
0000
0001
0100
0000
0010
1000
0001
0000
0010
0000
0100
0000
1000
0000
,  // measure 35
0001
0000
0100
0010
1000
0000
0100
0000
0010
0000
0000
0010
0001
0000
1000
0000
,  // measure 36
0001
0000
0000
0001
0100
0000
0000
0100
0010
0000
1000
0000
0001
0000
1000
0000
,  // measure 37
1001
0001
0101
0100
0120
0000
0130
0001
,  // measure 38
0011
0000
0000
0000
1001
0000
0000
0010
0100
0000
0001
0000
0010
0000
0100
0000
,  // measure 39
1000
0000
0010
0100
0001
0000
0010
0000
0001
0000
1000
0000
0001
0000
0100
0000
,  // measure 40
0110
0000
0000
0000
1001
0000
0001
0100
0001
0000
0010
0000
1000
0000
0010
0000
,  // measure 41
0001
0100
0000
0010
0110
0000
1000
0001
,  // measure 42
1000
0000
0000
0000
1001
0000
0001
0100
0001
0000
0100
0000
0010
0000
1000
0000
,  // measure 43
0100
0000
0010
0001
0010
0000
0001
0000
0200
0000
0000
0000
0310
0000
0000
0000
,  // measure 44
1001
1000
1010
0000
0101
0100
0110
0000
,  // measure 45
0011
0010
0110
0000
0101
0001
1001
0000
,  // measure 46
0010
0100
0001
0010
0001
1000
0010
0100
,  // measure 47
0010
0000
1000
0000
0100
0000
0010
0000
0001
0000
0100
0010
0100
0000
0001
0000
,  // measure 48
1000
0000
0100
0000
0001
0000
0100
1000
0001
0000
1000
0000
1010
0000
0000
0000
,  // measure 49
0100
0000
0010
0000
1000
0000
0010
0100
0001
0000
1000
0000
1100
0000
0000
0000
,  // measure 50
0010
0100
0010
0000
0100
0000
1000
0001
1000
0000
0100
0000
0010
0000
0001
0100
,  // measure 51
0001
0000
0000
1001
0000
0000
1010
0000
0110
0000
0000
0100
0001
0000
1000
0000
,  // measure 52
1002
0000
0000
0000
0103
0000
0010
1000
0100
0000
1000
0001
0100
0000
0010
0000
,  // measure 53
0100
0000
0001
1000
0010
0000
1000
0000
2100
0000
0000
0000
3001
0000
0100
0000
,  // measure 54
0101
0000
1010
0000
1001
0000
0010
0100
,  // measure 55
0101
0000
0000
0011
0000
0000
1001
0000
1000
0000
0010
0100
0001
0000
0100
0000
,  // measure 56
0010
0000
1000
0000
0100
0010
0100
0010
0001
0000
1000
0000
1010
0000
0000
0000
,  // measure 57
0001
0000
0100
0000
0010
0100
1000
0100
0010
0000
1000
0000
0001
0000
0000
0000
,  // measure 58
0100
0000
0010
0000
1000
0100
0001
0100
0001
0000
0100
0000
1000
0010
1000
0010
,  // measure 59
0100
0000
0000
0101
0000
0000
1001
0000
1000
0100
0010
0001
0100
0000
0010
0000
,  // measure 60
2010
0000
0000
0000
3001
0000
0100
0010
0100
0010
1000
0000
0001
0000
0100
0000
,  // measure 61
0010
0000
1000
0010
0100
0000
0001
0000
0010
0000
0000
0010
0100
0000
1000
0000
,  // measure 62
0001
0000
0010
0001
0100
0000
0010
0000
1000
0000
0100
0000
1000
0000
0001
0000
,  // measure 63
0101
0000
0000
0110
0000
0000
1010
0000
1001
0000
0000
0000
0001
0000
0100
0000
,  // measure 64
0010
0000
1000
0001
0100
0000
0001
0000
1000
0000
0010
1000
0100
0000
0010
0000
,  // measure 65
0001
0000
0100
0001
1000
0000
0001
0000
0101
0000
0000
0001
0100
0000
0010
0000
,  // measure 66
1000
0000
0010
0100
0001
0000
0100
0000
0010
0000
1000
0001
0100
0000
0001
0000
,  // measure 67
1000
0000
0000
1001
0000
0000
1010
0000
0110
0000
0000
0000
0100
0000
0001
0000
,  // measure 68
0010
0100
0010
0100
1000
0000
0010
0000
0100
0001
0100
0001
0100
0000
0010
0000
,  // measure 69
1000
0100
1000
0100
1000
0000
0001
0000
0100
0000
0000
0100
0010
0000
1000
0000
,  // measure 70
0001
0000
0010
1000
0010
0000
0100
0000
1000
0000
0100
0010
0100
0000
0010
0000
,  // measure 71
0011
0000
0001
0000
1001
0000
1000
0000
0010
0100
0010
0100
0001
0000
1000
0000
,  // measure 72
0010
0000
1000
0100
1000
0000
0001
0000
0100
0000
0010
0001
0010
0000
0100
0000
,  // measure 73
0001
0000
1000
0001
1000
0000
0010
0000
0100
0000
0000
0100
0001
0000
0010
0000
,  // measure 74
0001
0000
1000
0100
1000
0000
0001
0000
0100
0000
0010
0100
0010
0000
1000
0000
,  // measure 75
0001
0000
0000
0001
1000
0000
0001
0100
0001
0000
0100
0000
0010
0000
0010
0000
,  // measure 76
1000
0000
0100
0010
0100
0000
1000
0000
0001
0000
0010
0001
0010
0000
0100
0000
,  // measure 77
1000
0000
0010
0100
0010
0000
1000
0000
1001
0000
0000
0001
0100
0000
0010
0000
,  // measure 78
1001
0000
0000
0000
0010
0000
0100
0000
0001
1000
0001
0000
0100
0000
0010
0000
,  // measure 79
0100
0000
0001
0000
0010
0000
0001
0000
1000
0010
1000
0010
0100
0000
0010
0000
,  // measure 80
1000
0001
1000
0001
1000
0001
0100
0010
0100
0010
0100
0010
0100
0000
0000
0000
,  // measure 81
1001
0000
0000
0101
0000
0000
0110
0000
2002
0000
0000
0000
0000
0000
0000
0000
,  // measure 82
0000
0000
0000
0000
,  // measure 83
3003
0000
0000
0000
;
