#TITLE:AAA;
#SUBTITLE:;
#ARTIST:D.J.Amuro;
#TITLETRANSLIT:;
#SUBTITLETRANSLIT:;
#ARTISTTRANSLIT:;
#GENRE:;
#CREDIT:;
#BANNER:AAA.png;
#BACKGROUND:AAA-bg.png;
#LYRICSPATH:;
#CDTITLE:;
#MUSIC:AAA.mp3;
#OFFSET:-4.349000;
#SAMPLESTART:23.596008;
#SAMPLELENGTH:15.000000;
#SELECTABLE:YES;
#BPMS:0.000000=160.020004
,108.000000=80.000000
,124.000000=160.000000
;
#STOPS:
;
#BGCHANGES:;
#KEYSOUNDS:;
#ATTACKS:;

//---------------dance-single - ----------------
#NOTES:
     dance-single:
     :
     Beginner:
     9:
     0.405093,0.740188,0.100082,0.025020,0.070891,340.000000,328.000000,12.000000,3.000000,0.000000,0.000000,0.405093,0.740188,0.100082,0.025020,0.070891,340.000000,328.000000,12.000000,3.000000,0.000000,0.000000:
1001
0000
0000
0000
,
0000
0000
0000
0000
,
0000
0000
0000
0000
,
0000
0000
0000
0000
,
0000
0000
0000
0000
,
1000
0010
0000
1000
0000
0010
0000
1000
,
0000
0001
0000
0100
0000
0010
0000
0100
,
0000
0001
0000
1000
0000
0010
0000
1000
,
0000
0010
0000
0100
0000
0001
0000
0100
,
0000
0001
0000
1000
0000
0010
0000
1000
,
0000
0010
0000
0100
0000
0001
0000
0100
,
0000
0001
0000
1000
0000
0010
0000
0000
,
1001
0000
0000
0000
1000
0001
1000
0001
,
1000
0000
0100
0000
0010
0001
0010
0000
,
0001
0000
0100
0000
0010
0100
0010
0000
,
1000
0100
1000
0001
,
0100
0010
0100
0010
,
1000
0010
1000
0000
0001
0000
0100
0000
,
0010
0000
0100
0000
0001
0010
0001
0000
,
1000
0010
0100
0010
,
1000
0100
0001
0100
,
1000
0010
1000
0000
0001
0100
0001
0000
,
0100
0010
0100
0000
0010
0000
0000
0000
,
1000
0100
0001
0010
,
0001
0100
1000
0010
,
0100
0010
1000
0100
,
0001
0100
1000
0100
0001
0000
1000
0000
,
0001
0000
0000
0000
1000
0000
0010
0000
1000
0000
0000
0000
0000
0000
0000
0000
0001
0000
0000
1000
0000
0000
0001
0000
0000
0100
0000
0000
0000
1001
0000
0000
,
1000
0000
0100
0000
0010
0000
0000
1001
0000
0000
0000
0000
0001
0000
0000
0000
1001
0000
0000
0000
0100
0000
0001
0000
0010
0000
0000
0000
0100
0000
0010
0000
,
1000
0000
0100
0001
0000
0000
0100
0001
0100
0000
1000
0010
0200
0000
0302
0000
,
0013
0100
1000
0000
1000
0000
0020
0000
0130
0010
1000
0000
0100
0010
0100
0000
,
1000
0000
0000
0000
0001
0000
0000
0000
0100
0000
0000
0000
0010
0000
0000
0010
,
1000
0000
0000
1000
0001
0000
0000
0000
0100
0000
0000
0000
0010
0000
1000
0000
,
0001
0000
0001
0100
0000
0110
0000
1010
,
0000
1001
0000
0101
0000
0110
0000
0010
,
1000
0010
0000
0000
0010
0100
0001
0100
,
0000
0101
0000
0110
0000
0000
0000
0000
,
1000
0001
0100
0001
,
0010
0001
0100
0010
,
0100
0000
0010
1000
0010
0000
0100
0000
,
0001
0000
0010
0000
0001
0100
0001
0000
,
1000
0010
0100
0010
,
1000
0100
1000
0000
0001
0100
0001
0000
,
0100
0000
0010
0000
1000
0010
1000
0000
,
0010
0100
0001
0010
,
0100
1000
0001
0100
,
0001
0010
0100
0010
,
0001
1000
0001
0100
,
0010
0000
0100
0000
0001
0100
0001
0000
,
1000
0010
0100
0010
,
1000
0100
1000
0001
,
0100
0000
0010
0000
0100
0010
0100
0000
,
0010
1000
0100
0001
,
0100
1000
0010
0100
,
0010
1000
0010
0000
0100
0010
0100
0000
,
0010
0010
1000
1000
,
0001
0000
0001
0000
0100
0000
0010
0100
,
0010
0100
0001
1000
,
0001
0100
0001
0000
1000
0010
1000
0000
,
0010
0000
0100
0000
0001
0010
0001
0000
,
0100
0000
0010
0000
1000
0010
1000
0000
,
0010
0100
0001
0010
,
0100
1000
0001
1000
,
0001
0100
0010
0100
,
0010
1000
0010
0100
,
0001
0000
0010
0000
0100
1000
0100
0000
,
1000
0000
0001
0000
0100
0001
0100
0000
,
0010
0000
0100
0000
0010
1000
0010
0000
,
0100
0000
0010
0000
1000
0001
1000
0000
,
0001
0100
0001
0000
0100
0010
0100
0000
,
0010
1000
0010
1000
0010
1000
0010
1000
,
0010
0000
0000
0000
;

//---------------dance-single - ----------------
#NOTES:
     dance-single:
     :
     Medium:
     15:
     0.761336,0.864664,0.333606,0.075061,0.529599,639.000000,599.000000,40.000000,9.000000,0.000000,0.000000,0.761336,0.864664,0.333606,0.075061,0.529599,639.000000,599.000000,40.000000,9.000000,0.000000,0.000000:
0000
0000
0000
0000
,
0000
0000
0000
0000
,
0000
0000
0000
0000
,
0000
0000
0000
0000
,
0000
0000
0000
0000
,
1000
0001
1000
0001
0000
0110
0000
1001
,
0000
0100
0010
0100
0000
0001
0100
0010
,
0000
1001
0000
1001
0000
0101
0000
0110
,
0000
0010
1000
0100
0000
0001
0100
1000
,
0000
0010
0100
0001
0000
0101
0000
1001
,
0000
0001
1000
0010
1000
0100
0010
0100
,
1000
0010
0001
0010
1000
0100
0010
0100
,
1001
0000
0000
0000
0000
0000
0000
0000
1000
0001
1000
0000
0001
1000
0001
0000
,
0100
0000
0000
0000
1010
0000
0000
0000
0100
0001
0100
0000
0010
0000
0100
0000
,
0001
0010
0001
0000
0010
0000
0100
0000
1000
0000
0100
0000
0001
0000
0100
0000
,
1000
0001
1000
0000
0001
0000
0100
0000
0010
0000
0100
0000
0001
0010
0001
0000
,
1000
0100
1000
0000
0010
0000
0100
0000
0010
0000
1000
0000
0001
0000
0100
0000
,
0010
0010
1000
1000
0001
0001
0100
0100
,
0001
0000
0001
0000
0100
0000
0100
0000
0010
1000
0001
0000
1000
0000
1000
0000
,
0100
0000
0100
0000
0001
0000
0001
0000
0100
0000
0100
0000
0010
0001
0010
0000
,
0100
0000
0010
0001
0010
0001
0100
0000
0010
0100
0010
0100
1000
0000
0100
0000
,
0001
0100
0001
0000
1000
0000
0100
0000
0001
0100
0001
0000
0100
0000
0010
0000
,
0001
1000
0001
0000
1000
0000
0010
0000
0100
0000
0000
0000
0000
0000
0000
0000
,
0100
0001
1000
0000
0010
0000
0100
0000
0010
0000
0001
0000
0010
0000
1000
0000
,
0010
0000
0100
0000
0001
1000
0001
0000
0100
0000
0010
0000
1000
0100
0010
0000
,
0100
0001
0100
0000
1000
0000
0010
0000
1000
0001
1000
0000
0001
0000
0010
0000
,
0001
0100
0001
0100
0001
0000
0100
0000
0010
1000
0010
1000
0010
0000
1000
0000
,
0001
0000
0000
0000
1000
0000
0010
0000
0210
0000
0000
0000
0000
0000
0000
0000
0301
0000
0000
1000
0000
0000
0001
0100
0000
0000
0001
0000
0000
1001
0000
0000
,
1000
0010
0100
0000
0010
0000
0000
1000
0000
0000
0000
0001
0100
0000
0000
0000
1001
0000
0010
0000
0100
0000
0001
0000
0010
0000
0001
0000
0100
0000
0010
0000
,
0200
0000
0320
0000
2030
0000
3200
0302
,
0103
0000
1000
0000
0001
1000
0001
0000
1000
0000
0100
0000
0020
0000
0000
0000
0130
0000
0010
0000
0001
1000
0001
0000
0010
0000
0100
0001
0100
0000
1000
0001
,
1000
0000
0000
0000
0001
0000
0000
0000
0100
0000
0000
0000
0010
0000
0000
0010
,
1000
0000
0000
1000
0001
0000
0000
0000
0100
0000
0000
0000
0010
0000
1000
0000
,
1001
0000
0001
0101
0000
0110
0000
1010
,
0000
0000
1001
0000
0000
0000
0101
0000
0000
0000
0110
0000
0000
0000
0010
1000
,
0001
1000
0000
0000
0010
0100
0001
0101
,
0000
0101
0000
0110
0000
0000
0000
0010
,
1000
0100
0010
0000
0001
0000
0100
0000
0010
0100
0001
0000
1000
0000
0100
0000
,
1000
0001
0010
0000
0001
0000
0100
0000
0010
0100
0001
0000
0100
0001
1000
0000
,
0010
1000
0010
0000
1000
0000
0100
0000
0010
0001
0010
0000
0001
0100
0001
0000
,
0100
0000
0010
1000
0001
0000
1000
0000
0010
1000
0001
0000
0100
0001
0100
0000
,
0010
0000
1000
0001
1000
0000
0010
1000
0010
0000
0100
0010
0001
0000
0010
0000
,
0100
0000
0001
0010
1000
0000
1000
0010
0001
0000
0100
0000
0001
1000
0100
0000
,
1000
0000
0100
1000
0010
0000
0100
0000
0001
0010
0001
0000
0100
0001
0100
0000
,
0001
0000
1000
0100
1000
0000
0010
0000
0100
0000
0001
1000
0010
0000
0100
0000
,
0001
0000
0010
0000
0100
0000
1000
0000
0010
0100
0010
0000
0100
0001
0100
0000
,
0010
0000
1000
0000
0100
0000
0001
0000
0100
1000
0100
1000
0010
0000
0001
0000
,
0010
1000
0100
0010
0001
0010
1000
0010
,
0001
0000
0100
0000
1000
0000
0100
0000
0001
1000
0001
1000
0010
0000
0100
0000
,
0001
0000
1000
0000
0010
0000
1000
0000
0001
0100
0010
0100
0010
0000
1000
0000
,
0010
0000
0100
0001
1000
0000
0100
0000
0010
0100
0010
0100
0010
0000
0001
0000
,
1000
0100
0010
0000
0100
0000
1000
0000
0001
0100
0001
0100
0010
0100
0010
0000
,
0100
0000
0010
1000
0001
0000
0010
0000
0001
0100
0001
0100
0010
0000
0100
0000
,
1000
0000
0100
0001
1000
0000
0010
0000
1000
0001
0100
0001
0010
0001
1000
0000
,
0010
0000
0100
0000
0001
0000
1000
0000
0100
1000
0100
1000
0010
0100
0010
0100
,
0001
1001
0000
1010
0000
0110
0000
0101
,
0000
1001
0000
1010
0000
0110
0101
1001
,
0001
0011
0010
0110
0100
1100
1000
0100
,
0010
0000
0001
0100
1000
0000
0100
0001
0010
0000
1000
0010
0001
0100
0001
0000
,
0010
0000
0001
0100
0010
0000
1000
0010
1000
0010
0100
0010
0100
0001
0100
0000
,
0010
0000
1000
0001
1000
0000
0010
0000
0100
0000
0100
0000
0001
0000
0001
0000
,
0100
0000
1000
0100
0001
0000
0100
0010
1000
0000
0010
0000
0100
0000
0001
0000
,
1000
0000
0001
0100
0010
0000
0100
0000
0010
0000
1010
0000
0110
0000
0101
0000
,
0010
0000
1000
0001
0100
0000
0010
0000
0100
0000
0001
0000
0010
0000
0100
0000
,
0010
0000
0001
0000
0100
0000
0010
0000
0100
0001
0100
0010
1000
0000
0010
0000
,
1000
0000
0001
0100
0010
0000
0100
0000
0001
0010
0001
0010
0001
0000
1000
0000
,
0010
0000
0100
0001
0010
0000
0001
0000
1000
0000
0010
0000
0100
0000
0010
0000
,
1001
0000
0100
0001
0100
0000
0010
0000
1000
0000
0100
0000
0010
0000
1000
0000
,
0010
0000
0001
0100
0010
0100
0010
0000
1000
0000
0100
0000
0001
0000
0100
0000
,
1000
0010
0001
0010
1000
0001
0100
0001
,
0010
0000
0001
0100
0010
0000
1000
0010
0100
0000
0001
0000
1000
0001
1000
0000
,
2002
0000
3003
0000
;

//---------------dance-single - ----------------
#NOTES:
     dance-single:
     :
     Hard:
     18:
     1.073496,1.192641,0.625511,0.058381,1.417825,901.000000,826.000000,75.000000,7.000000,0.000000,0.000000,1.073496,1.192641,0.625511,0.058381,1.417825,901.000000,826.000000,75.000000,7.000000,0.000000,0.000000:
// measure 0
0000
0000
0000
0000
,  // measure 1
0000
0000
0000
0000
,  // measure 2
0000
0000
0000
0000
,  // measure 3
0000
0000
0000
0000
,  // measure 4
0000
0000
0000
0000
,  // measure 5
1000
0001
1000
0010
0000
0101
0000
1010
,  // measure 6
0000
0110
0000
1100
0000
0100
0001
0010
,  // measure 7
0000
1100
0000
1001
0000
0101
0000
0110
,  // measure 8
0000
0010
1000
0100
0000
0001
0100
1000
,  // measure 9
0000
0010
0100
0001
0000
0110
0000
1010
,  // measure 10
0000
1000
0001
0010
0001
0100
0010
0100
,  // measure 11
0001
0010
0100
0010
0001
0100
0010
0100
,  // measure 12
1001
0000
0000
0000
0000
0000
0000
0000
0001
0010
0100
1000
0001
1000
0100
0010
,  // measure 13
0001
0000
0000
0000
0101
0000
0000
0000
0010
1000
0001
1000
0010
0100
0001
0100
,  // measure 14
0010
1000
0100
1000
0001
1000
0010
1000
0100
0010
0001
0010
0100
1000
0100
0010
,  // measure 15
0001
1000
0010
1000
0100
1000
0010
0100
0010
1000
0100
0001
0100
1000
0010
0100
,  // measure 16
0010
1000
0100
1000
0010
1000
0001
0100
0001
0100
0010
0100
0001
0010
0100
0000
,  // measure 17
1100
0110
0011
1001
1100
0101
0011
1010
,  // measure 18
1100
0000
0011
0000
1001
0000
1100
0000
0010
0001
1000
0001
1000
0000
1010
0000
,  // measure 19
0110
0000
0101
0000
1001
0000
1010
0000
0110
0000
0101
0000
0010
0100
1000
0001
,  // measure 20
1000
0000
0010
1000
0001
1000
0010
0000
1000
0100
0010
0001
1000
0001
0100
0000
,  // measure 21
0001
0100
0010
0100
0001
1000
0001
0000
1000
0010
0100
0010
1000
0001
0100
0000
,  // measure 22
0001
0010
0100
0010
0100
1000
0001
0000
1001
0000
0000
0000
0110
0000
0000
0000
,  // measure 23
1000
0100
1000
0001
0010
0001
0100
0000
0101
0000
0011
0000
0110
0000
1100
0000
,  // measure 24
1001
0000
0011
0000
0110
0000
0101
0000
1100
0000
0110
0000
1100
0000
0001
0100
,  // measure 25
0001
1000
0001
0010
0001
0100
0010
0100
0001
0010
1000
0010
0001
0100
1000
0100
,  // measure 26
0001
0010
0100
1000
0100
0010
0001
0100
1000
0100
0001
0010
0100
1000
0010
0100
,  // measure 27
1001
0000
0000
0000
1000
0000
0010
0000
0210
0000
0000
0000
0000
0000
0000
0000
0301
0000
0000
1001
0000
0000
0001
0100
0000
0000
0001
0000
0000
1001
0000
0000
,  // measure 28
1000
0010
0100
0000
0010
0000
0000
1010
0000
0000
0000
0010
0101
0000
0000
0000
1001
0000
0010
0000
0100
0000
0001
1000
0010
1000
0001
0000
0100
0000
0010
0000
,  // measure 29
0100
0001
0010
0001
1000
0000
0010
1000
0000
0000
0010
0000
0100
0000
0001
0000
0100
0000
0010
0000
1000
0000
0010
0000
0200
0000
0000
0000
0302
0000
0000
0000
,  // measure 30
0013
0100
1000
0000
0001
1000
0001
0000
2000
0000
0000
0000
3020
0000
0000
0000
0130
0001
0010
0100
1000
0001
1000
0010
0100
0010
1000
0001
0100
0000
0010
0100
,  // measure 31
0010
0000
0000
0000
0010
0000
0000
0000
0100
0000
0000
0000
1010
0000
0000
0010
,  // measure 32
1000
0000
0000
1000
0001
0000
0000
0000
0100
0000
0000
0000
0011
0000
0101
0000
,  // measure 33
1001
0000
0101
0110
0000
1010
0000
1001
,  // measure 34
1000
0000
0100
0000
0010
0000
0001
0000
0001
0000
0100
0010
0100
0000
0001
0010
,  // measure 35
0001
0000
1000
0000
0001
1000
0010
0000
0100
0000
0001
0000
0100
0000
0101
0000
,  // measure 36
0000
1001
0000
1100
0000
0000
0000
0100
,  // measure 37
1000
0010
0100
0010
0001
0010
0100
0010
0001
0010
0100
0010
1000
0100
0010
0100
,  // measure 38
1000
0100
0010
0001
1000
0001
0010
0100
1000
0100
0010
0001
1000
0001
0010
0100
,  // measure 39
1000
0100
0010
0100
0001
0100
1000
0000
0010
0100
1000
0100
0010
1000
0010
0000
,  // measure 40
0100
0001
0010
0001
0100
0010
0100
0010
1000
0100
0010
0001
0010
0100
0010
0000
,  // measure 41
0100
1000
0001
1000
0100
0010
0100
1000
0001
0010
0001
0100
0010
0100
0001
0000
,  // measure 42
1001
0000
1000
0100
0001
0000
1000
0010
0001
0010
0100
0001
0010
0100
1000
0000
,  // measure 43
0100
0010
0001
0100
0001
1000
0100
0010
0100
0001
0100
1000
0100
0010
0001
0000
,  // measure 44
0100
0010
1000
0010
0100
0010
1000
0100
0010
0100
1000
0100
0010
0001
0100
0000
,  // measure 45
0001
0100
0010
0100
0001
0100
0010
0100
1000
0100
0010
0100
1000
0100
0010
0000
,  // measure 46
0110
0000
0100
0001
0010
0000
1000
0010
0001
0010
0001
0100
0010
0100
1000
0000
,  // measure 47
0100
0010
1000
0010
0100
0001
0010
0100
1000
0001
0010
0100
0010
0001
0100
0000
,  // measure 48
1001
0000
0100
0001
1000
0010
1000
0001
0100
0010
1000
0010
0100
0001
0100
0000
,  // measure 49
0010
0100
0001
0100
0010
1000
0100
0010
0001
0100
0010
0001
0100
0010
0001
0000
,  // measure 50
1001
0000
1000
0100
0001
0000
0001
0010
1000
0000
1000
0100
0001
0010
1000
0000
,  // measure 51
0001
0010
0100
1000
0001
1000
0100
0010
0001
0010
0100
1000
0001
1000
0100
0010
,  // measure 52
0001
0010
0100
1000
0001
1000
0100
0010
0001
0010
0100
1000
0001
1000
0100
0010
,  // measure 53
0001
0010
0100
1000
0001
1000
0100
0010
0001
0010
0100
1000
0001
1000
0100
0010
,  // measure 54
0001
0010
0100
1000
0001
1000
0100
0010
0001
0010
0100
1000
0001
1000
0100
0010
,  // measure 55
0001
0000
0011
0000
0001
0000
0110
0000
1000
0100
0010
0001
0100
0010
1000
0000
,  // measure 56
0100
0010
0001
0010
0100
0010
0001
0010
0100
1000
0100
0010
0100
1000
0100
0010
,  // measure 57
0001
0000
1000
0001
1000
0000
0001
0010
0100
0001
0100
1000
0001
1000
0100
0000
,  // measure 58
0110
0000
0010
0001
0100
0000
1000
0100
0001
0010
1000
0010
0001
0100
0010
0000
,  // measure 59
1000
0100
1000
0001
0010
0001
1000
0100
0010
0001
0010
0100
1000
0010
0100
0000
,  // measure 60
0001
0010
0001
0100
0010
0100
1000
0100
0001
0010
0100
1000
0001
0100
0010
0000
,  // measure 61
1000
0100
0010
0100
1000
0010
0100
0001
0100
0010
1000
0001
0100
0001
0010
0000
,  // measure 62
1010
0000
0010
0001
0100
0000
1000
0100
0001
0000
0101
0000
0101
0000
0110
0000
,  // measure 63
1010
0100
0010
0001
1000
0100
0010
0001
1000
0010
0100
0001
1000
0010
0100
0001
,  // measure 64
1000
0100
0010
0001
1000
0100
0010
0001
1000
0010
0100
0001
1000
0010
0100
0000
,  // measure 65
0001
0100
0010
0001
0010
1000
0010
0100
0010
0001
0010
0100
0010
1000
0100
0000
,  // measure 66
0010
0000
0001
1000
0010
0000
0100
0010
1000
0100
0010
0001
1000
0001
1000
0000
,  // measure 67
0001
1000
0001
1000
0001
0100
0001
0100
0001
1000
0001
1000
0001
1000
0010
1000
,  // measure 68
0010
1000
0010
0100
0010
0100
0010
1000
0100
1000
0100
1000
0100
1000
0001
1000
,  // measure 69
0001
1000
0001
0010
0001
0010
0001
0100
0010
0100
0010
0100
0010
1000
0010
1000
,  // measure 70
0010
0100
0010
1000
0100
0010
0001
1000
0001
0100
1000
0100
0001
1000
0001
0100
,  // measure 71
0220
0000
0330
0000
;

//---------------dance-single - ----------------
#NOTES:
     dance-single:
     :
     Easy:
     13:
     0.593342,0.947440,0.216844,0.025020,0.112592,498.000000,472.000000,26.000000,3.000000,0.000000,0.000000,0.593342,0.947440,0.216844,0.025020,0.112592,498.000000,472.000000,26.000000,3.000000,0.000000,0.000000:
0000
0000
0000
0000
,
0000
0000
0000
0000
,
0000
0000
0000
0000
,
0000
0000
0000
0000
,
0000
0000
0000
0000
,
1010
0000
0000
0100
0000
0010
0000
1000
,
0000
0010
0000
0100
0000
0001
0000
0010
,
0000
0100
0000
1000
0000
0010
0000
0100
,
0000
0010
0000
1000
0000
0001
0100
0001
,
0000
1000
0000
0010
0000
0100
0000
0010
,
0000
1000
0000
0001
0000
0100
0010
0100
,
0000
0010
0000
1000
0000
0100
0000
0000
,
1001
0000
0000
0000
0001
0100
0001
0100
,
0001
0000
0100
0000
0010
1000
0010
0100
,
0010
1000
0100
0010
0001
0100
0010
0100
,
0001
0010
0100
1000
0010
0100
0010
1000
,
0100
0000
0001
0100
,
1000
0010
0100
0010
1000
0001
0100
0001
,
0100
0010
0100
0010
1000
0010
1000
0010
,
0100
0010
0100
0010
0100
0001
0100
0001
,
0100
0010
1000
0001
,
0100
0010
0100
0000
0010
1000
0010
0000
,
0100
0001
0100
0001
0010
0000
0000
0000
,
1000
0010
0100
0010
1000
0100
0010
0001
,
0100
0010
0100
0001
0010
0100
1000
0001
,
0100
0010
0100
0001
0100
0010
0100
0001
,
0100
0010
1000
0010
0100
0001
0010
0100
,
1000
0000
0000
0000
0001
0000
0001
0000
0100
0000
0000
0000
0000
0000
0000
0000
0001
0000
0000
1000
0000
0000
0001
0100
0000
0001
0000
0000
0000
1001
0000
0000
,
1000
0000
0100
0000
0010
0000
0000
1001
0000
0000
0000
0001
0100
0000
0000
0000
1001
0000
0010
0000
0100
0000
0001
0000
0010
0000
0001
0000
0100
0000
0010
0000
,
1000
0010
0100
0001
0000
0010
0100
0001
0100
0010
1000
0010
0200
0000
0302
0000
,
0013
0100
1000
0001
1000
0000
0020
0000
0130
0010
1000
0001
0100
0010
0100
0001
,
1000
0000
0000
0000
0001
0000
0000
0000
0100
0000
0000
0000
0010
0000
0000
0010
,
1000
0000
0000
1000
0001
0000
0000
0000
0100
0000
0000
0000
0010
0000
1000
0000
,
1001
0000
0001
0101
0000
0110
0000
1010
,
0000
1001
0000
0101
0000
0110
0000
0010
,
1000
0010
0000
0000
0010
0100
0001
0101
,
0000
0101
0000
0110
0000
0000
0000
0000
,
1000
0001
1000
0001
1000
0001
1000
0001
,
1000
0001
1000
0001
1000
0001
1000
0001
,
0100
0010
1000
0010
0100
0010
0100
0010
,
0100
0010
1000
0010
1000
0100
1000
0100
,
1000
0001
0100
0001
0100
0010
0100
0010
,
1000
0001
0100
0001
0100
0010
0100
0010
,
1000
0100
0010
0001
0010
0100
1000
0001
,
0100
0010
0100
0001
0010
0100
1000
0010
,
0100
0010
1000
0100
0010
0100
1000
0001
,
0100
0010
0100
0001
0010
0100
1000
0010
,
0100
0010
1000
0100
0010
0100
1000
0001
,
1000
0010
0001
0010
1000
0100
0001
0100
,
1000
0001
0100
0010
0100
0001
0010
0100
,
0010
0001
0100
0010
0100
0001
0010
0100
,
1000
0001
0100
0010
0100
0001
0010
0001
,
0100
0010
0100
0001
0010
0100
0010
0001
,
0100
1000
0100
0001
0010
0100
1000
0001
,
1000
0010
1000
0001
0100
0001
0010
0100
,
1000
1001
0000
0101
0000
0110
0000
1010
,
0000
1001
0000
0101
0000
0010
0010
1000
,
0001
0100
0010
0100
0001
0010
0100
0010
,
0001
0100
0010
0100
0001
1000
0100
1000
,
0010
0101
0000
1001
0000
1010
0000
0110
,
0000
0100
0001
0010
0100
1000
0001
1000
,
0010
0100
0010
1000
0001
0100
0010
0100
,
0001
0010
0001
0100
0010
0100
0001
0010
,
1000
0010
0001
0100
1000
0100
0001
1000
,
0010
0100
0001
0100
0010
1000
0100
1000
,
0001
0100
0010
0100
0001
0010
0001
1000
,
0010
0100
0010
1000
0001
0100
0010
0100
,
0001
1000
0001
1000
0001
1000
0001
1000
,
0001
0100
0001
0100
0001
0100
0001
0100
,
0010
0100
0010
0100
0010
0100
0010
0100
,
0010
1000
0010
1000
0010
1000
0010
1000
,
0110
0000
0000
0000
;

//---------------dance-single - Survival----------------
#NOTES:
     dance-single:
     :
     Challenge:
     19:
     1.259362,1.450768,0.500409,0.041701,2.076696,1057.000000,997.000000,60.000000,5.000000,0.000000,0.000000,1.259362,1.450768,0.500409,0.041701,2.076696,1057.000000,997.000000,60.000000,5.000000,0.000000,0.000000:
0000
0000
0000
0000
,
0000
0000
0000
0000
,
0000
0000
0000
0000
,
0000
0000
0000
0000
,
0000
0000
0000
0000
,
0001
1000
0001
0101
0000
0110
0000
1010
,
0000
0000
0100
0000
0001
0000
0100
0000
1000
0000
0010
0100
0001
0100
0010
0000
,
0100
0001
0000
1001
0000
0101
0000
0110
,
0000
0010
1000
0001
0000
0001
0100
0001
,
1000
0010
1000
0010
0100
0001
0100
0001
1000
0001
1000
0001
0010
0001
0010
0001
,
0100
0010
0100
0010
1000
0001
1000
0001
0010
0100
0010
0100
1000
0001
1000
0001
,
1000
0010
1000
0010
0100
0001
0100
0001
1000
0100
1000
0100
0010
0100
0010
0100
,
0010
0000
0000
0001
0000
0000
0010
0000
0000
0001
0000
0000
0010
0000
0000
0001
0000
0000
0010
0000
0000
0001
0000
0000
1000
0000
0100
0000
0010
0000
0001
0000
0010
0000
0100
0000
1000
0000
0100
0000
0010
0000
0001
0000
0010
0000
0100
0000
,
1000
0000
0000
0000
0000
0000
0000
0000
0000
0000
0000
0000
0101
0000
0000
0000
0000
0000
0000
0000
0000
0000
0000
0000
0001
0000
0010
0000
0100
0000
1000
0000
0100
0000
0010
0000
0001
0000
0000
0010
0000
0000
0100
0000
0000
1000
0000
0000
,
0001
0100
0010
0100
0001
1000
0010
1000
0100
1000
0010
0100
0010
1000
0100
0010
,
0001
1000
0010
1000
0100
1000
0010
0100
0010
1000
0100
0001
0100
1000
0010
0100
,
0010
0000
0000
1000
0000
0000
0100
0000
0000
1000
0000
0000
0010
0000
0000
1000
0000
0000
0001
0000
0000
0100
0000
0000
0001
0000
0010
0000
0100
0000
1000
0000
0100
0000
0010
0000
0001
0000
0000
1000
0000
0000
0001
0000
0000
0000
0000
0000
,
0011
0110
1100
1001
1100
0110
0011
1001
,
1010
0000
0110
0000
0101
0000
0011
0000
0010
0100
1000
0100
0010
0000
0011
0000
,
0101
0000
0101
0000
1001
0000
1001
0000
1010
0000
1000
0100
0010
0001
1000
0001
,
1000
0000
0000
0000
0000
0000
0010
0000
0000
1000
0000
0000
0001
0000
0000
1000
0000
0000
0010
0000
0000
0000
0000
0000
1000
0000
0100
0000
0010
0000
0001
0000
0010
0000
0100
0000
1000
0000
0000
0001
0000
0000
1000
0000
0000
0000
0000
0000
,
0001
0000
0010
0000
0100
0000
1000
0000
0100
0000
0010
0000
0001
0000
0000
1000
0000
0000
0001
0000
0000
0000
0000
0000
1000
0000
0010
0000
1000
0000
0010
0000
1000
0000
0010
0000
1000
0000
0000
0000
0000
0000
0000
0000
0000
0000
0000
0000
,
0001
0000
0010
0000
0100
0000
1000
0000
0100
0000
0010
0000
0001
0000
0000
1000
0000
0000
0001
0000
0000
1001
0000
0000
0000
0000
0000
0000
0000
0000
0000
0000
0000
0000
0000
0000
0110
0000
0000
0000
0000
0000
0000
0000
0000
0000
0001
0000
,
0010
0000
0100
0000
1000
0000
0001
0000
0000
0010
0000
0000
0001
0000
0000
1000
0000
0000
0100
0000
0000
0010
0000
0000
1001
0000
0000
0000
0000
0000
1010
0000
0000
0000
0000
0000
0110
0000
0000
0000
0000
0000
0101
0000
0000
0000
0000
0000
,
1001
0000
1010
0000
0110
0000
0101
0000
0011
0000
0110
0000
1100
0000
0001
0010
,
0001
0000
0000
1000
0000
0000
0001
0000
0000
0010
0000
0000
0001
0000
0000
0100
0000
0000
0010
0000
0000
0100
0000
0000
0001
0000
0010
0000
0100
0000
1000
0000
0100
0000
0010
0000
0001
0000
0000
0100
0000
0000
1000
0000
0000
0100
0000
0000
,
0001
0010
0001
0010
0001
0010
0101
0001
0100
0001
0100
0001
0100
0010
0100
0010
0100
0010
1000
0010
1000
0010
1000
0010
,
1000
0000
0000
0000
1000
0000
0010
0000
0210
0000
0000
0000
0000
0000
0000
0000
0301
0000
0000
1001
0000
0000
0001
0100
0000
0000
0001
0000
0000
1001
0000
0000
,
1000
0010
0100
0010
1000
0000
0000
0000
1010
0000
0000
1001
0100
0000
0000
0000
1001
0000
0010
0000
0100
0000
0001
1000
0010
1000
0001
0000
0100
0000
0010
0000
,
0100
0001
0010
0001
1000
0000
0010
1000
0000
0000
0010
0000
0100
0000
0001
0000
0100
0000
0010
0000
1000
0000
0010
0000
0201
0000
0000
0300
0102
0000
0000
0000
,
0013
0100
1000
0000
0001
1000
0001
1000
0010
0000
0000
0000
0020
0000
0000
0000
0130
0001
0010
0100
1000
0001
1000
0010
0100
0010
1000
0001
0010
0001
0010
0100
,
2000
0000
0000
0000
0000
0000
0000
0000
0000
0000
0000
0000
3010
0000
0000
0010
,
1000
0000
0000
1000
0001
0000
0000
0000
0000
0000
0000
0000
0011
0000
0101
0000
,
1001
0000
0000
0000
0101
0000
0110
0000
0010
1000
0010
1000
0001
0100
0001
0100
,
0001
0100
1000
0100
0001
1000
0001
0000
1000
0000
0010
0100
0010
1000
0001
0000
,
1001
0000
1000
0010
1000
0001
0100
0010
0100
0001
0010
0100
1000
0000
0001
0000
,
0100
0000
0001
0000
1000
0100
0010
0001
1000
0001
0010
0100
1000
0000
0100
0000
,
1000
0100
0010
0001
0010
0100
1000
0001
1000
0001
0000
0000
1000
0001
0010
0100
1000
0100
0010
0001
0100
0010
0000
0000
,
0100
0001
0010
0001
1000
0100
1000
0100
1000
0100
0010
0001
0010
0001
0010
0001
0010
0001
1000
0001
1000
0001
1000
0001
,
1000
0001
0100
0001
1000
0100
0010
1000
0010
0100
0001
0100
1000
0001
1000
0000
,
1000
0000
0000
0001
0000
0000
0010
0000
0000
0001
0000
0000
0100
0000
0000
0010
0000
0000
0100
0000
0000
0001
0000
0000
1000
0000
0100
0000
0010
0000
0001
0000
0010
0000
0100
0000
1000
0000
0001
0000
1000
0000
0001
0000
0000
0000
0000
0000
,
0100
0000
0010
0000
1000
0000
0010
0000
0100
0000
0001
0000
0100
0000
0010
0000
1000
0000
0100
0000
0010
0000
0001
0000
0010
0000
0000
0100
0000
0000
0001
0000
0000
0100
0000
0000
0010
0000
0000
0001
0000
0000
1000
0000
0000
0000
0000
0000
,
0010
0100
1000
0100
0010
0001
0010
0100
0001
0010
0001
1000
0010
1000
0100
1000
0100
0010
0001
0100
0001
0100
0000
0000
,
0010
1000
0010
0100
0001
0010
0001
0100
0010
1000
0100
1000
0100
0010
0001
0100
,
0010
1000
0010
1000
0010
1000
0001
0010
0001
0010
0001
0010
0100
1000
0100
1000
0100
0001
0100
0001
0100
1000
0000
0000
,
0001
0000
0000
0000
0000
0000
1000
0000
0000
0010
0000
0000
0100
0000
0000
0001
0000
0000
0010
0000
0000
0100
0000
0000
1000
0000
0001
0000
1000
0000
0001
0000
1000
0000
0001
0000
1000
0000
0000
0010
0000
0000
1000
0000
0000
0000
0000
0000
,
0001
0000
0000
0000
0000
0000
1000
0000
0000
0010
0000
0000
0100
0000
0000
0000
0000
0000
0001
0000
0000
0010
0000
0000
1000
0000
0000
0010
0000
0000
0001
0000
0000
0100
0000
0000
0010
0000
1000
0000
0010
0000
1000
0000
0000
0001
0000
0000
,
1000
0000
0000
0010
0000
0000
0001
0000
0000
0010
0000
0000
1000
0000
0000
0100
0000
0000
0001
0000
0000
0100
0000
0000
1000
0000
0100
0000
0010
0000
0001
0000
0010
0000
0100
0000
0001
0000
0100
0000
0010
0000
0001
0000
0000
0000
0000
0000
,
0001
0100
0010
0100
0001
1000
0010
1000
0001
0100
1000
0100
0001
0010
1100
0000
,
1000
0000
0000
0100
0000
0000
0001
0000
0000
0100
0000
0000
1000
0000
0000
0010
0000
0000
0001
0000
0000
0010
0000
0000
0100
0000
1000
0000
0100
0000
1000
0000
0100
0000
1000
0000
0100
0000
1000
0000
0100
0000
1000
0000
0000
0000
0000
0000
,
0001
0010
0100
0010
0001
0000
0100
0001
0100
0010
1000
0100
1000
0001
0010
0000
,
0001
0010
0100
0010
0001
0100
1000
0100
0001
0010
0001
1000
0001
0010
0100
0000
,
1000
0010
0100
0010
1000
0100
0010
0001
1000
0010
1000
0001
0100
0001
1000
0000
,
0100
0010
0001
0010
0100
1000
0001
0100
0001
0010
0100
1000
0001
1000
0010
0000
,
0100
0000
0000
0010
0000
0000
1000
0000
0000
0010
0000
0000
0100
0000
0000
0001
0000
0000
0100
0000
0000
0010
0000
0000
1000
0000
0100
0000
0010
0000
0001
0000
0010
0000
0100
0000
1000
0000
0001
0000
1000
0000
0001
0000
0000
0000
0000
0000
,
1000
0100
0010
0100
1000
0001
0010
1000
0010
0100
0010
0001
1000
0100
0010
0000
,
0100
0000
0000
1000
0000
0000
0001
0000
0000
0010
0000
0000
0001
0000
0000
0100
0000
0000
0010
0000
0000
0100
0000
0000
0001
0000
0010
0000
0001
0000
0010
0000
0000
0001
0000
0000
1000
0000
0010
0000
1000
0000
0010
0000
0000
0000
0000
0000
,
0100
0001
0010
0001
0100
0010
1000
0010
0100
0001
0010
0100
1000
0010
0100
0000
,
0010
1000
0001
1000
0100
0010
0100
1000
0100
0010
0001
0010
0001
0100
0010
0000
,
0001
0100
1000
0100
0001
0010
0100
0010
0001
1000
0010
1000
0001
0100
0010
0000
,
1000
0001
0100
0001
0010
0001
0100
0010
0100
0001
0010
0100
1000
0001
1000
0000
,
0001
0000
0100
0010
1000
0010
0100
0001
1000
0100
0010
0001
0100
0010
1000
0000
,
0001
0000
0100
0010
1000
0000
1001
0000
0001
0010
0001
0100
0010
0000
0110
0000
,
1000
0000
0100
0000
0010
0000
0001
0000
0010
0000
0100
0000
1000
0000
0000
0100
0000
0000
0010
0000
0000
0001
0000
0000
1000
0000
0000
0010
0000
0000
0100
0000
0000
0001
0000
0000
0010
0000
0000
1000
0000
0000
0010
0000
0000
0000
0000
0000
,
0001
0000
0100
0000
0001
0000
1000
0000
0001
0000
1000
0000
0010
0000
1000
0000
0001
0000
1000
0000
0000
0001
0000
0000
0100
0000
0000
0010
0000
0000
1000
0000
0000
0100
0000
0000
1000
0000
0000
0001
0000
0000
0100
0000
0000
0000
0000
0000
,
0110
1000
0010
0001
0010
1000
0001
0100
0001
1000
0010
0100
0010
1000
0101
0000
,
0100
0010
1000
0010
0100
0001
0100
0010
1000
0100
0010
0001
1000
0001
1000
0000
,
1001
0000
0101
0000
0001
0100
0001
0100
0001
1000
0001
1000
0001
1000
0010
1000
,
0010
0100
0010
0100
0010
0100
0010
0100
0010
0100
0000
0000
0001
1000
0001
1000
0001
1000
0001
1000
0001
1000
0000
0000
,
0001
0100
0001
0100
0001
0100
0001
0100
0001
0100
0001
0100
0001
1000
0001
1000
0001
1000
0001
1000
0001
1000
0001
1000
,
0010
1000
0010
1000
0010
1000
0010
1000
0010
1000
0010
1000
0001
0100
0001
0100
0001
0100
0001
0010
0100
1000
0100
0010
,
0001
0000
0000
0000
;
