#TITLE:45 Rotations;
#SUBTITLE:;
#ARTIST:sampling masters Aya;
#TITLETRANSLIT:;
#SUBTITLETRANSLIT:;
#ARTISTTRANSLIT:;
#GENRE:;
#CREDIT:;
#BANNER:45 Rotations.png;
#BACKGROUND:45 Rotations-bg.png;
#LYRICSPATH:;
#CDTITLE:;
#MUSIC:45 Rotations.ogg;
#OFFSET:-0.095002;
#SAMPLESTART:11.813009;
#SAMPLELENGTH:10.000002;
#SELECTABLE:YES;
#BPMS:0.000000=165.020004
;
#STOPS:
;
#BGCHANGES:;
#KEYSOUNDS:;
#ATTACKS:;

//---------------dance-single - ----------------
#NOTES:
     dance-single:
     :
     Easy:
     4:
     0.248414,0.299960,0.008917,0.026752,0.000000,195.000000,194.000000,1.000000,3.000000,0.000000,0.000000,0.248414,0.299960,0.008917,0.026752,0.000000,195.000000,194.000000,1.000000,3.000000,0.000000,0.000000:
0000
0000
0000
0000
,
0000
0000
0000
0000
,
0000
0000
0000
0000
,
1000
1000
0001
0001
,
0100
0000
0100
0000
,
0010
0000
1000
0000
,
0010
0000
0100
0000
,
0001
0010
0001
0000
,
1000
1000
0010
0000
,
0100
0100
0001
0000
,
1000
0000
0010
0000
,
0100
0100
0001
0001
,
0010
0000
0010
0000
,
0001
0000
1000
0000
,
0001
0000
0100
0000
,
0010
0010
1000
0000
,
0001
0000
1000
0000
,
0001
0000
0100
0000
,
0010
0000
0100
0000
,
0001
0000
1000
0000
,
0010
0000
1000
0000
,
0001
0000
0100
0000
,
0010
0000
0100
0000
,
0001
1000
0001
0000
,
1000
0000
0001
0000
,
1000
0000
0001
0000
,
0100
0100
0010
0000
,
1000
1000
0001
0000
,
1000
0010
1000
0000
,
0010
0100
0010
0000
,
1000
0001
1000
0000
,
0001
0100
0010
0100
,
0001
0000
1000
0000
,
0001
0001
0100
0000
,
0010
0000
1000
1000
,
0010
0010
0100
0000
,
0001
1000
0001
0000
,
1000
0100
1000
0000
,
0010
0100
0010
0000
,
0100
0001
0100
0000
,
0001
1000
0001
0000
,
1000
0010
1000
0000
,
0010
0000
0010
0000
,
0100
0100
0001
0001
,
1000
0000
0001
0000
,
1000
0000
0010
0000
,
0100
0000
0010
0000
,
1000
0001
1000
0000
,
0010
0000
1000
0000
,
0001
0000
1000
0000
,
0100
0010
0100
0000
,
1000
0001
1000
0000
,
0001
0000
0010
0010
,
0001
0000
0100
0100
,
0010
0000
1000
1000
,
0001
0100
0001
1000
,
0010
0000
0100
0000
,
0010
0000
1000
0000
,
0001
0000
1000
0000
,
0010
0000
0100
0000
,
0010
0000
1000
0000
,
0001
0000
0100
0000
,
0010
0100
0010
0000
,
1000
0100
1000
0000
,
0001
0010
0001
0000
,
0100
0010
0100
0000
,
0010
1000
0010
1000
,
0001
0100
0001
0000
,
1000
0010
0100
0010
,
1000
0001
0000
0000
,
1000
1000
0010
0010
,
0100
0001
1000
0001
,
0100
0100
0010
0010
,
2000
0000
3002
0000
,
0203
0000
0300
1001
;

//---------------dance-single - ----------------
#NOTES:
     dance-single:
     :
     Beginner:
     1:
     0.110831,0.166644,0.000000,0.000000,0.000000,87.000000,87.000000,0.000000,0.000000,0.000000,0.000000,0.110831,0.166644,0.000000,0.000000,0.000000,87.000000,87.000000,0.000000,0.000000,0.000000,0.000000:
0000
0000
0000
0000
,
0000
0000
0000
0000
,
0000
0000
0000
0000
,
1000
0000
0000
0000
,
1000
0000
0000
0000
,
0001
0000
0000
0000
,
0001
0000
0000
0000
,
0100
0000
0100
0000
,
0010
0000
1000
0000
,
0001
0000
0000
0000
,
1000
0000
0000
0000
,
0001
0000
0001
0000
,
0100
0000
0000
0000
,
0010
0000
0000
0000
,
1000
0000
0000
0000
,
0010
0000
0100
0000
,
0010
0000
0000
0000
,
1000
0000
0000
0000
,
0001
0000
0000
0000
,
1000
0000
0000
0000
,
0100
0000
0000
0000
,
1000
0000
0000
0000
,
0010
0000
0000
0000
,
0100
0000
0000
0000
,
0001
0000
0000
0000
,
1000
0000
0000
0000
,
0001
0000
0000
0000
,
0100
0000
0000
0000
,
0010
0000
0000
0000
,
1000
0000
0000
0000
,
0001
0000
0000
0000
,
0010
0000
0000
0000
,
0001
0000
0000
0000
,
0100
0100
0000
0000
,
0010
0000
0000
0000
,
1000
1000
0000
0000
,
0001
0000
0000
0000
,
0100
0000
0000
0000
,
1000
0000
0000
0000
,
0100
0000
0000
0000
,
0001
0000
0000
0000
,
0010
0000
0000
0000
,
1000
0000
0000
0000
,
0010
0000
0000
0000
,
0001
0000
1000
0000
,
0001
0000
0000
0000
,
1000
0000
0100
0000
,
1000
0000
0000
0000
,
0010
0000
0100
0000
,
0010
0000
0000
0000
,
0100
0000
0001
0000
,
0100
0000
0000
0000
,
0001
0000
0000
0000
,
0100
0000
0000
0000
,
0010
0000
0000
0000
,
0100
0000
0001
0000
,
1000
0000
0000
0000
,
0010
0000
0000
0000
,
1000
0000
0000
0000
,
0001
0000
0000
0000
,
0100
0000
0000
0000
,
0010
0000
0000
0000
,
0100
0000
0000
0000
,
0001
0000
1000
0000
,
0001
0000
0000
0000
,
0100
0000
0000
0000
,
0010
0000
0000
0000
,
0100
0000
0000
0000
,
0001
0000
0000
0000
,
1000
0000
0000
0000
,
0010
0000
0010
0000
,
0100
0000
0000
0000
,
0100
0000
0001
0000
,
0001
0000
0000
0000
,
1000
0000
0000
0010
;

//---------------dance-single - ----------------
#NOTES:
     dance-single:
     :
     Medium:
     9:
     0.420393,0.499933,0.053505,0.062422,0.000000,330.000000,324.000000,6.000000,7.000000,0.000000,0.000000,0.420393,0.499933,0.053505,0.062422,0.000000,330.000000,324.000000,6.000000,7.000000,0.000000,0.000000:
0000
0000
0000
0000
,
0000
0000
0000
0000
,
0000
0000
0000
0000
,
1000
0001
1000
0001
,
0100
0010
0100
0000
0010
0000
0000
0000
,
1000
0100
1000
0001
,
0100
0000
0010
0100
0000
0000
0000
0000
,
0010
1000
0100
0000
,
1000
0000
0001
0000
0010
0001
0010
0000
,
0001
0000
0100
0010
0100
0000
0010
0000
,
1000
0000
0100
1000
0100
0000
1000
0000
,
0001
0001
0100
0100
,
0010
1000
0010
0000
1000
0001
1000
0000
,
0001
0100
0010
0100
,
0001
0000
1000
0100
0000
0100
1000
0100
,
0010
0001
1000
0000
0001
0000
0100
0000
,
0010
0100
0010
1000
,
0100
0000
1000
0000
0001
0100
0001
0000
,
0100
0000
1000
0010
,
0100
0010
1000
0100
,
1000
0001
0100
0010
,
0100
0010
0100
0000
0010
1000
0010
0000
,
1000
0001
0100
0010
,
0100
0001
0010
1000
,
0010
0001
0100
0010
,
0100
0001
1000
0010
,
0100
0010
1000
0100
,
0010
0001
0100
0010
,
0100
0001
1000
0100
,
1000
0010
0100
0010
,
1000
0001
0100
0010
,
0100
0010
0100
0000
0010
1000
0010
0000
,
2000
0000
0000
0000
3001
0100
0001
1000
,
0020
0230
0301
1001
,
2000
0000
0000
0000
3010
0100
0010
0100
,
0020
1000
1030
0000
,
0001
0000
0100
0000
0001
1000
0001
0000
,
1000
0000
0010
0000
0100
0010
0100
0000
,
0010
1000
0100
0001
,
0100
1000
0010
0001
,
0010
0000
1000
0000
0001
0100
0001
0000
,
1000
0000
0010
0000
0100
0010
0100
0000
,
0010
1000
0100
0001
,
0010
0001
0100
1000
,
0001
0100
0010
0100
,
0010
0000
1000
0000
0001
0100
0001
0000
,
1000
0100
0010
0100
,
1000
0001
0010
0001
,
0100
0010
0100
0000
0010
0000
1000
0000
,
0100
0000
1000
0000
0001
0100
0001
0000
,
0100
0010
1000
0100
,
0010
0001
1000
0001
,
0100
0000
0010
0000
0100
0100
0010
0010
,
1000
0000
0001
0000
1000
1000
0100
0100
,
0010
0001
1000
0001
,
0100
0000
0010
0000
0100
0001
1000
0000
,
0001
0000
0100
0000
0010
0100
0010
0000
,
1000
0000
0100
0000
1000
0001
1000
0000
,
0010
0100
0001
0010
,
0001
1000
0100
1000
,
0010
0100
0010
0100
,
0001
0010
0001
1000
,
0010
0100
0010
1000
,
0001
0100
0001
0000
0100
0000
0010
0000
,
1000
0000
0100
0000
1000
0010
1000
0000
,
0001
0100
0010
0100
0001
0000
1000
0000
,
0010
0100
0010
1000
,
0100
0010
0100
0010
0001
1000
0000
0001
,
0100
0010
0000
0100
0010
1000
0010
0000
,
0101
0000
0001
1000
0000
0010
0100
0010
,
1000
1100
0110
0011
,
0002
0000
0000
0000
1003
0010
1000
0010
,
2000
0000
0000
0000
3001
0100
0010
0100
,
0001
1000
0001
1000
,
0001
0000
0000
1001
;

//---------------dance-single - ----------------
#NOTES:
     dance-single:
     :
     Hard:
     13:
     0.671355,0.702247,0.579633,0.133761,0.151596,527.000000,462.000000,65.000000,15.000000,0.000000,0.000000,0.671355,0.702247,0.579633,0.133761,0.151596,527.000000,462.000000,65.000000,15.000000,0.000000,0.000000:
// measure 0
0000
0000
0000
0000
,  // measure 1
0000
0000
0000
0000
,  // measure 2
0000
0000
0000
0000
,  // measure 3
0101
0110
1010
1001
,  // measure 4
0001
0010
0100
0001
0100
0010
0000
0001
,  // measure 5
1000
0100
0010
1000
0010
0100
1000
0001
,  // measure 6
0100
0000
0000
0100
0010
0000
0002
0000
0000
0000
0013
0000
1000
0000
0010
0000
,  // measure 7
0100
0010
0110
0000
2001
0000
3001
0000
,  // measure 8
0100
0010
1000
0001
1000
0020
0000
0130
,  // measure 9
0001
0010
0001
1000
0010
1000
0001
0100
,  // measure 10
0010
0000
0000
0010
1000
0000
0002
0000
0000
0000
1003
0000
0100
0000
0010
0000
,  // measure 11
0011
1001
1100
0110
,  // measure 12
0001
0010
1000
0010
0001
1000
0000
0010
,  // measure 13
0100
0001
0100
1000
0100
0001
0100
0010
,  // measure 14
1000
0000
0000
1000
0001
0000
0100
0000
0000
0000
0100
0000
0010
0000
1000
0000
,  // measure 15
0001
0100
0101
0000
0012
0000
1003
0000
,  // measure 16
0100
0100
0001
0000
0100
0100
0010
0000
,  // measure 17
0001
0001
1000
0000
0010
0010
1000
0000
,  // measure 18
0010
0010
0001
0010
0100
0100
0010
1000
,  // measure 19
0100
0010
1000
0010
0001
0010
0100
0010
,  // measure 20
0001
0001
0001
0000
1000
1000
1000
0000
,  // measure 21
0010
0000
0100
0001
0000
0100
0001
0000
1000
0000
0010
0100
0000
0010
0100
0000
,  // measure 22
0001
0100
1000
0000
1000
0100
0001
0000
,  // measure 23
0100
0000
0001
0000
0010
0000
0100
0000
1000
0010
0000
1000
0001
0000
1000
0000
,  // measure 24
0010
1010
0000
1000
0000
0110
0000
0010
,  // measure 25
0000
0101
0000
0001
0000
1010
0000
0010
,  // measure 26
0000
0101
0000
0001
0000
1100
0000
1000
,  // measure 27
0000
0110
0000
0100
0000
1001
0000
0001
,  // measure 28
0000
1010
0000
0010
0000
0101
0000
0100
,  // measure 29
0000
1001
0000
1000
0000
0110
0000
0010
,  // measure 30
0000
1100
0000
1000
0001
0100
0001
0000
,  // measure 31
0001
1000
0010
1000
0001
0000
0101
0000
,  // measure 32
0120
0000
1000
0000
0031
0100
1000
0100
,  // measure 33
0002
1003
1010
0110
,  // measure 34
0201
0000
1000
0000
0310
1000
0100
0010
,  // measure 35
0001
0101
0110
1001
,  // measure 36
0100
0010
1000
0010
0001
0010
1000
0001
,  // measure 37
0100
0000
0000
0100
0010
0000
1000
0000
0100
0000
0010
0000
1000
0000
0010
0000
,  // measure 38
0000
0001
0100
0010
1000
1000
0100
1000
,  // measure 39
0010
0010
0100
0100
0001
0001
0001
0000
,  // measure 40
0001
0100
1000
0100
0001
0010
1000
0010
,  // measure 41
0001
0000
0000
0001
0100
0000
0010
0000
1000
0000
0100
0000
1000
0000
0000
0000
,  // measure 42
1000
0100
1000
0001
0010
0001
0100
0010
,  // measure 43
0100
0001
1000
1000
0010
0000
1001
0000
,  // measure 44
1000
0100
1000
0000
0010
0100
0010
0000
,  // measure 45
0100
0001
0100
0000
0001
0010
0100
0000
,  // measure 46
1000
0100
1000
0000
0001
0100
0001
0000
,  // measure 47
0100
0010
0100
0001
0010
1000
0010
0000
,  // measure 48
0001
0100
1000
0000
1000
0100
0001
0000
,  // measure 49
0100
0000
0000
0100
0010
0000
1000
0000
0100
1000
0100
0000
0001
0000
0100
0000
,  // measure 50
1000
1000
0001
0010
0100
0001
0100
1000
,  // measure 51
0010
0000
1000
0000
0001
0000
0100
0000
0001
0000
1000
0001
1000
0000
0010
0000
,  // measure 52
0210
0000
0000
0000
0310
0010
0100
0100
,  // measure 53
0021
0000
0000
0000
0031
0001
0100
0100
,  // measure 54
0010
0010
1000
1000
0001
0010
0100
1000
,  // measure 55
0001
0000
0010
0000
0100
0000
1000
0000
0001
0100
0001
0000
0100
0000
0010
0000
,  // measure 56
1000
0001
0000
0101
0000
0110
0000
1010
,  // measure 57
0000
1100
0000
0110
0000
0011
0000
1001
,  // measure 58
0000
0011
0000
0110
0000
1100
0000
1001
,  // measure 59
0000
1010
0000
0101
0000
0011
0000
1100
,  // measure 60
0000
1010
0000
0110
0000
0101
0000
1001
,  // measure 61
0000
1010
0000
0110
0000
0101
0000
1000
,  // measure 62
0001
0000
0100
0000
0010
0000
0100
0000
0001
1000
0000
0000
0001
0000
0100
0000
,  // measure 63
0010
1000
0010
1000
0010
1000
0001
0000
0000
0100
0000
0000
,  // measure 64
0011
0000
0000
0000
0010
0000
0100
0000
1000
0001
0000
1000
0001
0000
0100
0000
,  // measure 65
0010
1000
0010
1000
0001
0000
0001
0100
0010
0100
0010
1000
,  // measure 66
0001
1000
0010
1000
0001
0100
0010
0010
,  // measure 67
1000
0001
0100
0001
0010
0001
0000
0100
,  // measure 68
0010
1000
0001
1000
0010
0100
0001
0010
,  // measure 69
0001
0000
0000
0001
1000
0000
0020
0000
0000
0000
0130
0000
0010
0000
1000
0000
,  // measure 70
0100
0110
0011
1001
,  // measure 71
1020
0000
0000
0000
0130
0001
0010
0001
,  // measure 72
2001
0000
0000
0000
3001
0001
0100
0100
,  // measure 73
0010
1000
0001
1000
0100
0010
0001
0100
,  // measure 74
0001
0010
0001
1000
0100
1000
0010
0000
0000
2002
0000
0000
,  // measure 75
3003
0000
0000
0000
;

//---------------dance-single - ----------------
#NOTES:
     dance-single:
     :
     Challenge:
     15:
     0.862442,0.969770,0.383449,0.098092,0.682183,677.000000,634.000000,43.000000,11.000000,0.000000,0.000000,0.862442,0.969770,0.383449,0.098092,0.682183,677.000000,634.000000,43.000000,11.000000,0.000000,0.000000:
// measure 0
0000
0000
0000
0000
,  // measure 1
0000
0000
0000
0000
,  // measure 2
0000
0000
0000
0000
,  // measure 3
1001
0011
1100
0011
,  // measure 4
0100
0100
1000
0010
0001
0010
1000
0001
,  // measure 5
0001
0100
1000
0100
0001
0001
0100
0010
,  // measure 6
0100
0000
0010
0100
0010
0000
2001
0000
0000
0000
3100
0000
1000
0000
0100
0000
,  // measure 7
0001
0000
0100
0000
0110
0000
0000
0000
1001
0000
0000
0001
0100
0000
0010
0000
,  // measure 8
0100
0001
0010
1000
0010
0002
0000
0103
,  // measure 9
0010
1000
0010
0100
0001
0010
0100
1000
,  // measure 10
1100
0000
0000
0100
0010
0000
0210
0000
0000
0000
1300
0000
0100
0000
0010
0000
,  // measure 11
1010
0110
0011
1010
,  // measure 12
0001
0100
1000
0001
0010
1000
0000
0001
,  // measure 13
1000
0100
0001
1000
0010
0001
0010
0100
,  // measure 14
0001
0000
0000
0001
0100
0000
1100
0000
0000
0000
0010
0000
1000
0000
0001
0000
,  // measure 15
0100
0100
1001
0000
1010
0000
0100
0000
,  // measure 16
0001
0000
1000
0100
0000
1000
0010
0000
0100
0000
0010
1000
0000
0010
0100
0000
,  // measure 17
0001
0000
1000
0010
0000
0010
1000
0000
0001
0100
0001
0000
0100
0001
0000
0001
,  // measure 18
1000
0000
0001
0100
0000
0010
0100
0000
1000
0000
0100
0000
0100
0000
0001
0000
,  // measure 19
0010
0000
0100
0010
0000
0001
0010
0000
0100
1000
0100
0010
0000
0100
1000
0000
,  // measure 20
0001
0000
1000
0010
0000
0001
0010
0000
0100
0010
0100
0001
1000
0000
0010
0000
,  // measure 21
1000
0000
0100
0010
0000
0100
1000
0000
0001
0010
0001
0100
0000
0001
0100
0000
,  // measure 22
0010
0000
1000
0100
0000
0010
0001
0000
0010
0000
0100
1000
0000
0001
1000
0000
,  // measure 23
1001
0000
0001
0100
0001
0100
0010
0000
1000
0100
0000
1000
0100
0010
0001
0000
,  // measure 24
0010
0000
0001
1000
0000
1000
0010
0000
0100
0000
1000
0100
0000
0100
0001
0000
,  // measure 25
0100
0000
0010
1000
0000
1000
0001
0000
1000
0010
0100
0000
0100
0010
0000
0010
,  // measure 26
0100
0000
0100
0001
0000
0001
0010
0000
0001
1000
0010
0000
0100
0010
1000
0000
,  // measure 27
0001
0000
0100
0001
0000
0100
0010
0000
1000
0100
0010
0001
0000
0100
0010
0000
,  // measure 28
0100
0000
0010
1000
0000
0001
1000
0000
0010
0000
0100
0001
0000
0010
0001
0000
,  // measure 29
1000
0010
0100
0010
0000
1000
0010
0000
0100
0001
0010
0000
0001
0100
0010
0000
,  // measure 30
0101
0000
0000
0001
0100
0000
0001
0000
0100
0010
0000
1000
0010
0000
1000
0000
,  // measure 31
0001
0010
0100
1000
0001
0100
0010
0000
0000
1001
0000
0000
,  // measure 32
0102
0100
0100
0000
0013
1000
0100
0001
,  // measure 33
2100
0000
0000
0000
3002
0000
0000
0000
0103
0000
0010
1000
0010
0000
0100
0000
,  // measure 34
0002
1000
1000
0000
0013
0100
0001
0010
,  // measure 35
0011
1100
1010
0110
,  // measure 36
0001
0000
0010
0000
0100
0010
0001
0000
0100
0000
0001
0000
0100
0000
0010
0000
,  // measure 37
1000
0000
0000
1000
0001
0000
0100
0000
0010
0100
1000
0000
0100
0000
0001
0000
,  // measure 38
0010
0001
0100
0010
1000
0010
0100
0001
,  // measure 39
0010
0000
1000
0000
0010
0000
0100
0000
1000
0010
1000
0010
0100
0000
0001
0000
,  // measure 40
1000
0000
1000
0000
0010
0001
0010
0000
1000
0000
0001
0000
0100
0000
0010
0000
,  // measure 41
0100
0000
0000
0100
0001
0000
1000
0000
0001
0010
0100
0000
1000
0000
0001
0000
,  // measure 42
0100
0100
0010
1000
0001
1000
0010
0100
,  // measure 43
0001
0000
1000
0000
0001
0100
0001
0000
1000
0000
0010
0100
0010
0000
1000
0000
,  // measure 44
0001
0100
1000
0100
0001
1000
0001
1000
,  // measure 45
0010
0000
0100
0000
0001
0000
0100
0000
0010
1000
0010
0000
0100
0000
0000
0000
,  // measure 46
0001
1000
0001
0000
1000
0010
1000
0000
0100
0000
0001
0000
0100
0000
1000
0000
,  // measure 47
0001
0000
0100
0000
0010
0000
0100
0000
0001
1000
0001
1000
0001
0000
0000
0000
,  // measure 48
0100
0010
1000
0010
0100
0001
0010
0001
,  // measure 49
1000
0000
0000
1000
0010
0000
0100
0000
0001
0010
0001
0000
1000
0000
1000
0000
,  // measure 50
0010
0100
0001
0100
0010
1000
0100
0010
,  // measure 51
0001
0000
1000
0000
0001
0000
1000
0000
0001
0000
1000
0001
1000
0000
0010
0000
,  // measure 52
0120
0100
0100
0030
1001
0001
1000
0010
,  // measure 53
1000
0000
1000
0100
1000
0000
0000
0000
0110
0000
0010
0000
1000
0000
0001
0000
,  // measure 54
1000
1000
0001
0010
1000
0010
0001
0010
,  // measure 55
0100
0000
1000
0000
0100
0000
0010
0000
0001
0010
0001
0000
1000
0000
0010
0000
,  // measure 56
1000
0000
0001
0100
0000
0100
1000
0000
0100
0000
0001
1000
0000
1000
0010
0000
,  // measure 57
0100
0000
0001
0010
1000
0000
0010
0000
0001
0100
0010
0000
0010
1000
0001
0000
,  // measure 58
1000
0000
0010
0100
0000
0001
0100
0000
0010
0000
1000
0100
0000
0001
0100
0000
,  // measure 59
1000
0001
1000
0001
0000
0001
0100
0000
0010
1000
0010
1000
0000
0010
0100
0000
,  // measure 60
0001
0010
0001
0010
0100
0000
1000
0000
0100
0010
0100
0010
0001
0000
1000
0000
,  // measure 61
0001
0000
0100
0010
0000
0010
1000
0000
0001
0000
1000
0001
0000
0001
0100
0000
,  // measure 62
1000
0000
0100
0000
0001
0000
1000
0000
0010
0100
0000
0100
0001
0000
1000
0000
,  // measure 63
0001
0100
0001
0100
0010
1000
0010
0000
0000
1001
0000
0000
,  // measure 64
0101
0000
0000
0100
0010
0000
1000
0000
0001
0100
0000
0000
0110
0000
0000
0000
,  // measure 65
1000
0100
0010
0001
0001
0010
1000
0010
0001
0100
0010
1000
,  // measure 66
0001
0010
0001
0010
0100
1000
0100
1000
0001
1000
0001
1000
0100
0010
0100
0010
,  // measure 67
0001
0010
1000
0010
0001
0101
0000
1000
,  // measure 68
0100
0001
0100
1000
0010
0001
0010
1000
,  // measure 69
0001
0000
0100
0001
0100
0000
0120
0000
0000
0000
1030
0000
0001
0000
0010
0000
,  // measure 70
0101
0110
1010
1001
,  // measure 71
0001
0100
0001
0100
0001
0000
0000
0000
1001
0000
1000
0000
1010
0000
0010
0000
,  // measure 72
0100
0001
0100
0001
1000
0001
1000
0000
1010
0000
0010
0000
0100
0000
0001
0000
,  // measure 73
0011
0000
0001
0000
1001
0000
0010
0000
0100
0010
0100
0000
0001
0000
1000
0000
,  // measure 74
0001
0100
0010
0100
0001
1000
0001
0000
0000
2002
0000
0000
,  // measure 75
3003
0000
0000
0000
;
