#TITLE:venomblack;
#SUBTITLE:;
#ARTIST:Shatter;
#TITLETRANSLIT:;
#SUBTITLETRANSLIT:;
#ARTISTTRANSLIT:;
#GENRE:;
#CREDIT:;
#MENUCOLOR:;
#METERTYPE:DDR;
#BANNER:venomblack-bn.png;
#BACKGROUND:venomblack-bg.png;
#LYRICSPATH:;
#CDTITLE:ddrencorecdtitle.png;
#MUSIC:venomblack.mp3;
#OFFSET:-0.004;
#SAMPLESTART:36.725;
#SAMPLELENGTH:11.840;
#SELECTABLE:YES;
#LISTSORT:;
#BPMS:0.000=340.000,80.000=170.001,88.000=340.000,136.000=170.000,144.000=340.000,304.000=170.000,336.000=339.999;
#STOPS:408.000=1.240
,417.000=1.240
;
#BGCHANGES:;
#ATTACKS:;

//---------------dance-single - ----------------
#NOTES:
     dance-single:
     :
     Hard:
     11:
     0.880,0.989,0.546,0.057,0.000:
0000
0000
0000
0000
,
0000
0000
0000
0000
,
0000
0000
0000
0000
,
0000
0000
0000
0000
,
0000
0000
0000
0000
,
0000
0000
0000
0000
,
0000
0000
0000
0000
,
0000
0000
0000
0000
,
1000
0000
0100
0000
1000
0010
0000
0000
,
0100
0000
0001
0000
0010
0001
0000
0000
,
0100
0000
0010
0000
0100
1000
0000
0000
,
0100
0000
0010
0000
0100
0010
1000
0100
,
0010
0000
0001
0000
0100
0001
0000
0000
,
1000
0000
0100
0000
1000
0001
0000
0000
,
0010
0000
0100
0000
0010
1000
0000
0000
,
0010
0000
0100
0000
0010
0100
1000
0010
,
0100
0001
0100
0010
,
0000
0010
0100
0001
,
0010
0100
1000
0100
,
0000
0000
0000
0000
,
1001
0000
0000
2100
0000
3010
0000
0000
,
0000
0001
0100
0102
0000
1003
0000
0000
,
1000
0010
1000
0100
,
0000
0100
0010
0001
,
0010
0100
1000
0010
,
0000
0000
0000
0000
,
0101
0000
0101
0000
1000
0000
0010
1000
,
0010
0000
0110
0000
0001
0010
0001
0000
,
0101
0000
0001
1000
0001
0000
0010
1000
,
0000
0000
0000
1000
0010
0000
0001
0000
,
1000
0010
0100
0010
,
0000
0010
1000
0010
,
0100
0001
0010
0001
,
0000
0000
0000
0000
,
1001
0000
0000
0201
0000
1300
0000
0000
,
0000
1000
0100
0120
0000
1030
0000
0000
,
0001
1000
0100
0010
,
0000
0010
0100
0001
,
0100
1000
0001
1000
,
0000
0000
0000
0000
,
0110
0000
0110
0000
1000
0000
0001
0100
,
0001
0000
1001
0000
0100
1000
0100
0000
,
1100
0000
0010
0100
0010
0000
1000
0100
,
0000
0000
0000
0001
0100
0000
1000
0000
,
0101
0000
0001
0000
0100
0010
0000
0000
,
1100
0000
0100
0000
0010
0100
0000
0000
,
1001
0000
0001
0000
1000
0100
0000
0000
,
1010
0000
0010
0000
0100
0001
0010
0100
,
1000
0000
0010
0000
0100
0010
0000
0000
,
1010
0000
0010
0000
0100
0001
0000
0000
,
0101
0000
0001
0000
0010
0001
0000
0000
,
1001
0000
1000
0000
0100
1000
0010
0100
,
0001
0000
0010
0000
0100
1000
0000
0000
,
1100
0000
0100
0000
0010
0001
0000
0000
,
0011
0000
0001
0000
0100
1000
0000
0000
,
1100
0000
0100
0000
0010
0100
0001
0010
,
0100
0000
1000
0000
0001
1000
0000
0000
,
0011
0000
0001
0000
1000
0001
0000
0000
,
0101
0000
0001
0000
0100
0010
0000
0000
,
1010
0000
1000
0000
0100
1000
0100
0010
,
0001
0000
1000
0100
0000
0010
0001
0000
,
0100
0000
0001
0010
0000
0100
1000
0000
,
0001
0000
0100
0001
0000
0010
0001
0000
,
1000
0000
0100
0000
1000
0010
0100
0001
,
1000
0000
0010
0100
0000
0100
0010
0000
,
1001
0000
0001
0100
0000
0100
0010
0000
,
1100
0000
0100
0010
0000
0010
0100
0000
,
1001
0000
0001
0000
0010
0100
1000
0001
,
1000
0000
0001
0100
0000
0010
1000
0000
,
0100
0000
1000
0010
0000
1000
0100
0000
,
0010
0000
0100
1000
0000
0001
0010
0000
,
0100
0000
1000
0000
0010
0100
0001
1000
,
0100
0000
0010
0100
0000
0100
0010
0000
,
0011
0000
1000
0100
0000
0100
0010
0000
,
0101
0000
0100
0010
0000
0010
1000
0000
,
1001
0000
0100
0000
0010
1000
0001
1000
,
0100
0000
0010
0100
1000
0000
0001
0010
,
1000
0010
0000
0100
1000
0100
0000
1000
,
0001
0000
0100
0010
1000
0000
0001
0100
,
1000
0100
0000
0010
1000
0100
0000
0010
,
0001
0000
0100
0100
0001
0000
0010
0001
,
0100
0010
0000
0100
0010
1000
0000
0100
,
1000
0000
0100
0010
0100
0000
0010
0001
,
0010
1000
0000
0010
0100
1000
0000
0001
,
1000
0100
1000
0100
,
0010
0100
0010
0100
,
0010
0001
0010
0001
,
0100
0000
0001
0000
0100
0000
0001
0010
,
1000
0010
1000
0010
,
0100
1000
0100
1000
,
0010
0100
0010
0100
,
0010
0000
0100
0000
1000
0000
0100
0001
,
0010
0001
0011
0001
,
0010
0100
0110
0100
,
1000
0100
0101
0100
,
1001
0000
0010
0000
0110
0000
0010
1000
,
0001
0011
1000
1100
,
0010
0101
0100
1010
,
0100
1001
0110
0011
,
0101
0000
1010
0000
0100
1000
0010
0100
,
0001
0100
0001
0100
0001
0000
0010
0100
,
0010
0100
1000
0000
0010
0100
0010
0100
,
0001
0000
1000
0100
1000
0100
0001
0000
,
0100
0010
0100
0010
0001
0000
1000
0010
,
1000
0010
0100
0000
1001
0000
0001
0000
,
0100
0010
0000
1000
0100
0000
1001
0000
,
0010
0100
0001
0010
1000
0000
0010
0000
,
0100
1000
0000
0100
0010
0000
1001
0000
,
0100
0001
0010
0100
0001
0000
0100
0000
,
1000
0010
0000
1000
0100
0000
0101
0000
,
0010
0100
1000
0100
0001
0000
0010
0000
,
0001
0100
0000
0100
0010
0000
1001
0000
,
0100
1000
0010
0100
0001
0000
0010
0000
,
0100
0001
0000
0100
1000
0000
1010
0000
,
0100
1000
0100
0010
1000
0000
0100
0000
,
0010
0001
0000
0010
0100
0000
1001
0000
,
0100
1000
0010
0001
0010
0000
1000
0000
,
0100
1000
0000
1000
0001
0000
0110
0000
,
0001
0100
0001
0010
0100
0000
1000
0000
,
0100
0010
0000
0001
0100
0000
1001
0000
,
0100
0010
1000
0100
0010
0100
1000
0010
,
0100
0000
0001
0100
0010
1000
0100
0000
,
0010
0100
1000
0001
0100
1000
0100
0010
,
1000
0000
0100
0001
0100
0010
0001
0000
,
0100
0010
1000
0100
0010
0001
0100
1000
,
0100
0000
0010
1000
0100
0010
0001
0000
,
1000
0100
1000
0010
1000
0100
0001
0100
,
0010
0000
1000
0010
0001
0100
1000
0000
,
0100
0010
1000
0100
2002
0000
0000
0000
,
3003
0000
0000
0000
;

//---------------dance-single - ----------------
#NOTES:
     dance-single:
     :
     Medium:
     8:
     0.632,0.803,0.230,0.096,0.000: // measure 1
0000
0000
0000
0000
,  // measure 2
0000
0000
0000
0000
,  // measure 3
0000
0000
0000
0000
,  // measure 4
0000
0000
0000
0000
,  // measure 5
0000
0000
0000
0000
,  // measure 6
0000
0000
0000
0000
,  // measure 7
0000
0000
0000
0000
,  // measure 8
0000
0000
0000
0000
,  // measure 9
1000
0100
1000
0000
,  // measure 10
0001
0100
0001
0000
,  // measure 11
1000
0100
0010
0000
,  // measure 12
0001
0000
0100
0000
0010
0000
1000
0100
,  // measure 13
1000
0100
1000
0000
,  // measure 14
0001
0100
0001
0000
,  // measure 15
0010
0100
0010
0000
,  // measure 16
0100
0000
1000
0000
0010
0000
0100
0001
,  // measure 17
0100
0001
0100
0010
,  // measure 18
0000
1000
0100
0010
,  // measure 19
0001
0100
0010
1000
,  // measure 20
0000
0000
0000
0000
,  // measure 21
0001
0000
0000
0001
0000
0001
0000
0000
,  // measure 22
0000
1000
0100
0010
0000
0100
0000
0000
,  // measure 23
0001
0100
0010
1000
,  // measure 24
0000
0100
1000
0010
,  // measure 25
0100
0001
0010
0100
,  // measure 26
0000
0000
0000
0000
,  // measure 27
1001
0000
1000
0000
0100
0000
0000
1000
,  // measure 28
0001
0000
0100
0000
0000
0001
1000
0000
,  // measure 29
0100
0000
0000
1000
0001
0000
0100
0000
,  // measure 30
0000
0000
0000
0001
0010
0000
0100
0000
,  // measure 31
1000
0001
0100
0010
,  // measure 32
0000
0100
0001
0010
,  // measure 33
0100
1000
0100
1000
,  // measure 34
0000
0000
0000
0000
,  // measure 35
1000
0000
0000
1000
0000
1000
0000
0000
,  // measure 36
0000
0010
0100
0001
0000
0001
0000
0000
,  // measure 37
0010
0100
1000
0100
,  // measure 38
0000
1000
0010
0100
,  // measure 39
0010
0100
0001
0010
,  // measure 40
0000
0000
0000
0000
,  // measure 41
0011
0000
0001
0000
1000
0000
0000
0010
,  // measure 42
1000
0000
0001
0000
0000
0010
0001
0000
,  // measure 43
1000
0000
0000
0010
1000
0000
0001
0000
,  // measure 44
0000
0000
0000
0010
0001
0000
0010
0000
,  // measure 45
0100
1000
0100
0000
,  // measure 46
1000
0010
1000
0000
,  // measure 47
0001
0100
0001
0000
,  // measure 48
0010
0000
0001
0000
0010
0000
0100
1000
,  // measure 49
0100
1000
0010
0000
,  // measure 50
0100
0001
0010
0000
,  // measure 51
0010
0001
0100
0000
,  // measure 52
0010
0000
1000
0000
0100
0000
0010
0001
,  // measure 53
0010
0100
1000
0000
,  // measure 54
0100
0010
0001
0000
,  // measure 55
0100
0010
1000
0000
,  // measure 56
0001
0000
0100
0000
0010
0000
1000
0100
,  // measure 57
1000
0100
0001
0000
,  // measure 58
0100
1000
0010
0000
,  // measure 59
0100
0010
0100
0000
,  // measure 60
0001
0000
0100
0000
1000
0000
0100
0010
,  // measure 61
0100
0000
0000
0001
0000
0000
0010
0000
,  // measure 62
0100
0000
0000
1000
0000
0000
0100
0000
,  // measure 63
0010
0000
0000
0001
0000
0000
0100
0000
,  // measure 64
1000
0100
0010
1000
,  // measure 65
0100
0000
0000
0110
0000
0000
0110
0000
,  // measure 66
0001
0000
0000
1001
0000
0000
1001
0000
,  // measure 67
0100
0000
0000
0110
0000
0000
0110
0000
,  // measure 68
1000
0000
0000
1001
0000
0000
1001
0000
,  // measure 69
1000
0000
0000
0100
0000
0000
0010
0000
,  // measure 70
0001
0000
0000
0100
0000
0000
0001
0000
,  // measure 71
1000
0000
0000
0100
0000
0000
0010
0000
,  // measure 72
0100
1000
0010
0100
,  // measure 73
0001
0000
0000
0011
0000
0000
0011
0000
,  // measure 74
1000
0000
0000
1100
0000
0000
1100
0000
,  // measure 75
0001
0000
0000
0101
0000
0000
0101
0000
,  // measure 76
1000
0010
0100
0001
,  // measure 77
1000
0200
0301
0200
,  // measure 78
1300
0010
0000
0010
0100
0001
0000
0001
,  // measure 79
0010
0002
0013
0002
,  // measure 80
0103
0010
0000
0010
1000
0100
0000
0100
,  // measure 81
0010
0200
0310
0200
,  // measure 82
1300
0001
0000
0001
0010
0100
0000
0100
,  // measure 83
1000
0020
1030
0020
,  // measure 84
0031
0010
0000
0010
0100
0001
0000
0001
,  // measure 85
1000
0100
1000
0100
,  // measure 86
1000
0000
0001
0100
,  // measure 87
0001
0100
0001
0100
,  // measure 88
0001
0000
1000
0100
,  // measure 89
1000
0010
1000
0010
,  // measure 90
1000
0000
1000
0001
,  // measure 91
0010
0001
0010
0001
,  // measure 92
0010
0000
0100
1000
,  // measure 93
0001
1000
0001
1000
,  // measure 94
0001
0000
0100
0010
,  // measure 95
0100
0010
0100
0010
,  // measure 96
0100
0000
0001
1000
,  // measure 97
0001
1000
0001
1000
,  // measure 98
0001
0000
0010
0100
,  // measure 99
1000
0100
0010
0001
,  // measure 100
0010
0100
1000
0100
,  // measure 101
0010
0000
0011
0000
,  // measure 102
0100
0000
0000
0000
1000
0001
1000
0001
,  // measure 103
1000
0010
0000
0101
,  // measure 104
0000
0000
1000
0000
0000
0000
0001
1000
,  // measure 105
0001
1000
0001
0000
0010
0000
0100
0000
,  // measure 106
0010
0000
0001
1000
,  // measure 107
0010
0000
0100
0010
0100
0000
0010
0000
,  // measure 108
1000
0000
0001
0010
,  // measure 109
0100
0000
0010
0100
0010
0000
0100
0000
,  // measure 110
1000
0000
0001
1000
,  // measure 111
0010
0000
0100
0010
0100
0000
0001
0000
,  // measure 112
1000
0000
0100
1000
,  // measure 113
0010
0000
1000
0010
1000
0000
0001
0000
,  // measure 114
0010
0000
1000
0100
,  // measure 115
0010
0000
0001
0100
0001
0000
1000
0000
,  // measure 116
0001
0000
0100
0001
,  // measure 117
1000
0000
0001
0010
0001
0000
1000
0000
,  // measure 118
0100
0000
1000
0010
,  // measure 119
0100
0000
0010
0100
0010
0000
1000
0000
,  // measure 120
0001
0000
0100
0001
,  // measure 121
1000
0000
0001
1000
0001
0000
0010
0000
,  // measure 122
0011
0000
0100
1000
,  // measure 123
1100
0000
0010
1000
,  // measure 124
1010
0000
0010
0100
,  // measure 125
0110
0000
0001
0100
,  // measure 126
0101
0000
0001
0010
,  // measure 127
0001
0010
0100
1000
,  // measure 128
0010
0100
0001
0010
,  // measure 129
0100
1000
2002
0000
,  // measure 130
3003
0000
0000
0000
;

//---------------dance-single - ----------------
#NOTES:
     dance-single:
     :
     Easy:
     4:
     0.237,0.369,0.048,0.000,0.000:
0000
0000
0000
0000
,
0000
0000
0000
0000
,
0000
0000
0000
0000
,
0000
0000
0000
0000
,
0000
0000
0000
0000
,
0000
0000
0000
0000
,
0000
0000
0000
0000
,
0000
0000
0000
0000
,
1000
0000
0000
0000
,
0001
0000
0000
0000
,
0010
0000
0000
0000
,
0100
0000
1000
0000
,
0010
0000
0000
0000
,
0100
0000
0000
0000
,
0001
0000
0000
0000
,
1000
0000
0100
0000
,
0010
0000
0000
0000
,
0100
0000
1000
0000
,
0010
0000
0000
0000
,
0000
0000
0000
0000
,
1001
0000
1000
0000
,
0001
0000
1000
0000
,
0001
0000
0010
0000
,
0100
0000
0000
0000
,
1000
0000
0010
0000
,
0100
0000
0000
0000
,
0001
0000
0000
0000
,
1000
0000
0000
0000
,
0001
0000
0000
0000
,
1000
0000
0000
0000
,
0001
0000
0010
0000
,
0100
0000
0000
0000
,
1000
0000
0010
0000
,
0100
0000
0000
0000
,
1001
0000
1000
0000
,
0001
0000
1000
0000
,
0010
0000
0100
0000
,
0010
0000
0000
0000
,
1000
0000
0001
0000
,
0010
0000
0000
0000
,
1001
0000
0001
0000
,
1000
0000
0001
0000
,
1000
0000
0001
0000
,
0000
0000
0010
0000
,
0100
0000
0000
0000
,
1000
0000
0000
0000
,
0010
0000
0000
0000
,
0100
0000
0001
0000
,
1000
0000
0000
0000
,
0001
0000
0000
0000
,
0010
0000
0000
0000
,
0100
0000
1000
0000
,
0010
0000
0000
0000
,
1000
0000
0000
0000
,
0001
0000
0000
0000
,
0100
0000
0010
0000
,
0100
0000
0000
0000
,
0001
0000
0000
0000
,
0010
0000
0000
0000
,
0100
0000
1000
0000
,
0001
0000
0000
0000
,
1000
0000
0000
0000
,
0010
0000
0000
0000
,
0100
0000
0001
0000
,
0010
0000
0000
0000
,
0100
0000
0000
0000
,
1000
0000
0000
0000
,
0010
0000
0000
0000
,
0100
0000
0000
0000
,
0001
0000
0000
0000
,
1000
0000
0000
0000
,
0100
0000
1000
0000
,
0010
0000
0000
0000
,
0100
0000
0000
0000
,
0010
0000
0000
0000
,
0001
0000
0000
0000
,
1001
0000
0000
0000
,
1000
0000
0000
0000
,
0001
0000
0000
0000
,
1000
0000
0000
0000
,
0010
0000
0000
0000
,
0100
0000
0000
0000
,
0010
0000
0000
0000
,
1000
0000
0000
0000
,
0100
0000
0100
0000
,
0100
0000
0100
0000
,
0100
0000
0100
0000
,
0100
0000
0100
0000
,
0010
0000
0010
0000
,
0010
0000
0010
0000
,
0010
0000
0010
0000
,
0010
0000
0010
0000
,
0001
0000
0001
0000
,
0001
0000
0001
0000
,
0001
0000
0001
0000
,
0001
0000
0001
0000
,
1000
0000
1000
0000
,
1000
0000
1000
0000
,
1000
0000
1000
0000
,
1000
0000
1000
0000
,
0010
0000
0000
0000
,
0100
0000
0000
0000
,
0001
0010
0000
0000
,
0000
0100
0000
0000
,
0000
1000
0010
0000
,
0000
0000
0100
0000
,
0000
0000
0001
0000
,
0000
0000
0010
0000
,
0100
0000
1000
0000
,
0000
0000
0010
0000
,
0000
0000
0001
0000
,
0000
0000
1000
0000
,
0001
0000
1000
0000
,
0000
0000
0010
0000
,
0000
0000
0001
0000
,
0000
0000
1000
0000
,
0010
0000
0100
0000
,
0000
0000
0001
0000
,
0000
0000
1000
0000
,
0000
0000
0001
0000
,
0010
0000
0100
0000
,
0000
1000
0000
0000
,
0001
0000
0100
0000
,
0000
0010
0000
0000
,
1000
0000
0100
0000
,
0000
0010
0000
0000
,
0001
0000
0100
0000
,
0000
0010
0000
0000
,
1000
0000
1001
0000
;

//---------------dance-single - ----------------
#NOTES:
     dance-single:
     :
     Beginner:
     2:
     0.115,0.308,0.086,0.000,0.000:
0000
0000
0000
0000
,
0000
0000
0000
0000
,
0000
0000
0000
0000
,
0000
0000
0000
0000
,
0000
0000
0000
0000
,
0000
0000
0000
0000
,
0000
0000
0000
0000
,
0000
0000
0000
0000
,
1000
0000
0000
0000
,
0000
0000
0000
0000
,
0001
0000
0000
0000
,
0000
0000
0000
0000
,
0010
0000
0000
0000
,
0000
0000
0000
0000
,
0100
0000
0000
0000
,
0000
0000
0000
0000
,
1000
0000
0000
0000
,
0000
0000
0000
0000
,
0010
0000
0000
0000
,
0000
0000
0000
0000
,
0100
0000
0000
0000
,
0010
0000
0000
0000
,
1000
0000
0000
0000
,
0000
0000
0000
0000
,
0001
0000
0000
0000
,
0000
0000
0000
0000
,
0010
0000
0000
0000
,
0000
0000
0000
0000
,
0100
0000
0000
0000
,
0000
0000
0000
0000
,
1000
0000
0000
0000
,
0000
0000
0000
0000
,
0010
0000
0000
0000
,
0000
0000
0000
0000
,
0100
0000
0000
0000
,
0001
0000
0000
0000
,
0010
0000
0000
0000
,
0000
0000
0000
0000
,
0100
0000
0000
0000
,
0000
0000
0000
0000
,
1000
0000
0000
0000
,
0000
0000
0000
0000
,
0010
0000
0000
0000
,
0000
0000
0000
0000
,
0100
0000
0000
0000
,
0000
0000
0000
0000
,
0001
0000
0000
0000
,
0000
0000
0000
0000
,
0010
0000
0000
0000
,
0000
0000
0000
0000
,
0100
0000
0000
0000
,
0000
0000
0000
0000
,
1000
0000
0000
0000
,
0000
0000
0000
0000
,
0001
0000
0000
0000
,
0000
0000
0000
0000
,
0100
0000
0000
0000
,
0000
0000
0000
0000
,
0010
0000
0000
0000
,
0000
0000
0000
0000
,
1000
0000
0000
0000
,
0000
0000
0000
0000
,
0100
0000
0000
0000
,
0000
0000
0000
0000
,
0010
0000
0000
0000
,
0000
0000
0000
0000
,
0100
0000
0000
0000
,
0000
0000
0000
0000
,
1000
0000
0000
0000
,
0000
0000
0000
0000
,
0001
0000
0000
0000
,
0000
0000
0000
0000
,
0100
0000
0000
0000
,
0000
0000
0000
0000
,
0010
0000
0000
0000
,
0000
0000
0000
0000
,
1000
0000
0001
0000
,
1000
0000
0000
0000
,
0100
0000
0010
0000
,
0100
0000
0000
0000
,
0001
0000
0010
0000
,
0001
0000
0000
0000
,
1000
0000
0100
0000
,
1000
0000
0000
0000
,
1001
0000
0000
0000
,
0000
0000
0000
0000
,
0110
0000
0000
0000
,
0000
0000
0000
0000
,
1001
0000
0000
0000
,
0000
0000
0000
0000
,
0110
0000
0000
0000
,
0000
0000
0000
0000
,
1001
0000
0000
0000
,
0000
0000
0000
0000
,
0110
0000
0000
0000
,
0000
0000
0000
0000
,
1001
0000
0000
0000
,
0000
0000
0000
0000
,
0110
0000
0000
0000
,
0000
0000
0000
0000
,
1000
0000
0000
0000
,
0001
0000
0000
0000
,
1000
0001
0000
0000
,
0000
1000
0000
0000
,
0000
0001
0010
0000
,
0000
0000
0000
0000
,
0000
0000
0010
0000
,
0000
0000
0000
0000
,
0000
0000
1000
0000
,
0000
0000
0000
0000
,
0000
0000
0010
0000
,
0000
0000
0000
0000
,
0000
0000
0100
0000
,
0000
0000
0000
0000
,
0000
0000
0001
0000
,
0000
0000
0000
0000
,
0000
0000
0010
0000
,
0000
0000
0000
0000
,
0000
0000
0100
0000
,
0000
0000
0000
0000
,
0000
0000
1000
0000
,
0000
0000
0000
0000
,
0000
0000
0010
0000
,
0000
0000
0000
0000
,
0000
0000
0100
0000
,
0000
0000
0000
0000
,
0000
0000
0001
0000
,
0000
0000
0000
0000
,
0000
0000
1001
0000
;

//---------------dance-double - ----------------
#NOTES:
     dance-double:
     :
     Hard:
     11:
     0.808,0.927,0.067,0.077,0.000:
00000000
00000000
00000000
00000000
,
00000000
00000000
00000000
00000000
,
00000000
00000000
00000000
00000000
,
00000000
00000000
00000000
00000000
,
00000000
00000000
00000000
00000000
,
00000000
00000000
00000000
00000000
,
00000000
00000000
00000000
00000000
,
00000000
00000000
00000000
00000000
,
10000000
00000000
01000000
00000000
00100000
00010000
00000000
00000000
,
10000000
00000000
00100000
00000000
01000000
00010000
00000000
00000000
,
00100000
00000000
00001000
00000000
00010000
00001000
00000000
00000000
,
00000100
00000000
00000010
00000000
00001000
00000100
00000010
00000001
,
00000100
00000000
00000010
00000000
00000100
00000001
00000000
00000000
,
00001000
00000000
00000100
00000000
00010000
00001000
00000000
00000000
,
00010000
00000000
00100000
00000000
01000000
00010000
00000000
00000000
,
00100000
00000000
01000000
00000000
00010000
01000000
10000000
00100000
,
01000000
00100000
10000000
00100000
,
00000000
01000000
00010000
00100000
,
00001000
00010000
00000100
00001000
,
00000000
00000000
00000000
00000000
,
00001200
00000000
00000000
00001000
00000000
00010000
00000300
00000000
,
00001000
00010000
01000000
10000000
00000000
10010000
00000000
00000000
,
10000000
00100000
01000000
00010000
,
00000000
00100000
01000000
00010000
,
00001000
00000010
00000100
00001000
,
00000000
00000000
00000000
00000000
,
00001010
00000000
00000010
00000000
00000100
00000000
00001000
00010000
,
00001000
00000000
00100000
00000000
00001000
00010000
00001000
00000000
,
00000010
00000000
00000100
00000010
00000100
00000000
00001000
00000000
,
00000010
00000100
00000000
00000100
00001000
00000000
00010000
00000000
,
00001000
00000100
00000010
00001000
,
00000000
00000100
00000010
00000001
,
00000010
00000100
00001000
00010000
,
00000000
00000000
00000000
00000000
,
00210000
00000000
00000000
00010000
00000000
00001000
00300000
00000000
,
00010000
01000000
00100000
00010000
00000000
00011000
00000000
00000000
,
00001000
00000100
00000001
00000010
,
00000000
00000100
00001000
00000100
,
00010000
00001000
01000000
00100000
,
00000000
00000000
00000000
00000000
,
10100000
00000000
00100000
00000000
00010000
00000000
00001000
00010000
,
00001000
00000000
00000100
00000000
00001000
00010000
00001000
00000000
,
01000000
00000000
00010000
00100000
00010000
00000000
10000000
00000000
,
00100000
01000000
00010000
00000000
00100000
01000000
00000000
10000000
,
01000000
00000000
00010000
00000000
00001000
00010000
00000000
00000000
,
01000000
00000000
10000000
00000000
00100000
00010000
00000000
00000000
,
00010000
00000000
00001000
00000000
00000010
00000001
00000000
00000000
,
00000100
00000000
00001000
00000000
00000100
00000010
00001000
00000100
,
00010000
00000000
01000000
00000000
00100000
00010000
00000000
00000000
,
01000000
00000000
00100000
00000000
10000000
00100000
00000000
00000000
,
01000000
00000000
10000000
00000000
01000000
00010000
00000000
00000000
,
00100000
00000000
00001000
00000000
00010000
01000000
10000000
00100000
,
00010000
00000000
00001000
00000000
00000010
00000100
00000000
00000000
,
00001000
00000000
00000001
00000000
00000100
00000010
00000000
00000000
,
00000001
00000000
00000010
00000000
00000100
00000001
00000000
00000000
,
00001000
00000000
00000100
00000000
00000010
00000001
00001000
00000100
,
00010000
00000000
00001000
00000000
00100000
00010000
00000000
00000000
,
01000000
00000000
00010000
00000000
00100000
00001000
00000000
00000000
,
00010000
00000000
00000100
00000000
00001000
00000010
00000000
00000000
,
00000100
00000000
00001000
00000000
00010000
00100000
01000000
00010000
,
10000000
00000000
01000000
00100000
00000000
00100000
00010000
00000000
,
10000000
00000000
01000000
00100000
00000000
00100000
00010000
00000000
,
01000000
00000000
00100000
00010000
00000000
00010000
00001000
00000000
,
00000010
00000000
00000100
00000000
00001000
00000010
00000100
00000001
,
00001000
00000000
00000001
00000100
00000000
00000010
00001000
00000000
,
00000100
00000000
00010000
00001000
00000000
01000000
00010000
00000000
,
10000000
00000000
01000000
00100000
00000000
00010000
01000000
00000000
,
00001000
00000000
00010000
00000000
00001000
00000100
00000010
00000100
,
00000010
00000000
00001000
00000100
00000000
00000100
00000010
00000000
,
00000001
00000000
00001000
00000100
00000000
00000100
00000010
00000000
,
00000001
00000000
00000100
00000010
00000000
00000010
00001000
00000000
,
00000100
00000000
00010000
00000000
00001000
00010000
00001000
01000000
,
00010000
00000000
10000000
00100000
00000000
01000000
00010000
00000000
,
00100000
00000000
00001000
00010000
00000000
00000010
00000100
00000000
,
00001000
00000000
00000100
00000010
00000000
00001000
00000001
00000000
,
00000010
00000000
00000100
00000000
00001000
00000100
00001000
00000100
,
00020000
00001000
00030100
00001000
,
00010000
00001000
00000000
00001000
01000000
00010000
00000000
00010000
,
00100000
02000000
00010000
13000000
,
00100000
01000000
00000000
01000000
00100000
00010000
00000000
00010000
,
00001000
00000200
00001000
00000310
,
00001000
00000100
00000000
00000100
00000010
00001000
00000000
00001000
,
00010000
00000000
00002000
00000000
00010000
00003000
01000000
00000000
,
00010000
00001000
00000000
00001000
01000000
00010000
00000000
00010000
,
00100000
01000000
00100000
01000000
,
10000000
00010000
10000000
00010000
,
01000000
00001000
01000000
00001000
,
00100000
00000000
00001000
00000000
00100000
00000000
00001000
00010000
,
00001000
00010000
00001000
00010000
,
00001000
00000100
00001000
00000100
,
00000001
00000100
00000001
00000100
,
00000001
00000000
00001000
00000000
00000001
00000000
00001000
00000100
,
00001000
00000100
00010000
00000100
,
00010000
00001000
00010000
00001000
,
00100000
00010000
00100000
00010000
,
00100000
00000000
01000000
00000000
00100000
00000000
01000000
10000000
,
01000000
00010000
00001000
00000100
,
00000010
00001000
00000100
00000010
,
00001000
00010000
00100000
01000000
,
00010000
00100000
01000000
00010000
,
00001000
00010000
00001000
00010000
00000100
00000000
00001000
00000100
,
00001000
00000100
00000010
00000000
00000001
00000010
00000001
00000010
,
00000100
00000000
00010000
00001000
00010000
00001000
00100000
00000000
,
00010000
00100000
00010000
00100000
01000000
00000000
10000000
00100000
,
10000000
00100000
01000000
00000000
01010000
00000000
10000000
00000000
,
00100000
01000000
00000000
01000000
00010000
00000000
00100000
00000000
,
01000000
10000000
01000000
00100000
00010000
00000000
00100000
00000000
,
00001000
00010000
00000000
00000100
00001000
00000000
00000010
00000000
,
00000100
00001000
00010000
00001000
00000100
00000000
00000001
00000000
,
00000010
00000100
00000000
00001000
00000100
00000000
00000010
00000000
,
00000001
00000010
00000100
00001000
00000010
00000000
00000100
00000000
,
00001000
00010000
00000000
00001000
00100000
00000000
00010000
00000000
,
00100000
01000000
00010000
01000000
10000000
00000000
00100000
00000000
,
01000000
00010000
00000000
00010000
00100000
00000000
00001000
00000000
,
00010000
00001000
00000010
00000100
00001000
00000000
00000100
00000000
,
00000010
00000100
00000000
00010000
00001000
00000000
00100000
00000000
,
00010000
00100000
01000000
00100000
00010000
00000000
01000000
00000000
,
00100000
10000000
00000000
00100000
00010000
00000000
00001000
00000000
,
00010000
00001000
00000100
00000010
00000100
00000000
00000010
00000000
,
00001000
00000100
00000000
00000100
00000010
00000000
00000100
00000000
,
00001000
00000100
00010000
00001000
01000000
00100000
00010000
00100000
,
01000000
00000000
00010000
00100000
01000000
10000000
01000000
00000000
,
00100000
00001000
00010000
00000100
00001000
00000010
00000100
00000001
,
00001000
00000000
00000001
00000010
00000100
00010000
00001000
00000000
,
01000000
00100000
00010000
00001000
00100000
00010000
00100000
01000000
,
00100000
00000000
00001000
00010000
00000010
00000100
00000010
00000000
,
00000100
00001000
00010000
00001000
01000000
00010000
00100000
00001000
,
00010000
00000000
00100000
00010000
00001000
00000010
00000100
00000000
,
00000010
00000100
00010000
00002000
00020000
00000000
00000000
00000000
,
00033000
00000000
00000000
00000000
;

//---------------dance-double - ----------------
#NOTES:
     dance-double:
     :
     Easy:
     7:
     0.578,0.800,0.067,0.268,0.000:
00000000
00000000
00000000
00000000
,
00000000
00000000
00000000
00000000
,
00000000
00000000
00000000
00000000
,
00000000
00000000
00000000
00000000
,
00000000
00000000
00000000
00000000
,
00000000
00000000
00000000
00000000
,
00000000
00000000
00000000
00000000
,
00000000
00000000
00000000
00000000
,
10000000
00100000
01000000
00000000
,
00010000
01000000
00100000
00000000
,
10000000
00010000
01000000
00000000
,
00001000
00010000
00001000
00010000
,
00000100
00001000
00000010
00000000
,
00000100
00000001
00001000
00000000
,
00000010
00001000
00000001
00000000
,
00001000
00000100
00010000
00001000
,
00010000
00001000
00010000
00000100
,
00000000
00010000
00001000
01000000
,
00010000
10000000
01000000
20000000
,
00000000
00000000
30000000
00000000
,
10000000
00000000
00000000
00100000
00000000
01000000
00000000
00000000
,
10010000
00000000
00010000
10000000
00000000
01000000
00000000
00000000
,
00100000
00010000
01000000
00001000
,
00000000
00010000
00000100
00001000
,
00000010
00000100
00000001
00002000
,
00000000
00000000
00000000
00003000
,
00000010
00000020
00000000
00001030
,
00002000
00000000
00003001
00000002
,
00000000
00000103
00000200
00000000
,
00000310
00000000
00001001
00000000
,
00000100
00010000
00001000
00010000
,
00000000
00001000
01000000
00010000
,
00100000
00001000
00010000
00000200
,
00000000
00000000
00000300
00000000
,
00001000
00000000
00000000
00000100
00000000
00000010
00000000
00000000
,
00001001
00000000
00000001
00000100
00000000
00000010
00000000
00000000
,
00001000
00000100
00010000
00001000
,
00000000
00001000
00100000
01000000
,
10000000
00010000
01000000
00200000
,
00000000
00000000
00000000
00300000
,
10000000
20000000
00000000
31000000
,
02000000
00000000
03100000
00200000
,
00000000
00310000
00020000
00000000
,
01030000
00000000
10010000
00000000
,
10000000
01000000
00010000
00000000
,
00001000
00000100
00000001
00000000
,
00000001
00000100
00001000
00000000
,
00010000
01000000
10000000
00000000
,
10000000
00100000
00010000
00000000
,
00001000
00000010
00000001
00000000
,
00000001
00000010
00001000
00000000
,
00010000
00100000
10000000
00000000
,
00010000
01000000
00100000
00000000
,
00010000
00000100
00001000
00000000
,
00000010
00010000
00001000
00000000
,
00010000
00000100
00000010
00000000
,
00000001
00000100
00000010
00000000
,
00001000
00000100
00010000
00000000
,
00001000
01000000
00100000
00000000
,
10000000
00010000
01000000
00000000
,
00100000
10000000
01000000
10000000
,
00000000
00010000
01000000
00010000
,
00000000
01000000
00001000
01000000
,
00000000
00001000
00010000
00001000
,
00000000
00010000
00000100
00010000
,
00000000
00000010
00001000
00000010
,
00000000
00001000
00000100
00001000
,
00000000
00000010
00001000
00000010
,
00000100
00000001
00000100
00000001
,
00000000
00001000
00000100
00001000
,
00000000
00000010
00010000
00000010
,
00000000
00010000
00001000
00010000
,
00000000
00001000
01000000
00001000
,
00000000
00100000
00010000
00100000
,
00000000
01000000
10000000
01000000
,
00000000
10000000
00100000
10000000
,
00100000
00000000
01000000
00010000
01000000
00000000
00100000
10000000
,
00100000
00000000
01000000
00010000
01000000
00000000
00001000
00010000
,
00001000
00000000
00000100
00001000
00000100
00000000
00001000
00000010
,
00001000
00000000
00000001
00000100
00000001
00000000
00000000
00001000
,
00000100
00000000
00010000
00001000
00010000
00000000
00001000
01000000
,
00001000
00000000
00100000
00010000
00100000
00000000
00010000
10000000
,
00010000
00000000
01000000
00100000
01000000
00000000
00010000
01000000
,
00010000
00000000
01000000
00001000
01000000
00000000
00010000
00001000
,
00010000
00000100
00010000
00000100
,
00001000
00000100
00001000
00000100
,
00001000
00000010
00001000
00000010
,
00001000
00000001
00001000
00000001
,
00000100
00000001
00000100
00000001
,
00001000
00000001
00001000
00000001
,
00001000
00000100
00001000
00000100
,
00010000
00001000
00010000
00001000
,
01000000
00001000
01000000
00001000
,
01000000
00010000
01000000
00010000
,
10000000
00010000
10000000
00100000
,
10000000
00100000
10000000
00100000
,
01000000
00100000
01000000
00010000
,
01000000
00010000
01000000
00001000
,
01000000
00001000
01000000
00001000
,
00010000
00001000
00010000
00000000
,
00002000
00000000
00023000
00000000
,
00031000
00000000
00011000
00000000
,
00011000
00000200
00000000
00002300
,
00000000
00003010
00000000
00000100
,
00000000
00001001
00000010
00001000
,
00000100
00000000
00010000
00001000
,
01000000
00000000
00100000
10000000
,
01000000
00000000
10000000
00010000
,
01000000
00010000
01000000
00001000
,
00010000
00000000
00000100
00010000
,
00001000
00000000
00010000
00000010
,
00001000
00000000
00000001
00000100
,
00000010
00000100
00000001
00001000
,
00000100
00000000
00010000
00001000
,
00100000
00000000
00010000
01000000
,
00100000
00000000
10000000
00010000
,
01000000
00100000
01000000
00010000
,
10000000
00000000
01000000
00100000
,
00010000
00000000
01000000
00001000
,
00010000
00000000
00001000
00010000
,
00000100
00001000
00000020
00000000
,
00000000
00000230
00000000
00000000
,
00000302
00000000
00002003
00000000
,
00000000
00003200
00000000
00000000
,
00020300
00000000
00032000
00000000
,
00000000
02003000
00000000
00000000
,
03200000
00000000
20300000
00000000
,
00000000
32000000
00000000
00000000
,
23000000
00000000
30100000
00000000
;

//---------------dance-double - ----------------
#NOTES:
     dance-double:
     :
     Medium:
     9:
     0.684,0.800,0.125,0.144,0.000:
00000000
00000000
00000000
00000000
,
00000000
00000000
00000000
00000000
,
00000000
00000000
00000000
00000000
,
00000000
00000000
00000000
00000000
,
00000000
00000000
00000000
00000000
,
00000000
00000000
00000000
00000000
,
00000000
00000000
00000000
00000000
,
00000000
00000000
00000000
00000000
,
00010000
00001000
02000000
00000000
,
03010000
01000000
00002000
00000000
,
00013000
00000100
00002000
00000000
,
00003010
00001000
00000100
00001000
,
00000001
00000100
00000020
00000000
,
00001030
00000100
00020000
00000000
,
00031000
01000000
00200000
00000000
,
10300000
01000000
10000000
00010000
,
01000000
00100000
10000000
01000000
,
00000000
00010000
00001000
00000100
,
00000001
00001000
00000100
00002000
,
00000000
00000000
00000000
00003000
,
00001010
00000000
00000000
00000101
00000000
00001001
00000000
00000000
,
00000000
00000010
00001000
00000200
00000000
00001300
00000000
00000000
,
00000001
00000100
00000010
00001000
,
00000000
00000100
00010000
00001000
,
01000000
00100000
10000000
00020000
,
00000000
00000000
00030000
00000000
,
10000000
00000000
10100000
00000000
,
01000000
00010000
00000000
01000000
,
00001000
00000000
00010000
00000100
,
00000000
00001000
00000010
00000100
,
00000001
00001000
00000100
00000010
,
00000000
00000100
00010000
00001000
,
01000000
00100000
01000000
00020000
,
00000000
00000000
00000000
00030000
,
10100000
00000000
00000000
00110000
00000000
10010000
00000000
00000000
,
00000000
01000000
10000000
00020000
00000000
01030000
00000000
00000000
,
00100000
10000000
01000000
00010000
,
00000000
00001000
00000100
00000001
,
00001000
00000100
00000010
00000001
,
00000000
00000000
00000000
00000000
,
00001010
00000000
00000100
00000001
,
00000101
00000000
00000010
00001000
,
00001100
00000000
00000000
00011000
,
00000000
00000000
01001000
00000000
,
00100000
10000000
01000000
00010000
,
00001000
00000100
00000001
00000100
,
00001000
00000100
00000001
00000010
,
00001000
00010000
00100000
10000000
,
00010000
01000000
00100000
10000000
,
01000000
00010000
00001000
00000100
,
00000001
00000100
00001000
00010000
,
01000000
10000000
00100000
10000000
,
00100000
01000000
00001000
00010000
,
00000100
00001000
00000010
00000100
,
00000001
00001000
00000100
00000010
,
00000001
00000010
00000100
00001000
,
00000100
00010000
00001000
01000000
,
00100000
10000000
01000000
00100000
,
00010000
00100000
01000000
10000000
,
00010000
01000000
00100000
01000000
,
00010000
10000000
01000000
00100000
,
00001000
00010000
00000100
00000010
,
00000001
00000100
00000010
00001000
,
00000100
00010000
00001000
01000000
,
00010000
00100000
01000000
10000000
,
01000000
00100000
01000000
10000000
,
00010000
00100000
01000000
00100000
,
00010000
01000000
00001000
00010000
,
00000100
00001000
00000010
00000100
,
00000010
00001000
00000001
00000100
,
00000010
00000100
00000001
00001000
,
00000100
00000010
00000100
00001000
,
00000001
00000100
00001000
00010000
,
01000000
10000000
00010000
10000000
,
01000000
00010000
00001000
00000100
,
00000001
00001000
00000010
00000100
,
00000001
00000000
00000100
00000010
00001000
00000000
00000100
00010000
,
00001000
01000000
00000000
00100000
10000000
01000000
00000000
10000000
,
00010000
00000000
01000000
00100000
10000000
00000000
00010000
01000000
,
00001000
00010000
00000000
00000100
00001000
00000010
00000000
00000100
,
00000001
00000000
00001000
00000100
00010000
00000000
00001000
01000000
,
00100000
10000000
00000000
00010000
01000000
00100000
00000000
10000000
,
01000000
00000000
00100000
00001000
00010000
00000000
00000100
00001000
,
00000010
00000100
00000000
00000001
00001000
00000100
00000000
00010000
,
00001000
00010000
00000100
00001000
,
00000010
00000100
00000001
00000100
,
00000010
00001000
00000100
00001000
,
00000100
00000000
00001000
00000000
00000001
00000000
00000100
00000010
,
00000100
00000010
00001000
00000100
,
00000010
00000001
00001000
00000100
,
00010000
00001000
01000000
00100000
,
10000000
00000000
00010000
00000000
10000000
00000000
00100000
01000000
,
00100000
10000000
00010000
01000000
,
00100000
10000000
00010000
01000000
,
00100000
01000000
00010000
10000000
,
01000000
00000000
00100000
00000000
00010000
00000000
10000000
01000000
,
10000000
00010000
01000000
00001000
,
00010000
00000100
00001000
00000010
,
00000100
00000001
00001000
00000100
,
00000010
00000001
00000100
00000010
,
00001000
00000001
00001000
00000000
00000100
00000000
00000010
00000001
,
00000010
00000000
00000100
00000000
00001000
00000001
00001000
00000000
,
00000010
00000000
00001000
00000100
00001000
00000000
00000100
00000000
,
00010000
00001000
00010000
00000000
00001000
00000000
01000000
00010000
,
01000000
00100000
10000000
00100000
,
01000000
00010000
10000000
01000000
,
00100000
00010000
00000000
00010000
00100000
00000000
01000000
00000000
,
10000000
00010000
01000000
00001000
,
00010000
00000100
00001000
00000010
,
00000100
00000001
00001000
00000010
,
00000100
00000001
00000000
00000001
00000100
00000000
00000010
00000000
,
00001000
00000100
00010000
00001000
,
01000000
00100000
01000000
00001000
,
00010000
00000100
00001000
00000010
,
00010000
00001000
00000000
00001000
00010000
00000000
00001000
00000000
,
01000000
00100000
10000000
01000000
,
00100000
00010000
01000000
00100000
,
10000000
00010000
01000000
00001000
,
00010000
00001000
00000000
00001000
00010000
00000000
00000100
00000000
,
00001000
00000010
00000100
00000001
,
00001000
00000100
00000010
00000001
,
00000010
00000100
00001000
00000100
,
00020000
00031000
01000000
00010000
,
01000000
00100000
10000000
00100000
,
02000000
03001000
00010000
00001000
,
00010000
00000100
00001000
00000100
,
00020000
00031000
00000010
00001000
,
00000010
00000100
00000001
00000100
,
00000020
00001030
00001001
00000000
;
