#TITLE:the keel;
#SUBTITLE:;
#ARTIST:Akino;
#TITLETRANSLIT:;
#SUBTITLETRANSLIT:;
#ARTISTTRANSLIT:;
#GENRE:;
#CREDIT:;
#MENUCOLOR:;
#METERTYPE:DDR;
#BANNER:the keel-bn.png;
#BACKGROUND:the keel-bg.png;
#LYRICSPATH:;
#CDTITLE:ddrencorecdtitle.png;
#MUSIC:the keel.mp3;
#OFFSET:-1.612;
#SAMPLESTART:53.460;
#SAMPLELENGTH:12.000;
#SELECTABLE:YES;
#LISTSORT:;
#BPMS:0.000=133.000;
#STOPS:;
#BGCHANGES:;
#ATTACKS:;

//---------------dance-single - ----------------
#NOTES:
     dance-single:
     :
     Hard:
     8:
     0.552,0.608,0.261,0.558,0.139: // measure 1
0000
0000
0000
1000
,  // measure 2
0001
0100
0000
0100
0001
0000
0010
0000
,  // measure 3
0100
1000
0000
1000
0100
0000
0001
0000
,  // measure 4
0010
0100
0000
0100
0010
0000
0001
0100
,  // measure 5
0001
1000
0010
1000
,  // measure 6
0010
0000
0000
0100
0001
0000
0010
0000
0100
0000
0000
0000
0001
0000
0000
0000
,  // measure 7
0100
0000
0000
0010
1000
0000
0100
0000
0010
0000
0001
0000
0100
0000
0000
0000
,  // measure 8
0010
0000
0000
1000
0010
0000
0100
0000
0001
0000
0000
0000
1000
0000
0100
0000
,  // measure 9
1000
0100
0010
0100
0010
0000
0002
0000
,  // measure 10
0103
0000
0000
0010
1000
0000
0010
0000
0100
0000
0001
0000
0200
0000
0000
0000
,  // measure 11
0301
0000
0000
0010
0100
0000
0001
0000
0010
0000
0100
0000
2000
0000
0000
0000
,  // measure 12
3001
0000
0000
0100
0010
0000
0100
0000
0001
0000
0000
0000
0010
0000
0001
0000
,  // measure 13
0010
0001
1000
0001
1000
0001
0200
0000
,  // measure 14
0310
0000
0000
1000
0100
0000
0010
0000
0100
0000
1000
0000
0002
0000
0000
0000
,  // measure 15
0103
0000
0000
0001
0100
0000
0010
0000
0100
0000
0001
0000
2000
0000
0000
0000
,  // measure 16
3010
0000
0000
0000
0100
0000
0000
0001
0100
0000
0010
0000
1000
0000
0100
0000
,  // measure 17
0010
0001
0010
0100
1000
0102
0000
0000
,  // measure 18
0100
0200
0003
0000
0010
0020
0300
0000
,  // measure 19
1000
2030
0000
0000
3001
0000
0210
0000
,  // measure 20
0001
0302
0000
0000
0100
0203
0000
0000
,  // measure 21
0010
0320
0000
0000
0130
0000
1001
0000
,  // measure 22
0101
0000
0000
0010
1000
0000
0100
0000
1000
0000
0000
0000
0110
0000
0000
0000
,  // measure 23
1100
0000
0000
0010
0001
0000
0100
0000
0001
0000
0010
0000
0100
0000
0000
0000
,  // measure 24
1000
0000
0000
0010
1000
0000
0100
0000
0010
0000
0000
0000
0010
0000
0001
0000
,  // measure 25
0010
0000
0100
1000
0100
0000
1000
0100
,  // measure 26
0010
0000
0002
0000
0000
0003
0100
0010
1000
0000
0100
0000
0010
0000
0100
0000
,  // measure 27
1000
0000
0020
0000
0000
0030
0100
0001
1000
0000
0010
0000
0100
0000
0001
0000
,  // measure 28
1000
0000
0200
0000
0000
0300
0010
0001
0100
0000
0001
0000
1000
0000
1000
0000
,  // measure 29
0100
0100
0010
0010
0001
0001
0100
0010
,  // measure 30
0100
0000
0001
0000
0010
0000
0100
1000
0001
0000
0100
0000
0010
0000
1000
0000
,  // measure 31
0001
0000
0100
0000
0010
0000
1000
0100
0010
0000
0001
0000
0100
0000
0010
0000
,  // measure 32
0100
0000
0001
0000
0010
0000
0001
1000
0100
0000
0010
0000
0100
0000
1000
0000
,  // measure 33
0001
1000
0001
0000
1100
2200
0000
3300
,  // measure 34
0101
0202
0000
0303
0110
0220
0000
0330
,  // measure 35
1001
2002
0000
3003
0100
0000
0010
0000
,  // measure 36
1010
2020
0000
3030
0011
0022
0000
0033
,  // measure 37
1100
2200
0000
3300
0110
0000
1000
0001
,  // measure 38
1000
0202
0000
0303
0001
2200
0000
3300
,  // measure 39
0100
1001
0000
0110
0000
2002
0000
3003
,  // measure 40
0100
1000
0100
1000
0100
0010
0000
0001
,  // measure 41
0001
0200
0000
0300
0001
0010
0001
0010
,  // measure 42
0001
0100
0001
1000
0000
0100
1000
0100
,  // measure 43
1000
0001
0200
0000
0320
0000
2030
0000
,  // measure 44
0000
3002
0000
0203
,  // measure 45
0000
0320
0030
2002
,  // measure 46
0000
0000
3003
2000
,  // measure 47
3200
0320
0032
2003
,  // measure 48
3002
0203
0320
2030
,  // measure 49
3002
0000
0203
0000
0300
0000
1000
0001
,  // measure 50
0100
0000
0010
0100
0000
0010
0100
0000
0001
0000
0010
0000
0100
0000
1000
0000
,  // measure 51
0001
0000
0100
0001
0000
0100
0001
0000
0020
0000
0000
0000
0130
0000
1000
0000
,  // measure 52
0010
0000
1000
0001
0000
1000
0001
0000
0100
0000
0010
0000
1000
0000
0100
0000
,  // measure 53
0010
0000
0001
0100
0000
0001
0100
0000
0020
0000
0000
0000
0130
0000
0001
0000
,  // measure 54
1000
0000
0010
0100
0000
0010
0100
0000
0001
0000
1000
0000
0100
0000
0010
0000
,  // measure 55
0100
0000
0010
0001
0000
0010
0001
0000
2000
0000
0000
0000
3100
0000
0010
0000
,  // measure 56
0100
0000
1000
0010
0000
1000
0010
0000
0100
0000
0001
0000
0010
0000
0100
0000
,  // measure 57
0010
1000
0001
0100
0010
0000
2001
0000
,  // measure 58
0001
0100
3100
1002
,  // measure 59
1000
0100
0103
2002
,  // measure 60
0000
0000
0000
0000
,  // measure 61
0000
0000
0000
0000
0000
3003
0000
0000
;

//---------------dance-single - ----------------
#NOTES:
     dance-single:
     :
     Beginner:
     1:
     0.153,0.205,0.105,0.078,0.000:
0000
0000
0000
1001
,
0000
0000
0000
1001
,
0000
0000
0000
0110
,
0000
0000
0000
0110
,
0000
0000
0000
1000
,
1000
1000
0000
0001
,
0001
0001
0000
0100
,
0100
0100
0000
0001
,
0000
1000
0000
1000
,
0000
0001
0000
0100
,
0000
0100
0000
0001
,
0000
1000
0000
0010
,
0000
0010
0000
1000
,
1000
0000
0000
0001
,
0001
0000
0000
0100
,
0100
0000
0000
0010
,
0010
0000
0000
2000
,
0000
3000
0000
0002
,
0000
0003
0000
2000
,
0000
3000
0000
0002
,
0000
0003
0000
0100
,
0100
0000
0000
0010
,
0010
0000
0000
1000
,
1000
0000
0000
0001
,
0001
0000
0000
1000
,
0000
0010
0000
1000
,
0000
0010
0000
0100
,
0000
0001
0000
0100
,
0000
0000
0000
0001
,
0000
0010
0000
0001
,
0000
1000
0000
0100
,
0000
1000
0000
0010
,
0000
0100
0000
1001
,
0000
0110
0000
1001
,
0000
0110
0000
1001
,
0000
0110
0000
1001
,
0000
0110
0000
1000
,
1000
0000
0000
0001
,
0001
0000
0000
2000
,
0000
3000
0000
0002
,
0000
0003
0000
0200
,
0000
0300
0000
0020
,
0000
0030
0000
1000
,
0000
1000
0000
0001
,
0000
0001
0000
0200
,
0000
0000
0000
0000
,
0000
0300
0000
1000
,
1000
0000
0000
0010
,
0010
0000
0000
0100
,
0000
0001
0000
0100
,
0000
0001
0000
0010
,
0000
1000
0000
0010
,
0000
1000
0000
0100
,
0000
1000
0000
0100
,
0000
1000
0000
0010
,
0000
0001
0000
0010
,
0000
0001
0000
1000
,
0000
0000
0000
0001
,
0000
0000
0000
0100
;

//---------------dance-single - ----------------
#NOTES:
     dance-single:
     :
     Easy:
     3:
     0.311,0.366,0.157,0.357,0.000:
0000
0000
0000
2000
,
0000
3100
0000
0002
,
0000
0103
0000
0020
,
0000
1030
0000
2000
,
0000
3001
0000
1000
,
0100
0010
0010
0001
,
0100
0010
0010
1000
,
0001
0100
0100
0001
,
1000
0100
0100
2000
,
3100
0001
0001
0002
,
0103
1000
1000
0020
,
0031
0100
0100
0020
,
2030
3200
0320
0032
,
0013
1000
1000
2000
,
3010
0001
0001
0002
,
0013
0100
0100
0001
,
1000
0001
0100
0020
,
0000
0230
0000
0302
,
0000
2003
3001
0200
,
0000
0320
0000
2030
,
0000
3002
0103
1001
,
0100
1000
0100
0010
,
0001
0010
0001
0100
,
0010
0100
0010
1000
,
0001
1000
0001
0200
,
0310
1000
1000
0020
,
0130
0001
0001
2000
,
3010
0100
0100
0001
,
0011
1000
1100
0200
,
0310
0001
0001
2000
,
3010
0100
0100
0020
,
0130
0001
1000
0001
,
0100
0010
0000
1001
,
0000
1100
0000
0101
,
0000
0110
0010
0011
,
0000
1100
0000
1001
,
0000
1010
1000
1100
,
0000
0101
0000
1001
,
0000
0110
0000
1001
,
0100
0001
0100
0001
,
1000
0010
1000
0010
,
0100
0010
0100
0010
,
1000
0100
1000
0002
,
0000
0203
0000
2300
,
0000
3200
0300
2002
,
0000
0000
3003
0100
,
0100
0010
0010
2000
,
0000
3200
0000
0320
,
0000
0032
0003
1001
,
0001
0100
1000
0100
,
0001
1000
0001
0010
,
1000
0010
0001
1000
,
0001
1000
0010
0100
,
0001
0100
1000
0100
,
0010
0001
1000
0010
,
0100
0010
1000
0010
,
0100
0001
0100
0020
,
0000
0000
0030
0002
,
0000
0000
0003
0200
,
0000
0000
0000
0000
,
0300
0000
0000
0000
;

//---------------dance-single - ----------------
#NOTES:
     dance-single:
     :
     Medium:
     6:
     0.453,0.420,0.445,0.401,0.000:
0000
0000
0000
2000
,
0100
3100
0000
0000
0010
0000
0002
0000
,
0100
0103
0000
0000
0010
2000
0000
0000
,
0001
3001
0000
0000
1000
0200
0000
0000
,
0010
0310
0000
0000
0100
0000
1001
0000
,
1100
0000
1000
0100
1000
0000
0110
0000
,
0101
0000
0001
0100
0001
0000
0110
0000
,
1100
0000
0010
0100
0010
0000
0011
0000
,
0110
0000
0010
1000
0010
0000
2000
0000
,
3200
0000
1300
0001
1000
0000
0020
0000
,
0230
0000
0301
1000
0001
0000
0200
0000
,
0302
0000
1003
0010
1000
0000
0001
0100
,
0001
0100
0001
0100
0001
0000
2000
0000
,
3100
0011
0101
0002
,
0013
1010
0110
0020
,
1030
0101
1001
1100
,
1001
0000
0110
0000
0100
0200
0000
0000
,
0301
0002
0000
0000
1003
2000
0000
0000
,
3100
0100
0000
0000
0110
0000
1001
0000
,
1000
2000
0000
0000
3100
0200
0000
0000
,
0310
0020
0000
0000
0031
0000
0101
0000
,
1001
0000
1000
0010
1000
0000
0110
0000
,
0101
0000
0010
0100
0010
0000
1100
0000
,
0101
0000
0001
0100
0001
0000
1001
0000
,
0110
0000
1001
0000
0110
0000
1000
0100
,
1000
0000
0002
0000
0103
0000
0010
0100
,
0010
0000
0200
0000
0301
0000
0010
0100
,
0010
0000
0200
0000
1300
0000
0010
0100
,
0001
0000
0010
0100
1000
0000
1000
1000
,
0100
0000
0001
0001
0100
0000
0001
1000
,
0001
0000
1000
0001
1000
0000
0001
1000
,
0100
0000
1000
0001
0100
0000
0010
0100
,
0010
0100
0010
0000
1001
0000
0020
0000
,
0130
0001
0000
0000
1000
0100
0000
0000
,
0100
0010
0000
0000
1001
0000
0200
0000
,
0301
0010
0000
0000
0100
1000
0000
0000
,
0010
0001
0000
0000
0110
0000
0001
0000
,
1000
1100
0000
0000
0001
0101
0000
0000
,
0010
0110
0000
0000
0100
0000
0110
0000
,
0010
0001
0010
0001
0010
0000
0001
1000
,
0001
1000
0001
0000
0100
0000
0010
1000
,
0010
1000
0010
0000
0100
0001
0100
0001
,
0100
0001
0100
0000
0010
0000
2002
0000
,
3003
2200
3300
0202
,
0303
0220
0330
2002
,
0000
0000
3003
0220
,
0000
0330
0001
0200
,
0301
0020
0130
2000
,
3001
0000
0020
0000
0130
0000
1000
0100
,
1000
0000
0011
0000
0101
0000
0001
0100
,
0001
0000
1010
0000
1100
0000
0010
0100
,
0010
0000
0110
0000
0101
0000
0100
0001
,
0100
0000
1100
0000
0101
0000
0010
0100
,
2000
0000
3001
0000
0100
0000
0010
1000
,
0002
0000
0103
0000
0010
0000
1000
0010
,
1000
0000
0001
0010
0001
0000
1000
0001
,
1000
0000
0001
1000
0001
0000
0020
0000
,
0000
0100
0130
2000
,
0000
0001
3001
0220
,
0000
0000
0000
0000
,
0000
0330
0000
0000
;

//---------------dance-double - ----------------
#NOTES:
     dance-double:
     :
     Easy:
     4:
     0.288,0.311,0.087,0.296,0.000:
00000000
00000000
00000000
00001000
,
00010000
00001000
00000000
00010000
,
01000000
10000000
00000000
10000000
,
00010000
10000000
00000000
00010000
,
00000100
00000001
00000000
00000001
,
00000100
00000010
00000000
00000010
,
00001000
00000100
00000000
00000010
,
00001000
00000001
00000000
00000100
,
00000010
00001000
00000000
00020000
,
00031000
01000000
10000000
00200000
,
01300000
01000000
00010000
20000000
,
31000000
00010000
00001000
00000200
,
00000302
00000203
00000302
00000013
,
00001000
00010000
00100000
00010000
,
00001000
00000010
00001000
00010000
,
00100000
10000000
01000000
00100000
,
00010000
10000000
00000000
00020000
,
00000000
02030000
00000000
03200000
,
00000000
00320000
00000000
00032000
,
00000000
00003200
00000000
00000320
,
00000000
00002030
00000000
00003001
,
00000100
00000010
00000110
00001000
,
00010000
01000000
01100000
00100000
,
10000000
01000000
10000000
00010000
,
01000000
00100000
10010000
01000000
,
00010000
00001000
00010000
01000000
,
00010000
00001000
00000100
00001000
,
00010000
01000000
10000000
01010000
,
00101000
00011000
00010100
00000010
,
00000001
00001000
00000100
00000010
,
00001000
00000100
00000010
00010000
,
00001000
01000000
00100000
10000000
,
01000000
00010000
00002000
00000000
,
00003200
00000000
00000320
00000000
,
00002030
00000000
00003200
00000000
,
00020300
00000000
02030000
00000000
,
23000000
00000000
30100000
01000000
,
00020000
00000000
01030000
00001000
,
00020000
00000000
00030100
00001100
,
00000000
00000010
00000000
00000001
,
00000100
00000001
00000000
00001000
,
00000100
00001000
00000100
00010000
,
00001000
00010000
00000000
00002000
,
00000000
02003000
00000000
03200000
,
00000000
00000000
10300000
20000000
,
00000000
00000000
30000000
00010000
,
01000000
00010000
01000000
00100000
,
00000000
10000000
00000000
01000000
,
00000000
00100000
00000000
00010000
,
01000000
00001000
00010000
00000100
,
00001000
00000020
00000130
00000001
,
00001000
00000100
00000010
00000001
,
00001000
00000100
00020000
00031000
,
00100000
00010000
01000000
00100000
,
10000000
01000000
10000000
00010000
,
10010000
01000000
01100000
00010000
,
01000000
00001000
00010000
00000200
,
00000000
00000000
00010300
00020000
,
00000000
00000000
00031000
00002000
,
00000000
00000000
00003000
00000000
;

//---------------dance-double - ----------------
#NOTES:
     dance-double:
     :
     Medium:
     5:
     0.340,0.339,0.113,0.218,0.000:
00000000
00000000
00000000
00000001
,
00000100
00000010
00000000
00000000
00001000
00000000
00000100
00000000
,
00000010
00000001
00000000
00000000
00001000
00000000
00000010
00000000
,
00010000
00001000
00000000
00000000
01000000
00000000
00010000
00000000
,
10000000
01000000
00000000
00000000
00100000
00000000
10010000
00000000
,
01000000
00000000
00100000
10000000
00100000
00000000
01000000
00000000
,
00001000
00000000
00010000
00001000
00010000
00000000
00000100
00000000
,
00001000
00000000
00000010
00000100
00000010
00000000
00000100
00000000
,
00000001
00000000
00001000
00000100
00001000
00000100
00001000
00000000
,
00000001
00000200
00000310
00001000
,
00000100
00000000
00020000
00000000
00031000
01000000
00010000
00000000
,
00100000
02000000
13000000
01100000
,
00010000
00000000
01000000
00100000
01000000
00000000
00001000
00000000
,
00010000
00000000
00000100
00001000
00000200
00000000
00001300
00000000
,
00000010
00000000
00000100
00000000
00000001
00000010
00000002
00000000
,
00001003
00000100
00000010
00000001
,
00000101
00001001
00000000
00000200
,
00000000
00010300
00002000
00000000
00000000
01003000
00020000
00000000
,
00000000
10030000
00100000
00000000
00100000
00000000
20000000
00000000
,
00000000
31000000
00200000
00000000
00000000
00310000
02000000
00000000
,
00000000
03001000
00020000
00000000
00000000
00030100
00001000
00000000
,
00000010
00000000
00000100
00000000
00000001
00001000
00000001
00000000
,
00000010
00000000
00000001
00000000
00001000
00000100
00001000
00000000
,
00000010
00000100
00000001
00001000
,
00000100
00010000
00011000
00001000
,
01000000
00000000
00100000
10000000
00100000
10000000
01000000
00000000
,
00100000
00000000
00010000
01000000
00010000
01000000
00001000
00000000
,
00010000
00000000
00000100
00001000
00000100
00001000
00000010
00000000
,
00000200
00000000
00000301
00001000
,
00001100
00000000
00010000
00000000
00001000
01000000
00010000
00000000
,
00100000
00000000
00010000
00000000
10000000
01000000
10000000
00000000
,
00100000
00000000
01000000
00000000
00010000
01000000
00100000
00000000
,
10000000
01000000
10000000
00020000
,
00100000
10000000
01030000
00002000
,
00010000
00100000
00013000
00000200
,
00000010
00001000
00000310
00000002
,
00000100
00001000
00000013
00001100
,
00000100
00010000
00000000
00001000
01000000
00000000
00010000
00000000
,
00100000
01000000
00000000
10000000
00010000
00000000
01100000
00000000
,
00010000
00000000
01000000
00100000
10000000
00000000
00010000
00000000
,
01000000
00100000
01000000
00001000
,
00010000
00000000
00000100
00001000
00000100
00000000
00001000
00000000
,
00000010
00000100
00000001
00001000
,
00000000
00000100
00000000
00010000
,
00000000
00001000
00000000
00022000
,
00000000
00000000
00000000
00033000
00000000
00000000
01000000
00000000
,
00000000
00010000
00000000
00100000
,
00000000
01000000
00000000
10000000
,
00000000
00010000
00000000
20020000
,
00000000
00000000
00000000
30030000
,
00000000
00000000
00000000
10000000
,
00100000
01000000
00000000
00010000
01000000
00000000
10000000
00000000
,
01000000
00100000
00000000
00010000
01000000
00000000
00001000
00000000
,
00010000
00000100
00000000
00001000
00000100
00000000
00000010
00000000
,
00000001
00000100
00000000
00000010
00001000
00000000
00000100
00000000
,
00001000
00000001
00000000
00000100
00000010
00000000
00001000
00000000
,
00000100
00010100
00011000
02000000
,
00000000
00000000
00000000
03000000
00100000
00000000
00200000
00000000
,
00000000
00000000
00300000
20020000
,
00000000
00000000
00000000
30030000
;

//---------------dance-double - ----------------
#NOTES:
     dance-double:
     :
     Hard:
     8:
     0.488,0.495,0.139,0.279,0.100:
00000000
00000000
00000000
00010000
,
00000100
00000000
00000000
00001000
00000000
00000010
00000100
00000000
00000001
00000000
00001000
00000000
00000100
00000000
00000000
00000000
,
00000010
00000000
00000000
00000001
00000000
00001000
00000100
00000000
00010000
00000000
00001000
00000000
00010000
00000000
00000000
00000000
,
00001000
00000000
00000000
01000000
00000000
00100000
10000000
00000000
01000000
00000000
10000000
00000000
00100000
00000000
00000000
00000000
,
01000000
00000000
00010000
00100000
00001000
00010000
00011000
00000000
,
00010100
00000000
00000000
00000000
00001000
00000000
00000010
00000100
00000000
00000100
00000001
00000000
00001000
00000000
00000000
00000000
,
00000100
00000000
00000000
00000000
00010000
00000000
00001000
01000000
00000000
01000000
00010000
00000000
00100000
00000000
00000000
00000000
,
01000000
00000000
00000000
00000000
10000000
00000000
00010000
01000000
00000000
01000000
00010000
00000000
00100000
00000000
00000000
00000000
,
00010000
01000000
00100000
01000000
01001000
00000000
00010000
00000100
,
00001000
00000010
00000100
00001000
00010000
01000000
00100000
00010000
,
01000000
10000000
01000000
00010000
10000000
00000000
01000000
00100000
,
00010000
01000000
00001000
00010000
00000100
00001000
00000020
00000000
,
00000230
00000000
00000301
00000001
00002000
00000000
00003100
00010000
,
00001000
01000000
00200000
00000000
01300000
00002000
00000000
00013000
,
00000100
00001000
00000020
00000000
00000130
00000002
00000000
00001003
,
00000100
00010000
00001000
00010000
00000000
01000000
00000000
10000000
,
00000000
10010000
00000000
00000000
01000000
00100000
00000000
00000000
,
10000000
00000000
01000000
00100000
00000000
00000000
00000000
00000000
00010000
00000000
00100000
00000000
00000000
00000000
00000000
00000000
,
00001000
00000000
00010000
00000100
00000000
00000000
00001000
00000000
00001100
00000000
00000000
00000000
00000010
00000000
00000000
00000000
,
00000000
00000000
00000100
00000000
00000001
00000000
00000000
00000000
00001000
00000000
00000100
00000010
00000000
00000000
00000000
00000000
,
00000001
00000100
00000000
00000010
00000100
00000000
00000001
00000000
,
00001000
00000000
00000000
00000000
00000100
00000000
00010000
00000000
00001000
00000000
01000000
00100000
10000000
00000000
00000000
00000000
,
00010000
00000000
01000000
00000000
00100000
10000000
01000000
00000000
,
00100000
00010000
00000000
01000000
00100000
00000000
01000000
00010000
,
00100000
00001000
00000100
00000010
00001000
00000000
00000001
00001000
,
00000100
00000000
00000010
00000000
00000001
00000000
00000100
00000010
00001000
00000000
00000001
00000000
00000100
00000000
00000010
00000000
,
00010000
00000000
00001000
00000000
01000000
00000000
00010000
00100000
01000000
00000000
10000000
00000000
00010000
00000000
01000000
00000000
,
00100000
00000000
10000000
00000000
00010000
00000000
01000000
00001000
00010000
00000000
00000100
00000000
00002000
00000000
00000000
00000000
,
00003020
00000000
00000230
00000000
00000302
00000000
00001003
00000100
,
00010000
00000000
00001000
00000000
01000000
00000000
00100000
10000000
00000000
00010000
01000000
00000000
00100000
00000000
10000000
00000000
,
01000000
00000000
00100000
00000000
00010000
00000000
01000000
00001000
00000000
00001000
00010000
00000000
00000100
00000000
00001000
00000000
,
00000010
00000100
00000001
00001000
00000000
00000100
00000000
00000010
,
00000000
00001001
00000000
00000000
00000100
00000020
00000000
00000000
,
00010030
00002000
00000000
00000000
01003000
00020000
00000000
00000000
,
00130000
02000000
00000000
00000000
20000000
03000000
00010000
30000000
,
01000000
00200000
00000000
00000000
10300000
00020000
00000000
00000000
,
01030000
00002000
00000000
00000000
00013000
00000000
00020100
00000000
,
00000100
00030200
00000000
00000000
00001300
00000020
00000000
00000000
,
00000130
00000001
00000000
00001001
00000000
00001100
00000000
00000000
,
00000010
00000001
00000100
00001000
00010000
01000000
00000000
10000000
,
00100000
01000000
00010000
00000000
10010000
00000000
01000000
00100000
,
10000000
01000000
00010000
00001000
00000100
00000001
00000000
00001000
,
00000100
00000010
00000001
00000000
00001100
00000000
00011000
00000000
,
00000000
00000000
00001000
01000000
00000000
00100000
00000000
10000000
,
00000000
00010000
00000000
01000000
00100000
00000000
20200000
00000000
,
00000000
30300000
00000000
00010000
,
00010000
00000000
01000000
00000000
01000000
00010000
00200000
00000000
,
00000000
00302000
00000000
00023000
,
00000000
00000000
00030200
00000000
00000000
00000000
00001300
00000010
,
00000100
00000001
00001000
00000100
00010000
00001000
00100000
00010000
,
01000000
00100000
10000000
01000000
00100000
00000000
00010000
01000000
,
00100000
01000000
00001000
00010000
00000100
00001000
00000010
00000100
,
00000001
00001000
00000100
00001000
00000010
00000000
00000100
00000001
,
00001000
00000100
00000010
00000100
00010000
00001000
01000000
00100000
,
00010000
00100000
10000000
01000000
10000000
00000000
00100000
01000000
,
00010000
00100000
00001000
00010000
00000100
00001000
00000010
00000001
,
00000010
00001000
00000100
00001000
00000001
00000000
00002100
00000000
,
00000010
00003010
00000100
00020100
,
00001000
00031000
00000010
00020020
,
00000000
00000000
00000000
00030030
;
