#TITLE:fffff;
#SUBTITLE:[SPECIAL];
#ARTIST:Five Hammer;
#TITLETRANSLIT:;
#SUBTITLETRANSLIT:;
#ARTISTTRANSLIT:;
#GENRE:;
#CREDIT:;
#MENUCOLOR:;
#METERTYPE:DDR;
#BANNER:fffffS-bn.png;
#BACKGROUND:fffffS-bg.png;
#LYRICSPATH:;
#CDTITLE:currentcdtitle.png;
#MUSIC:fffff [S].mp3;
#OFFSET:-0.189;
#SAMPLESTART:48.900;
#SAMPLELENGTH:13.900;
#SELECTABLE:YES;
#LISTSORT:;
#BPMS:0.000=276.000;
#STOPS:;
#BGCHANGES:;
#ATTACKS:;

//---------------dance-single - ----------------
#NOTES:
     dance-single:
     :
     Challenge:
     12:
     0.963,1.000,0.464,0.039,0.365: // measure 1
0000
0000
0000
0000
,  // measure 2
0000
0000
0000
0000
,  // measure 3
0000
0000
0000
0000
,  // measure 4
0000
0000
0000
1000
,  // measure 5
0000
0110
0000
0101
,  // measure 6
0000
0011
0000
1100
,  // measure 7
0000
1010
0000
1001
,  // measure 8
0000
0110
0000
0001
,  // measure 9
1000
0100
1000
0100
1000
0100
1000
0100
,  // measure 10
0010
0100
0010
0100
0010
0100
0010
0100
,  // measure 11
0001
0100
0001
0100
0001
0100
0001
0100
,  // measure 12
0010
0001
0010
0001
0010
0001
0010
0001
,  // measure 13
1000
0010
1000
0010
1000
0010
1000
0010
,  // measure 14
0100
0010
0100
0010
0100
0010
0100
0010
,  // measure 15
0001
0010
0001
0010
0001
0010
0001
0010
,  // measure 16
1000
0100
0010
0001
2000
0000
0000
0000
,  // measure 17
3001
0100
0001
0100
0001
0100
0001
0100
,  // measure 18
0010
0100
0010
0100
0010
0100
0010
0100
,  // measure 19
1000
0100
1000
0100
1000
0100
1000
0100
,  // measure 20
0010
1000
0010
1000
0010
1000
0010
1000
,  // measure 21
0001
0010
0001
0010
0001
0010
0001
0010
,  // measure 22
0100
0010
0100
0010
0100
0010
0100
0010
,  // measure 23
1000
0010
1000
0010
1000
0010
1000
0010
,  // measure 24
0001
0100
0010
1000
0001
0010
0100
0010
,  // measure 25
0001
0000
1000
0000
0101
0000
0010
1000
,  // measure 26
0100
0010
0001
0000
0110
0000
0100
0000
,  // measure 27
1000
0000
0001
0000
1100
0000
0010
0001
,  // measure 28
0100
0010
1000
0000
0110
0000
0100
0000
,  // measure 29
0001
0000
1000
0000
0011
0000
0100
1000
,  // measure 30
0010
0100
0001
0000
1001
0000
0010
0000
,  // measure 31
1000
0001
1010
0100
,  // measure 32
0001
0010
0100
1000
0002
0000
0000
0000
,  // measure 33
1003
0000
0010
0000
1010
0000
0100
0001
,  // measure 34
0010
0100
1000
0000
0110
0000
0100
0000
,  // measure 35
0001
0000
0010
0000
0011
0000
0100
1000
,  // measure 36
0010
0100
0001
0000
0110
0000
0010
0000
,  // measure 37
1000
0000
0100
0000
1100
0000
0010
0001
,  // measure 38
0100
0010
1000
0000
1001
0000
0010
0000
,  // measure 39
0001
0100
0101
0010
,  // measure 40
1010
0000
0000
0011
0000
0000
0110
0000
,  // measure 41
1001
1000
0010
0100
,  // measure 42
0001
0000
0010
0001
0000
0001
0100
0010
,  // measure 43
1000
0100
0010
0001
,  // measure 44
0100
0001
0010
0100
0000
1000
0000
0001
,  // measure 45
0000
0100
0010
0100
,  // measure 46
0001
0000
0000
0010
0000
0000
0100
0000
,  // measure 47
1000
0100
0010
0100
0010
0001
0010
0001
0010
0100
1000
0100
,  // measure 48
1000
0000
1000
0001
0000
0001
0100
0000
,  // measure 49
0000
0001
0010
0100
,  // measure 50
1000
0000
0010
1000
0000
1000
0100
0010
,  // measure 51
0001
0100
0010
1000
,  // measure 52
0100
1000
0010
0100
0000
0001
0000
1000
,  // measure 53
0000
0100
0010
0100
,  // measure 54
1000
0000
0000
0010
0000
0000
0100
0000
,  // measure 55
0001
0100
0010
0100
0010
1000
0010
1000
0010
0100
0000
0000
,  // measure 56
0000
0000
0101
0000
0000
1001
0000
0001
,  // measure 57
0100
0000
0101
0000
0100
0000
0100
0010
,  // measure 58
1000
0010
0000
0100
0000
0001
0100
0000
,  // measure 59
1000
0000
0100
0010
0000
0010
0100
0000
,  // measure 60
0001
0000
1000
0100
0000
0100
0001
0000
,  // measure 61
0100
1100
0100
0110
,  // measure 62
1000
0000
0010
0100
0000
0100
1000
0000
,  // measure 63
0100
0000
0001
0100
0000
0100
0010
0000
,  // measure 64
1000
0000
0010
0100
0000
0100
0001
0000
,  // measure 65
0010
0011
0010
0110
,  // measure 66
0100
0000
1000
0010
0000
0010
0001
0000
,  // measure 67
0010
0000
0100
0010
0000
0010
1000
0000
,  // measure 68
0001
0000
0100
0010
0000
0010
1000
0000
,  // measure 69
0010
1010
0010
0110
,  // measure 70
0100
0000
0001
0010
0000
0010
0100
0000
,  // measure 71
1000
0000
0100
0010
0000
0010
1000
0000
,  // measure 72
0010
0000
0100
0010
0002
0000
1000
0000
,  // measure 73
0003
1001
0001
0011
,  // measure 74
0100
0010
0000
0001
0000
0100
0010
0000
,  // measure 75
1000
0000
0100
1000
0010
0100
0000
0001
,  // measure 76
0000
0010
0000
0001
0000
0100
0010
0000
,  // measure 77
1000
0000
0001
0010
0100
0010
0000
0001
,  // measure 78
0000
0100
0000
0010
0000
1000
0100
0010
,  // measure 79
0001
0100
0000
0010
0000
1000
0000
1000
,  // measure 80
0001
0101
0010
0000
,  // measure 81
1000
0100
1000
0100
1000
0100
1000
0100
1000
0100
1000
0100
,  // measure 82
1000
0000
0100
0000
1000
0000
0100
0000
1000
0000
0100
0000
1000
0000
0100
0000
1000
0000
0001
0000
0000
1000
0000
0000
,  // measure 83
0001
0100
0001
0100
0001
0100
0001
0100
0001
0100
0001
0100
,  // measure 84
0001
0000
0100
0000
0001
0000
0100
0000
0001
0000
0100
0000
0001
0000
0100
0000
0001
0000
1000
0000
0000
0001
0000
0000
,  // measure 85
1000
0001
1000
0001
1000
0001
1000
0001
1000
0001
1000
0001
,  // measure 86
1000
0001
1000
0001
0000
0000
0100
0000
0000
0010
0000
0000
,  // measure 87
1010
0000
0011
0000
,  // measure 88
0101
0000
1100
0000
,  // measure 89
0001
0100
0010
1000
0100
0010
0001
0100
,  // measure 90
0010
1000
0100
0010
0001
0100
0001
0100
,  // measure 91
0010
1000
0100
0010
0001
0100
0010
1000
,  // measure 92
0100
0000
0000
0010
0000
0000
0001
0000
0000
0100
0000
0000
0010
0000
1000
0000
0010
0000
1000
0000
0000
0000
0000
0000
,  // measure 93
0001
0000
0010
0000
0100
0000
0001
0000
0100
0000
1000
0000
,  // measure 94
0010
0000
0100
0000
1000
0000
0100
0000
0001
0000
0010
0000
,  // measure 95
0100
0000
0010
0000
0001
0000
1000
0000
0100
0000
0001
0000
,  // measure 96
1000
0000
0010
0000
0100
0000
0000
0000
0000
0100
0000
0000
,  // measure 97
1000
0010
0100
0001
0010
0100
1000
0010
,  // measure 98
0100
0001
0010
0100
1000
0010
1000
0010
,  // measure 99
0100
0000
0001
0000
0010
0000
1000
0000
0010
0000
0001
0000
,  // measure 100
0100
0000
0100
0010
0000
0010
1000
0000
,  // measure 101
0101
0000
0000
0000
0000
0000
1000
0100
1000
0100
0000
0000
,  // measure 102
0000
0010
0001
0100
,  // measure 103
0011
0000
1010
0000
,  // measure 104
1100
0000
0101
0000
,  // measure 105
0001
0100
0001
0100
0001
0100
0001
0100
,  // measure 106
0010
0100
0010
0100
0010
0100
0010
0100
,  // measure 107
1000
0100
1000
0100
1000
0100
1000
0100
,  // measure 108
0010
1000
0010
1000
0010
1000
0010
1000
,  // measure 109
0001
0100
0010
1000
0010
0100
0001
1000
,  // measure 110
0001
0010
0100
1000
0100
0010
0001
1000
,  // measure 111
0001
0100
1000
0100
0001
0100
1000
0100
,  // measure 112
0010
0001
0010
1000
0010
0001
0020
1000
,  // measure 113
0000
0000
0030
1001
,  // measure 114
0000
0000
0100
0000
;

//---------------dance-double - ----------------
#NOTES:
     dance-double:
     :
     Challenge:
     12:
     0.939,1.000,0.563,0.030,0.365:
00000000
00000000
00000000
00000000
,
00000000
00000000
00000000
00000000
,
00000000
00000000
00000000
00000000
,
00000000
00000000
00000000
00000010
,
00000000
00000101
00000000
00001100
,
00000000
00110000
00000000
11000000
,
00000000
01010000
00000000
00001100
,
00000000
00000110
00000000
00000001
,
00001000
00000100
00001000
00000100
00001000
00000100
00001000
00000100
,
00000010
00000100
00000010
00000100
00000010
00000100
00000010
00000100
,
00000001
00000100
00000001
00000100
00000001
00000100
00000001
00000100
,
00010000
00001000
00010000
00001000
00010000
00001000
00010000
00001000
,
00000010
00000001
00000010
00000001
00000010
00000001
00000010
00000001
,
00000100
00000010
00000100
00000010
00000100
00000010
00000100
00000010
,
00010000
00001000
00010000
00001000
00010000
00001000
00010000
00001000
,
01000000
00100000
10000000
00010000
00200000
00000000
00000000
00000000
,
00310000
01000000
00010000
01000000
00010000
01000000
00010000
01000000
,
00100000
01000000
00100000
01000000
00100000
01000000
00100000
01000000
,
10000000
01000000
10000000
01000000
10000000
01000000
10000000
01000000
,
00001000
00010000
00001000
00010000
00001000
00010000
00001000
00010000
,
00100000
10000000
00100000
10000000
00100000
10000000
00100000
10000000
,
01000000
00100000
01000000
00100000
01000000
00100000
01000000
00100000
,
00001000
00010000
00001000
00010000
00001000
00010000
00001000
00010000
,
00000100
00001000
00000010
00000100
00000001
00001000
00000100
00000010
,
00000001
00000100
00000101
00000010
,
00010000
00001000
01010000
00100000
,
10000000
00010000
00101000
00010000
,
00000010
00001000
00010100
00001000
,
01000000
00100000
10010000
01000000
,
00001000
00100000
00011000
00010000
,
00000100
00000010
00001001
00000100
,
00001000
00000010
00010000
00001000
01000000
00010000
01000000
00100000
,
10000000
01000000
11000000
00100000
,
00001000
00010000
00001100
00000010
,
00000001
00001000
00010100
00001000
,
00100000
00010000
01001000
00010000
,
00000100
00000010
00001001
00000100
,
00010000
00000010
00011000
00001000
,
01000000
00100000
10010000
01000000
,
01100000
00000000
00000000
00011000
00000000
00000000
00000110
00000000
,
00001001
00000100
00000010
00010000
,
00001000
00000000
00000000
00000110
00000000
00000000
00001000
00000000
,
00010000
01000000
00100000
00010000
,
10000000
00100000
01000000
00010000
00000000
00100000
00000000
00100000
,
00000000
00001000
00010000
00000010
,
00000100
00000000
00000000
00001100
00000000
00000000
00000100
00000000
,
00000001
00000010
00000001
00000010
00000100
00000010
00000100
00001000
00000100
00001000
00000100
00000010
,
00000001
00000000
00000000
00001000
00000000
00000000
00000110
00000000
,
00000000
00010000
01000000
00100000
,
00001000
00000000
00000000
01100000
00000000
00000000
00001000
00000000
,
00000100
00000010
00001000
00001000
,
00000001
00000100
00000010
00001000
00000000
00000100
00000000
00000100
,
00000000
00010000
00001000
01000000
,
00100000
00000000
00000000
00110000
00000000
00000000
00100000
00000000
,
10000000
01000000
10000000
01000000
00100000
01000000
00100000
00010000
00100000
00010000
00000000
00000000
,
00000000
00000000
01000000
00000000
00000000
00001000
00000000
00000000
,
00011000
00010100
00011000
00010100
,
00001000
00000000
00000010
00000100
00000000
00000100
00000001
00000000
,
00000010
00000000
00000100
00001000
00000000
00001000
00000010
00000000
,
00010000
00000000
00001000
00000010
00000000
00000010
00001000
00000000
,
00011000
01001000
00011000
01001000
,
00010000
00000000
01000000
00100000
00000000
00100000
10000000
00000000
,
01000000
00000000
00100000
00010000
00000000
00010000
01000000
00000000
,
00001000
00000000
00010000
01000000
00000000
01000000
00010000
00000000
,
00011000
00101000
00011000
00101000
,
00010000
00000000
01000000
00100000
00000000
00100000
10000000
00000000
,
01000000
00000000
00100000
00010000
00000000
00010000
01000000
00000000
,
00001000
00000000
00010000
01000000
00000000
01000000
00010000
00000000
,
00011000
00010010
00011000
00010010
,
00001000
00000000
00000010
00000100
00000000
00000100
00000001
00000000
,
00000010
00000000
00000100
00001000
00000000
00001000
00000010
00000000
,
00010000
00000000
00001000
00000010
00000002
00000000
00000100
00000000
,
00000003
00001000
00001000
00001000
,
00000010
00000100
00000000
00000001
00000000
00000001
00001000
00000000
,
00000010
00000000
00010000
00001000
00010000
00001000
00000000
00000010
,
00000000
00000100
00000000
00010000
00000000
00001000
01000000
00000000
,
00100000
00000000
10000000
00010000
10000000
00010000
00000000
00100000
,
00000000
00001000
00000000
00010000
00000000
01000000
00100000
01000000
,
00100000
00001000
00000000
00000010
00000000
00000100
00000000
00000010
,
00000001
00001000
00001001
00000000
,
00000001
00000010
00000001
00000010
00000001
00000010
00000001
00000010
00000001
00000010
00000001
00000010
,
00000001
00000000
00000010
00000000
00000001
00000000
00000010
00000000
00000001
00000000
00000010
00000000
00000001
00000000
00000010
00000000
00000001
00000000
00000010
00000000
00000000
00000100
00000000
00000000
,
00010000
00001000
00010000
00001000
00010000
00001000
00010000
00001000
00010000
00001000
00010000
00001000
,
00010000
00000000
00001000
00000000
00010000
00000000
00001000
00000000
00010000
00000000
00001000
00000000
00010000
00000000
00001000
00000000
00010000
00000000
00001000
00000000
00000000
00100000
00000000
00000000
,
01000000
10000000
01000000
10000000
01000000
10000000
01000000
10000000
01000000
10000000
01000000
10000000
,
01000000
10000000
01000000
10000000
00000000
00000000
00010000
00000000
00000000
01000000
00000000
00000000
,
00011000
00000000
00000110
00000000
,
00011000
00000000
01100000
00000000
,
10000000
01000000
00100000
00010000
01000000
00100000
10000000
01000000
,
00100000
00010000
01000000
00100000
10000000
01000000
00100000
00001000
,
00010000
00000100
00001000
00000010
00010000
00001000
00100000
00010000
,
01000000
00000000
00000000
00001000
00000000
00000000
00010000
00000000
00000000
00000010
00000000
00000000
00000100
00000000
00000010
00000000
00000100
00000000
00000010
00000000
00000000
00000000
00000000
00000000
,
00001000
00000000
00000100
00000000
00000001
00000000
00001000
00000000
00000010
00000000
00001000
00000000
,
00010000
00000000
01000000
00000000
00100000
00000000
00010000
00000000
01000000
00000000
10000000
00000000
,
00010000
00000000
00100000
00000000
00010000
00000000
00001000
00000000
00000100
00000000
00000010
00000000
,
00001000
00000000
00000100
00000000
00000010
00000000
00000000
00000000
00000000
00000000
00000000
00000000
,
00000001
00000100
00000010
00001000
00000100
00000010
00000001
00000100
,
00000010
00001000
00000100
00000010
00000001
00000100
00000010
00010000
,
00001000
00000000
01000000
00000000
00100000
00000000
00010000
00000000
00001000
00000000
00000100
00000000
,
00000010
00000000
00000000
00010000
00000000
00000000
00011000
00000000
,
00000000
00000000
00000000
00000000
00000000
00000000
01000000
00100000
01000000
00100000
00000000
00000000
,
00000000
00000000
00001000
00100000
,
00011000
00000000
00000110
00000000
,
00011000
00000000
11000000
00000000
,
00010000
00100000
00010000
00100000
00010000
00100000
00010000
00100000
,
01000000
00100000
01000000
00100000
01000000
00100000
01000000
00100000
,
10000000
00100000
10000000
00100000
10000000
00100000
10000000
00100000
,
00001000
00010000
00001000
00010000
00001000
00010000
00001000
00010000
,
00000100
00000010
00000001
00000010
00000100
00001000
00000010
00000100
,
00000010
00000100
00000001
00000100
00000010
00001000
00000010
00000100
,
00000001
00000010
00001000
00010000
01000000
10000000
00100000
00000000
,
10000000
01000000
00010000
00001000
00000010
00000001
00000200
00000000
,
00000000
00000000
00000300
00001001
,
00000000
00000000
00000100
00000000
;
