#TITLE:do i smile?;
#SUBTITLE:;
#ARTIST:t+pazolite;
#TITLETRANSLIT:;
#SUBTITLETRANSLIT:;
#ARTISTTRANSLIT:;
#GENRE:;
#CREDIT:;
#MENUCOLOR:;
#METERTYPE:DDR;
#BANNER:do i smile-bn.png;
#BACKGROUND:do i smile-bg.png;
#LYRICSPATH:;
#CDTITLE:ddrencorecdtitle.png;
#MUSIC:do i smile.mp3;
#OFFSET:-0.027;
#SAMPLESTART:14.806;
#SAMPLELENGTH:14.769;
#SELECTABLE:YES;
#LISTSORT:;
#DISPLAYBPM:260.000;
#BPMS:0.000=130.000,32.000=260.000;
#STOPS:;
#BGCHANGES:;
#ATTACKS:;

//---------------dance-single - Blank----------------
#NOTES:
     dance-single:
     Blank:
     Hard:
     10:
     0.722,0.877,0.586,0.045,0.063: // measure 1
0000
0000
0000
0000
,  // measure 2
0000
0000
0000
0000
,  // measure 3
0000
0000
0000
0000
,  // measure 4
0000
0000
0000
0000
,  // measure 5
1001
0001
0010
0100
,  // measure 6
1001
1000
0100
0010
,  // measure 7
1001
0001
1001
1000
,  // measure 8
1001
0000
0000
0000
0000
0000
0000
0000
0110
0000
0000
0000
0000
0000
0000
0000
0002
0000
0000
0000
0000
0000
0000
0003
0001
0000
0100
0000
0010
0000
1000
0000
,  // measure 9
1001
0001
0010
0100
,  // measure 10
1000
0000
0100
0000
0010
0000
0001
1000
,  // measure 11
0010
0000
1000
0000
0001
0000
0000
0000
0100
0000
0000
0010
0000
0000
0100
0000
,  // measure 12
0001
1000
0100
1000
0100
0010
0001
0100
,  // measure 13
0010
1000
0100
1000
,  // measure 14
0001
0000
0100
0000
0010
0000
1000
0001
,  // measure 15
0010
0000
0001
0000
0100
0000
0000
0000
0010
0000
0000
1000
0000
0000
0001
0000
,  // measure 16
1000
0100
0010
0100
0010
0001
1000
0010
,  // measure 17
0110
0100
0001
1000
,  // measure 18
0100
0000
0010
0000
0100
0000
1000
0001
,  // measure 19
0100
0000
0010
0000
1000
0000
0000
0000
0001
0000
0000
0010
0000
0000
0001
0000
,  // measure 20
1000
0010
0100
0010
0100
0001
1000
0100
,  // measure 21
0010
0001
0010
0100
,  // measure 22
1000
0000
0001
0000
0100
0000
0010
1000
,  // measure 23
0010
0000
0100
0000
0001
0000
0000
0000
1000
0000
0000
0100
0000
0000
1000
0000
,  // measure 24
0002
0000
0000
0000
0000
0000
0000
0003
0001
0000
0100
0000
0010
0000
1000
0000
,  // measure 25
1001
0001
0101
0100
,  // measure 26
0110
0000
0010
0000
1000
0100
0010
0001
,  // measure 27
0011
0100
1100
1000
,  // measure 28
1001
0001
0101
0110
,  // measure 29
1010
0010
0110
0100
,  // measure 30
0101
0000
0001
0000
1000
0010
0100
0001
,  // measure 31
0101
0001
1001
1000
,  // measure 32
1100
0000
1001
0000
0000
0101
0000
0000
,  // measure 33
0110
0000
0010
0000
1000
0000
0001
0010
,  // measure 34
0100
0010
0001
1000
0100
0000
0010
0100
,  // measure 35
1000
0001
0101
0100
,  // measure 36
1001
0000
0000
0000
,  // measure 37
1010
0000
0010
0000
0100
0000
0001
0010
,  // measure 38
0100
1000
0001
0100
0010
0000
1000
0001
,  // measure 39
0010
0100
1100
1000
,  // measure 40
1001
0000
0000
0001
0100
0010
1000
0001
,  // measure 41
0101
0100
0010
1000
,  // measure 42
0001
0000
0010
0100
0010
0100
1000
0001
,  // measure 43
0100
0010
0100
0001
,  // measure 44
1000
0000
0001
0010
0001
0010
0100
1000
,  // measure 45
1001
0001
0100
0010
,  // measure 46
1000
0000
0001
0100
0001
0100
0010
1000
,  // measure 47
0001
0010
0100
1000
,  // measure 48
0010
0000
0100
0001
0100
0001
1000
0100
,  // measure 49
0110
0010
0001
1000
,  // measure 50
0010
0000
0100
0001
0100
0001
1000
0100
,  // measure 51
0110
0010
0001
1000
,  // measure 52
0010
0000
1000
0001
1000
0001
0010
0100
,  // measure 53
1100
1000
0001
0100
,  // measure 54
0110
0000
0010
1000
0010
1000
0001
0100
,  // measure 55
0110
0000
0000
1010
0000
0000
1001
0000
,  // measure 56
0011
0000
0000
0000
0001
0010
0100
1000
,  // measure 57
1001
0001
0100
0010
,  // measure 58
1000
0000
0100
0000
0010
0000
1000
0010
,  // measure 59
0100
0000
1000
0000
0001
0000
0000
0000
0100
0000
0000
1000
0000
0000
0100
0000
,  // measure 60
0010
1000
0001
1000
0001
0010
0100
1000
,  // measure 61
1001
0001
0100
0001
,  // measure 62
0100
0000
0010
0000
0100
0000
1000
0100
,  // measure 63
0010
0000
0100
0000
0001
0000
0000
0000
0010
0000
0000
1000
0000
0000
0010
0000
,  // measure 64
0100
1000
0001
1000
0001
0100
0010
1000
,  // measure 65
1010
0010
0100
0001
,  // measure 66
1000
0000
0100
0000
0010
0000
1000
0010
,  // measure 67
0100
0000
1000
0000
0001
0000
0000
0000
0010
0000
0000
1000
0000
0000
0010
0000
,  // measure 68
0001
1000
0010
1000
0010
0100
0001
1000
,  // measure 69
0010
0100
0001
1000
,  // measure 70
0100
0000
0010
0000
0100
0000
0001
0100
,  // measure 71
0010
0000
0001
0000
0100
0000
0000
0000
0010
0000
0000
0001
0000
0000
0010
0000
,  // measure 72
1000
0000
0000
0010
0000
0100
0001
1000
,  // measure 73
1001
0001
0101
0100
,  // measure 74
0110
0010
1010
1000
,  // measure 75
1001
0001
0011
0010
,  // measure 76
0110
0100
1100
0011
,  // measure 77
1100
0000
1000
0000
,  // measure 78
0001
0000
0100
0000
,  // measure 79
1010
0000
0010
0000
,  // measure 80
0110
0000
0101
0000
0000
1001
0000
0000
,  // measure 81
1100
0000
0100
0000
,  // measure 82
0010
0000
0001
0000
,  // measure 83
1000
0000
0010
0000
,  // measure 84
0100
0000
0001
0000
,  // measure 85
1001
0000
0001
0000
,  // measure 86
0010
0000
0001
0000
,  // measure 87
1000
0000
0010
0000
,  // measure 88
0210
0000
0000
0000
0000
0000
0000
0300
0100
0000
0001
0000
1000
0000
0010
0000
,  // measure 89
0110
0100
0001
0010
,  // measure 90
0100
0000
1000
0000
0100
0000
0001
0100
,  // measure 91
0010
0000
0001
0000
0100
0000
0000
0000
0010
0000
0000
0001
0000
0000
0010
0000
,  // measure 92
0100
0001
1000
0001
1000
0100
0010
0001
,  // measure 93
0011
0010
0100
1000
,  // measure 94
0001
0000
0100
0000
0010
0000
0001
0010
,  // measure 95
0100
0000
0001
0000
1000
0000
0000
0000
0100
0000
0000
0001
0000
0000
0100
0000
,  // measure 96
1000
0001
0100
0001
0100
0010
1000
0001
,  // measure 97
1001
1000
0010
0100
,  // measure 98
0001
0000
0010
0000
0100
0000
0001
0100
,  // measure 99
1000
0000
0001
0000
0100
0000
0000
0000
0010
0000
0000
0001
0000
0000
0010
0000
,  // measure 100
0100
0001
1000
0001
1000
0010
0100
0001
,  // measure 101
1001
1000
0010
1000
,  // measure 102
0001
0000
0100
0000
0010
0000
0001
0010
,  // measure 103
1000
0000
0001
0000
0010
0000
0000
0000
0100
0000
0000
0001
0000
0000
0100
0000
,  // measure 104
1000
0000
0000
0000
0010
0010
0010
0100
,  // measure 105
2002
0000
0000
0000
,  // measure 106
0000
0000
0000
0000
,  // measure 107
0000
0000
0000
0000
,  // measure 108
0000
0000
0000
0000
,  // measure 109
3003
0000
0000
0000
;

//---------------dance-single - Blank----------------
#NOTES:
     dance-single:
     Blank:
     Medium:
     8:
     0.504,0.585,0.379,0.054,0.000:
0000
0000
0000
0000
,
0000
0000
0000
0000
,
0000
0000
0000
0000
,
0000
0000
0000
0000
,
0000
0000
0000
0000
,
0000
0000
0000
0000
,
0000
0000
0000
0000
,
0000
0000
0000
0000
,
1000
0001
0100
0001
,
1000
0000
0100
0000
0010
0000
0100
1000
,
0100
1000
0001
0100
,
0010
1000
0010
0000
0100
0000
0001
0000
,
1000
0100
0010
0100
,
1000
0000
0001
0000
0100
0000
0010
1000
,
0010
0100
0001
1000
,
0001
1000
0001
0000
0010
0000
0100
0000
,
1100
0100
0010
0001
,
1000
0000
0010
0000
0100
0000
0001
1000
,
0001
0100
0010
1000
,
0001
0010
0001
0000
0010
0000
0100
0000
,
0010
0001
1000
0010
,
0100
0000
0010
0000
1000
0000
0001
0010
,
0001
1000
0001
0100
,
0020
0000
1000
0130
,
0001
0000
1000
0000
,
0100
0000
1000
0000
,
0001
0000
0100
0000
,
0010
0000
1000
0001
,
1000
0000
0100
0000
,
1000
0000
0001
0000
,
0100
0000
0010
0000
,
1000
0000
0010
0000
0000
0100
0000
0000
,
0101
0001
1000
0000
,
1100
0100
0010
0000
,
0011
0000
1001
0000
,
1010
0000
0000
0000
,
0110
0100
0001
0000
,
1001
1000
0100
0000
,
0011
0000
0110
0000
,
1100
0000
0000
1000
0001
0000
0100
0000
,
0110
0010
1000
0001
,
0010
0001
0100
0010
,
1000
0001
0100
0010
,
0100
0001
0010
0000
,
0110
0100
1000
0001
,
0100
0001
1000
0010
,
0100
0001
0010
0100
,
1000
0001
0100
0100
,
0110
0010
1000
0010
,
0100
0001
1000
0000
,
1100
0100
0010
0001
,
1000
0001
0100
0100
,
0101
0000
0001
0000
,
1100
0000
0100
0000
,
0011
0000
0000
1001
0000
0000
1000
0000
,
1020
0000
0130
0001
,
1001
1000
0100
0010
,
0001
0000
1000
0000
0010
0000
0100
0001
,
0100
0010
1000
0001
,
0010
0100
0010
0000
0100
0000
1000
0000
,
0001
0100
0010
1000
,
0001
0000
0010
0000
0100
0000
1000
0100
,
1000
0001
0100
0010
,
1000
0001
1000
0000
0010
0000
0100
0000
,
0110
0100
0001
1000
,
0001
0000
0100
0000
0010
0000
1000
0010
,
1000
0010
0100
0001
,
1000
0001
1000
0000
0100
0000
0010
0000
,
0001
0010
0100
1000
,
0001
0000
0100
0000
0010
0000
0100
0001
,
0100
0001
1000
0100
,
0120
0000
0130
1000
,
1001
0000
0101
0000
,
0110
0000
1010
0000
,
1001
0000
1100
0000
,
0110
0000
1100
1100
,
1001
0000
0001
0000
,
0100
0000
0001
0000
,
1001
0000
1000
0000
,
0100
0000
0110
0000
0000
0011
0000
0000
,
1001
0000
0010
0000
,
0100
0000
0010
0000
,
1000
0000
0100
0000
,
0010
0000
0100
0000
,
1001
0000
0010
0000
,
0100
0000
0010
0000
,
1000
0000
0100
0000
,
0120
0000
0100
0031
,
1001
1000
0010
0100
,
0001
0000
0010
0000
0100
0000
1000
0100
,
1000
0100
0010
0001
,
1000
0001
1000
0000
0010
0000
0100
0000
,
0001
1000
0100
0010
,
0100
0000
0010
0000
0001
0000
1000
0010
,
1000
0010
0100
0001
,
1000
0001
1000
0000
0100
0000
0010
0000
,
0011
0010
0100
1000
,
0001
0000
0100
0000
0010
0000
1000
0001
,
1000
0001
1000
0000
0010
0000
0100
0000
,
0001
1000
0001
0000
1000
0000
0100
0000
,
0010
0001
1000
0010
,
0100
0000
0010
0000
1000
0000
0001
0100
,
0001
0100
0001
0000
0100
0000
0010
0000
,
1000
0000
0100
0100
,
0220
0000
0000
0000
,
0000
0000
0000
0000
,
0000
0000
0000
0000
,
0000
0000
0000
0000
,
0330
0000
0000
0000
;

//---------------dance-single - Blank----------------
#NOTES:
     dance-single:
     Blank:
     Easy:
     5:
     0.296,0.390,0.027,0.045,0.000:
0000
0000
0000
0000
,
0000
0000
0000
0000
,
0000
0000
0000
0000
,
0000
0000
0000
0000
,
0000
0000
0000
0000
,
0000
0000
0000
0000
,
0000
0000
0000
0000
,
0000
0000
0000
0000
,
1000
0000
0001
0000
,
1000
0000
0010
0000
,
0100
0000
0010
0000
,
1000
0001
0010
0001
,
1000
0000
0001
0000
,
0100
0000
0010
0000
,
0100
0000
0001
0000
,
1000
0100
0010
0100
,
1000
0000
0001
0000
,
0100
0000
0010
0000
,
1000
0000
0001
0000
,
0010
0100
0010
0001
,
1000
0000
0001
0000
,
0100
0000
0010
0000
,
1000
0000
0001
0000
,
2001
0000
0001
3001
,
0001
0000
0100
0000
,
0010
0000
1000
0000
,
0001
0000
0010
0000
,
0100
0000
1000
0100
,
1000
0000
0001
0000
,
1000
0000
0001
0000
,
0100
0000
0010
0000
,
1000
1000
0000
0000
,
0100
0000
0010
0000
,
0100
0000
1000
0000
,
0001
1000
0001
1000
,
0001
0000
0000
0000
,
0100
0000
0010
0000
,
0100
0000
0001
0000
,
1000
0100
1000
0100
,
1000
0000
0001
0100
,
0010
0000
0100
0000
,
0010
0000
1000
0000
,
0001
0000
0010
0000
,
0100
0000
0010
0000
,
0001
0000
1000
0000
,
0010
0000
1000
0000
,
0001
0000
0010
0000
,
0100
0000
1000
0001
,
1000
0000
0010
0000
,
1000
0000
0100
0000
,
0010
0000
0001
0000
,
1000
0000
0010
0100
,
0010
0000
0100
0000
,
0001
0000
1000
0000
,
0001
0000
0000
0010
,
0100
0000
1000
1000
,
0001
0000
0100
0000
,
0010
0000
0100
0000
,
0001
0000
1000
0000
,
0100
0010
0100
1000
,
0001
0000
1000
0000
,
0010
0000
0100
0000
,
0001
0000
0010
0000
,
0100
0010
0001
0010
,
0100
0000
1000
0000
,
0001
0000
0100
0000
,
0010
0000
1000
0000
,
0001
0010
0100
0010
,
0001
0000
1000
0000
,
0001
0000
0100
0000
,
0010
0000
1000
0000
,
0002
0000
0000
0000
,
0013
0000
0100
0000
,
1000
0000
0001
0000
,
0100
0000
0010
0000
,
1000
0000
0001
1000
,
0010
0000
0100
0000
,
0010
0000
1000
0000
,
0001
0000
0100
0000
,
0001
1000
0000
0000
,
0010
0000
0100
0000
,
0010
0000
0100
0000
,
0010
0000
0100
0000
,
0010
0000
0100
0000
,
0001
0000
1000
0000
,
0001
0000
1000
0000
,
0001
0000
1000
0000
,
2100
0000
0100
3100
,
0010
0000
0001
0000
,
1000
0000
0010
0000
,
0100
0000
0010
0000
,
1000
0001
0010
0100
,
1000
0000
0001
0000
,
0100
0000
0001
0000
,
1000
0000
0010
0000
,
0100
0001
1000
0100
,
0010
0000
0001
0000
,
0010
0000
0100
0000
,
1000
0000
0001
0000
,
0100
0010
1000
0001
,
0010
0000
0100
0000
,
0010
0000
0001
0000
,
1000
0000
0001
0000
,
0100
0000
0010
0010
,
2002
0000
0000
0000
,
0000
0000
0000
0000
,
0000
0000
0000
0000
,
0000
0000
0000
0000
,
3003
0000
0000
0000
;

//---------------dance-single - Blank----------------
#NOTES:
     dance-single:
     Blank:
     Beginner:
     2:
     0.184,0.235,0.009,0.036,0.000:
0000
0000
0000
0000
,
0000
0000
0000
0000
,
0000
0000
0000
0000
,
0000
0000
0000
0000
,
0000
0000
0000
0000
,
0000
0000
0000
0000
,
0000
0000
0000
0000
,
0000
0000
0000
0000
,
1000
0000
0000
0000
,
0010
0000
0000
0000
,
1000
0000
0001
0000
,
1000
0000
0100
0000
,
1000
0000
0000
0000
,
0010
0000
0000
0000
,
0100
0000
0001
0000
,
0100
0000
0010
0000
,
1000
0000
0000
0000
,
0001
0000
0000
0000
,
0010
0000
0100
0000
,
0010
0000
0001
0000
,
1000
0000
0000
0000
,
0010
0000
0000
0000
,
0100
0000
0010
0000
,
2000
0000
3000
0000
,
0001
0000
0001
0000
,
1000
0000
1000
0000
,
0100
0000
0100
0000
,
0010
0000
0000
0000
,
0001
0000
0001
0000
,
1000
0000
1000
0000
,
0001
0000
0001
0000
,
0100
0000
0000
0000
,
0010
0000
0100
0000
,
0010
0000
0100
0000
,
0001
0000
1000
0000
,
0001
0000
0000
0000
,
1000
0000
0100
0000
,
1000
0000
0100
0000
,
1000
0000
0001
0000
,
1000
0000
0010
0000
,
0100
0000
0000
0000
,
0010
0000
0000
0000
,
0100
0000
0000
0000
,
0001
0000
0000
0000
,
1000
0000
0000
0000
,
0100
0000
0000
0000
,
0010
0000
0000
0000
,
0100
0000
0100
0000
,
1000
0000
0000
0000
,
0001
0000
0000
0000
,
0100
0000
0000
0000
,
0010
0000
0010
0000
,
0100
0000
0000
0000
,
0001
0000
0000
0000
,
1000
0000
1000
0000
,
0200
0000
0300
0000
,
0010
0000
0000
0000
,
0001
0000
0000
0000
,
1000
0000
0010
0000
,
1000
0000
0001
0000
,
0100
0000
0000
0000
,
0010
0000
0000
0000
,
0100
0000
0001
0000
,
1000
0000
0100
0000
,
0010
0000
0000
0000
,
0100
0000
0000
0000
,
1000
0000
0001
0000
,
0100
0000
0001
0000
,
0010
0000
0000
0000
,
0100
0000
0000
0000
,
1000
0000
0001
0000
,
0200
0000
0300
0000
,
0010
0000
0010
0000
,
1000
0000
1000
0000
,
0100
0000
0100
0000
,
0010
0000
0000
0000
,
0001
0000
0000
0000
,
1000
0000
0000
0000
,
0001
0000
0000
0000
,
0100
0000
0100
0000
,
0010
0000
0000
0000
,
1000
0000
0000
0000
,
0100
0000
0000
0000
,
1000
0000
0000
0000
,
0001
0000
0000
0000
,
0100
0000
0000
0000
,
0010
0000
0000
0000
,
2000
0000
3000
0000
,
0001
0000
0000
0000
,
0010
0000
0000
0000
,
0001
0000
1000
0000
,
0010
0000
0100
0000
,
0001
0000
0000
0000
,
0100
0000
0000
0000
,
0010
0000
1000
0000
,
0001
0000
0010
0000
,
0100
0000
0000
0000
,
1000
0000
0000
0000
,
0100
0000
0010
0000
,
0001
0000
1000
0000
,
0010
0000
0000
0000
,
0100
0000
0000
0000
,
0010
0000
1000
0000
,
0100
0000
0000
0000
,
1001
0000
0000
0000
;

//---------------dance-double - ----------------
#NOTES:
     dance-double:
     :
     Hard:
     10:
     0.713,0.779,0.289,0.063,0.063:
00000000
00000000
00000000
00000000
,
00000000
00000000
00000000
00000000
,
00000000
00000000
00000000
00000000
,
00000000
00000000
00000000
00000000
,
00000000
00000000
00000000
00000000
,
00000000
00000000
00000000
00000000
,
00000000
00000000
00000000
00000000
,
00000000
00000000
00000000
00000000
00000000
00000000
00000000
00000000
00000000
00000000
00000000
00000000
00000000
00000000
00000000
00000000
20000000
00000000
00000000
00000000
00000000
00000000
00000000
30000000
10000000
00000000
01000000
00000000
00100000
00000000
00010000
00000000
,
01000000
00100000
01000000
00010000
,
00100000
00000000
01000000
00000000
00100000
00000000
00001000
00010000
,
00001000
00000000
00100000
00000000
01000000
00000000
00000000
00000000
10000000
00000000
00000000
00010000
00000000
00000000
01000000
00000000
,
00001000
00010000
00000100
00010000
00000100
00000010
00000001
00000100
,
00000010
00000100
00000010
00001000
,
00000001
00000000
00000010
00000000
00000100
00000000
00000010
00000001
,
00001000
00000000
00000010
00000000
00000100
00000000
00000000
00000000
00000010
00000000
00000000
00001000
00000000
00000000
00000100
00000000
,
00010000
00001000
01000000
00001000
01000000
00100000
10000000
00010000
,
00100000
01000000
00100000
00010000
,
10000000
00000000
00010000
00000000
01000000
00000000
00100000
10000000
,
00100000
00000000
01000000
00000000
00010000
00000000
00000000
00000000
00100000
00000000
00000000
01000000
00000000
00000000
00100000
00000000
,
00001000
00010000
00000010
00010000
00000010
00000100
00000001
00001000
,
00000100
00000010
00000100
00001000
,
00000001
00000000
00000100
00000000
00000010
00000000
00001000
00000100
,
00000010
00000000
00000100
00000000
00001000
00000000
00000000
00000000
00000001
00000000
00000000
00000100
00000000
00000000
00000010
00000000
,
00020000
00000000
00000000
00000000
00000000
00000000
00000000
00030000
00010000
00000000
00001000
00000000
01000000
00000000
00100000
00000000
,
10000000
01000000
00100000
01000000
10000000
01000000
00100000
01000000
,
10000000
00010000
01000000
00100000
00000000
00100000
10000000
00010000
,
00100000
00001000
00010000
00001000
00100000
00001000
00010000
00001000
,
00100000
00001000
00010000
00000100
00000000
00001000
00000001
00000100
,
00000010
00010000
00000010
00001000
00000010
00010000
00000010
00001000
,
00000010
00010000
00000100
00001000
00000000
00001000
00000001
00000010
,
00000100
00010000
00000100
00001000
00000100
00010000
00000100
00001000
,
00000100
00010000
00001000
01000000
00000000
00100000
10000000
00010000
,
01000000
00000000
00100000
00000000
01100000
00000000
00100000
10000000
,
00010000
00100000
01000000
00100000
00010000
00000000
00100000
01000000
,
00100000
01000000
11000000
10000000
,
10010000
00000000
00001000
00010000
,
00000100
00000000
00001000
00000000
00001001
00000000
00000001
00000100
,
00000010
00000100
00000001
00000010
00000100
00000000
00000010
00000100
,
00000010
00000100
00010100
00010000
,
00011000
00000000
00000000
00001000
01000000
00100000
10000000
00010000
,
01000000
00100000
01000000
00010000
,
00100000
00000000
01000000
10000000
01000000
00100000
01000000
10000000
,
00010000
01000000
00010000
00100000
,
00001000
00000000
00010000
00000100
00001000
00000100
00010000
00000100
,
00000010
00000001
00001000
00000010
,
00000100
00000000
00000010
00010000
00000010
00001000
00000010
00010000
,
00000100
00010000
00001000
01000000
,
00010000
00000000
00100000
01000000
10000000
01000000
00100000
01000000
,
10000000
00010000
01000000
00001000
,
00010000
00000100
00000010
00000001
,
00001001
00001000
00000010
00010000
,
00001000
01000000
10100000
01001000
,
00011000
00010000
00000100
00000010
,
00000011
00000010
00000100
00010000
,
00011000
00000000
00000000
01001000
00000000
00000000
01100000
00000000
,
20100000
00000000
00000000
00000000
30010000
00100000
01000000
10000000
,
00010000
01000000
00010000
00100000
,
01000000
00000000
10000000
00000000
01000000
00000000
00100000
00010000
,
10000000
00000000
00100000
00000000
01000000
00000000
00000000
00000000
00100000
00000000
00000000
01000000
00000000
00000000
00001000
00000000
,
00010000
00000100
00000010
00000100
00000010
00000001
00001000
00000010
,
00000100
00000010
00001000
00000010
,
00000100
00000000
00000001
00000000
00001000
00000000
00000100
00000010
,
00000100
00000000
00001000
00000000
00000001
00000000
00000000
00000000
00000100
00000000
00000000
00000010
00000000
00000000
00010000
00000000
,
00001000
01000000
00001000
01000000
00100000
10000000
00010000
00100000
,
01000000
10000000
00100000
01000000
,
00100000
00000000
10000000
00000000
00010000
00000000
00100000
01000000
,
10000000
00000000
00010000
00000000
01000000
00000000
00000000
00000000
00100000
00000000
00000000
01000000
00000000
00000000
00001000
00000000
,
00010000
00000100
00001000
00000100
00001000
00000001
00000100
00000010
,
00001000
00000100
00000010
00000100
,
00001000
00000000
00000001
00000000
00000100
00000000
00000010
00001000
,
00000001
00000000
00000100
00000000
00000010
00000000
00000000
00000000
00001000
00000000
00000000
00000100
00000000
00000000
00010000
00000000
,
00002000
00000000
00000000
00000000
01003000
00100000
10000000
00010000
,
01000000
00100000
10100000
10000000
,
10010000
00010000
00110000
00100000
,
01100000
00100000
00110000
00010000
,
10010000
10000000
10100000
01001000
,
00011000
00010000
00000100
00000010
,
00000001
00000100
00000010
00001000
,
00001010
00000010
00000100
00000001
,
00001100
00000000
00001100
00000000
00000000
00010100
00000000
00000000
,
00011000
00001000
01000000
00100000
,
10000000
01000000
00100000
00010000
,
01000000
00100000
10000000
01000000
,
00100000
00001000
00010000
00000010
,
00000101
00000001
00001000
00000100
,
00000010
00000001
00000100
00000010
,
00001000
00000100
00010000
00001000
,
02001000
00000000
00000000
00000000
03010000
01000000
00100000
10000000
,
01000000
00100000
01000000
10000000
,
00010000
00000000
01000000
00000000
00100000
00000000
10000000
00010000
,
00100000
00000000
00010000
00000000
10000000
00000000
00000000
00000000
00100000
00000000
00000000
01000000
00000000
00000000
00001000
00000000
,
00010000
00000010
00000100
00000010
00000100
00000001
00000010
00000100
,
00001000
00000001
00000100
00000010
,
00000100
00000000
00000010
00000000
00001000
00000000
00000001
00000010
,
00000100
00000000
00001000
00000000
00000001
00000000
00000000
00000000
00000100
00000000
00000000
00000010
00000000
00000000
00010000
00000000
,
00001000
00100000
01000000
00100000
01000000
10000000
00010000
01000000
,
00100000
10000000
00010000
01000000
,
00010000
00000000
00100000
00000000
01000000
00000000
10000000
01000000
,
00100000
00000000
00010000
00000000
10000000
00000000
00000000
00000000
00100000
00000000
00000000
01000000
00000000
00000000
00001000
00000000
,
00010000
00000010
00001000
00000010
00001000
00000001
00000010
00000100
,
00001000
00000100
00000010
00000001
,
00001000
00000000
00000010
00000000
00000100
00000000
00000001
00001000
,
00000100
00000000
00001000
00000000
00000001
00000000
00000000
00000000
00000100
00000000
00000000
00000010
00000000
00000000
00001000
00000000
,
00000100
00000000
00000000
00000000
00010000
00010000
00010000
00001000
,
00022000
00000000
00000000
00000000
,
00000000
00000000
00000000
00000000
,
00000000
00000000
00000000
00000000
,
00000000
00000000
00000000
00000000
,
00033000
00000000
00000000
00000000
;

//---------------dance-double - Blank----------------
#NOTES:
     dance-double:
     Blank:
     Medium:
     8:
     0.510,0.585,0.144,0.054,0.000:
00000000
00000000
00000000
00000000
,
00000000
00000000
00000000
00000000
,
00000000
00000000
00000000
00000000
,
00000000
00000000
00000000
00000000
,
00000000
00000000
00000000
00000000
,
00000000
00000000
00000000
00000000
,
00000000
00000000
00000000
00000000
,
00000000
00000000
00000000
00000000
,
10000000
00100000
10000000
00010000
,
00100000
00000000
01000000
00000000
00100000
00000000
00001000
00010000
,
00001000
00000000
00010000
00000000
00000010
00000000
00000100
00000001
,
00000100
00000010
00001000
00000100
,
00000010
00000100
00010000
00001000
,
01000000
00000000
00100000
00000000
10000000
00000000
00010000
00100000
,
00010000
00000000
01000000
00000000
00100000
00000000
10000000
01000000
,
10000000
00010000
01000000
00001000
,
00010000
00000100
00000010
00000001
,
00000100
00000000
00000010
00000000
00001000
00000000
00000100
00010000
,
00000100
00000000
00010000
00000000
00001000
00000000
01000000
00001000
,
01000000
00010000
00100000
01000000
,
10000000
00010000
01000000
00100000
,
01000000
00000000
00010000
00000000
00100000
00000000
00001000
00100000
,
00001000
00000000
00010000
00000000
00000010
00000000
00000100
00000001
,
00000200
00000000
00000010
00000310
,
00001000
00000100
00000010
00000100
,
00001000
00000100
00000010
00000100
,
00010000
00001000
00100000
00001000
,
00010000
00001000
00100000
00001000
,
01000000
00010000
10000000
00010000
,
01000000
00010000
10000000
00010000
,
00100000
01000000
00100000
00001000
,
00100000
01000000
00100000
00001000
,
00010000
00000000
00000010
00000000
00000100
00000000
00000010
00001000
,
00000010
00000100
00000001
00000000
,
00001000
00000000
00000100
00000000
00000010
00000000
00000100
00010000
,
00000100
00000000
00000000
00000000
,
00010000
00000000
00001000
00000000
01000000
00000000
00100000
10000000
,
00100000
01000000
00010000
00000000
,
10000000
00000000
01000000
00000000
00100000
00000000
00010000
00100000
,
00010000
00000000
00000000
00000000
01000000
00010000
01000000
00010000
,
10000000
01000000
10000000
01000000
,
10000000
00010000
10000000
00010000
,
01000000
00001000
01000000
00001000
,
00010000
00001000
00010000
00001000
,
00010000
00000100
00010000
00000100
,
00001000
00000100
00001000
00000100
,
00000010
00000001
00000010
00000001
,
00000100
00000010
00000110
00000110
,
00001010
00001000
00000010
00001000
,
00000100
00010000
00000100
00010000
,
00001000
00010000
00001000
00010000
,
00001000
01000000
00001000
01000000
,
00100000
10000000
00100000
10000000
,
00100000
01000000
00100000
01000000
,
01010000
00000000
00000000
10010000
00000000
00000000
10000000
00000000
,
12000000
00000000
00100000
03100000
,
00010000
01000000
00100000
01000000
,
00001000
00000000
00010000
00000000
00000100
00000000
00001000
00000100
,
00001000
00000000
00000010
00000000
00000100
00000000
00000001
00000100
,
00000001
00000010
00000100
00010000
,
00001000
01000000
00100000
10000000
,
00010000
00000000
00100000
00000000
00010000
00000000
10000000
00100000
,
10000000
00000000
00100000
00000000
01000000
00000000
00010000
10000000
,
00010000
00100000
00001000
00010000
,
00000010
00000100
00000010
00001000
,
00000001
00000000
00000100
00000000
00000001
00000000
00001000
00000100
,
00001000
00000000
00000100
00000000
00010000
00000000
00001000
00010000
,
00001000
01000000
00100000
10000000
,
00010000
00100000
01000000
10000000
,
00010000
00000000
01000000
00000000
00100000
00000000
10000000
00010000
,
10000000
00000000
00100000
00000000
01000000
00000000
00001000
00100000
,
00002000
00000000
01000000
01003000
,
00100000
00000000
10100000
00000000
,
01000000
00000000
01001000
00000000
,
00001000
00000000
00011000
00000000
,
00010000
00000000
00010100
00010100
,
00010100
00000000
00000100
00000000
,
00000010
00000000
00000001
00000000
,
00000100
00000000
00000010
00000000
,
00001000
00000000
00000100
00000000
,
00010100
00000000
00010000
00000000
,
00001000
00000000
01000000
00000000
,
00100000
00000000
01000000
00000000
,
00010000
00000000
00100000
00000000
,
11000000
00000000
01000000
00000000
,
10000000
00000000
00010000
00000000
,
01000000
00000000
00001000
00000000
,
00021000
00000000
00001000
00031000
,
00001000
01000000
00100000
10000000
,
00010000
00000000
00100000
00000000
00001000
00000000
00010000
00001000
,
00010000
00000000
00000100
00000000
00001000
00000000
00000001
00000100
,
00000001
00000100
00000010
00001000
,
00000100
00010000
00001000
01000000
,
00001000
00000000
00100000
00000000
00010000
00000000
10000000
00100000
,
10000000
00000000
00100000
00000000
01000000
00000000
00010000
10000000
,
00010000
00100000
00001000
00010000
,
00000010
00000100
00000001
00001000
,
00000100
00000000
00001000
00000000
00000001
00000000
00000100
00000010
,
00000100
00000000
00000010
00000000
00001000
00000000
00000100
00010000
,
00000100
00010000
00001000
01000000
,
00100000
10000000
00010000
00100000
,
01000000
00000000
10000000
00000000
00010000
00000000
01000000
00100000
,
01000000
00000000
00010000
00000000
00100000
00000000
00010000
10000000
,
00010000
00000000
01000000
01000000
,
02200000
00000000
00000000
00000000
,
00000000
00000000
00000000
00000000
,
00000000
00000000
00000000
00000000
,
00000000
00000000
00000000
00000000
,
03300000
00000000
00000000
00000000
;

//---------------dance-double - Blank----------------
#NOTES:
     dance-double:
     Blank:
     Easy:
     5:
     0.289,0.341,0.009,0.018,0.000:
00000000
00000000
00000000
00000000
,
00000000
00000000
00000000
00000000
,
00000000
00000000
00000000
00000000
,
00000000
00000000
00000000
00000000
,
00000000
00000000
00000000
00000000
,
00000000
00000000
00000000
00000000
,
00000000
00000000
00000000
00000000
,
00000000
00000000
00000000
00000000
,
10000000
00000000
00100000
00000000
,
01000000
00000000
00100000
00000000
,
10000000
00000000
00010000
00000000
,
00100000
00001000
00100000
00001000
,
00010000
00000000
00000100
00000000
,
00001000
00000000
00000001
00000000
,
00000100
00000000
00000010
00000000
,
00010000
00001000
00010000
00001000
,
01000000
00000000
00100000
00000000
,
01000000
00000000
00010000
00000000
,
00100000
00000000
01000000
00000000
,
10000000
01000000
10000000
01000000
,
00100000
00000000
00010000
00000000
,
01000000
00000000
00001000
00000000
,
00010000
00000000
00000100
00000000
,
00000010
00000000
00000010
00000010
,
00000001
00000000
00001000
00000000
,
00000001
00000000
00000100
00000000
,
00000010
00000000
00001000
00000000
,
00000100
00000000
00010000
00010000
,
00001000
00000000
01000000
00000000
,
00010000
00000000
10000000
00000000
,
01000000
00000000
00100000
00000000
,
00010000
00010000
00000000
00000000
,
01000000
00000000
00001000
00000000
,
00010000
00000000
00000100
00000000
,
00001000
00000000
00001000
00000000
,
00001000
00000000
00000010
00000100
,
00000001
00000000
00001000
00000000
,
00000100
00000000
00010000
00000000
,
00001000
00000000
00001000
00000000
,
00001000
00000000
01000000
00100000
,
10000000
00000000
00010000
00000000
,
10000000
00000000
01000000
00000000
,
00100000
00000000
00010000
00000000
,
01000000
00000000
00100000
00000000
,
01000000
00000000
00010000
00000000
,
00100000
00000000
00001000
00000000
,
00010000
00000000
00000010
00000000
,
00000100
00000000
00000010
00000010
,
00001000
00000000
00000100
00000000
,
00000010
00000000
00000100
00000000
,
00010000
00000000
00001000
00000000
,
01000000
00000000
00100000
00100000
,
10000000
00000000
00010000
00000000
,
00100000
00000000
00010000
00000000
,
01000000
00000000
00000000
00001000
,
00001000
00000000
00010000
00000100
,
00010000
00000000
00000010
00000000
,
00000100
00000000
00000010
00000000
,
00001000
00000000
00000001
00000000
,
00000010
00000100
00000010
00000100
,
00010000
00000000
00001000
00000000
,
01000000
00000000
00100000
00000000
,
01000000
00000000
00010000
00000000
,
10000000
01000000
10000000
01000000
,
00100000
00000000
00010000
00000000
,
10000000
00000000
00010000
00000000
,
01000000
00000000
00001000
00000000
,
00010000
00000100
00010000
00000100
,
00001000
00000000
00000001
00000000
,
00000100
00000000
00000010
00000000
,
00000100
00000000
00000001
00000000
,
00001000
00000000
00000010
00000100
,
00000010
00000000
00010000
00000000
,
00001000
00000000
01000000
00000000
,
00100000
00000000
10000000
00000000
,
01000000
00000000
00100000
01000000
,
10000000
00000000
00010000
00000000
,
01000000
00000000
00001000
00000000
,
00010000
00000000
00000100
00000000
,
00000010
00000010
00000000
00000000
,
00000001
00000000
00001000
00000000
,
00000001
00000000
00001000
00000000
,
00000100
00000000
00010000
00000000
,
00000100
00000000
00010000
00000000
,
00001000
00000000
01000000
00000000
,
00001000
00000000
01000000
00000000
,
00100000
00000000
10000000
00000000
,
01000000
00000000
01000000
01000000
,
10000000
00000000
00010000
00000000
,
01000000
00000000
00100000
00000000
,
01000000
00000000
00010000
00000000
,
00100000
00001000
00010000
00001000
,
00100000
00000000
00010000
00000000
,
01000000
00000000
00001000
00000000
,
00010000
00000000
00000100
00000000
,
00000010
00000100
00001000
00000100
,
00000010
00000000
00000001
00000000
,
00001000
00000000
00000010
00000000
,
00000100
00000000
00000010
00000000
,
00001000
00000100
00010000
00000100
,
00001000
00000000
00000001
00000000
,
00000100
00000000
00000010
00000000
,
00001000
00000000
00000100
00000000
,
00010000
00000000
00001000
00000000
,
00022000
00000000
00000000
00000000
,
00000000
00000000
00000000
00000000
,
00000000
00000000
00000000
00000000
,
00000000
00000000
00000000
00000000
,
00033000
00000000
00000000
00000000
;
