#TITLE:brightred;
#SUBTITLE:;
#ARTIST:Shatter;
#TITLETRANSLIT:;
#SUBTITLETRANSLIT:;
#ARTISTTRANSLIT:;
#GENRE:;
#CREDIT:;
#MENUCOLOR:;
#METERTYPE:DDR;
#BANNER:brightred-bn.png;
#BACKGROUND:brightred-bg.png;
#LYRICSPATH:;
#CDTITLE:ddrencorecdtitle.png;
#MUSIC:brightred.mp3;
#OFFSET:-0.026;
#SAMPLESTART:58.665;
#SAMPLELENGTH:11.840;
#SELECTABLE:YES;
#LISTSORT:77;
#BPMS:0.000=180.000,78.000=359.999,349.000=180.000,393.000=359.999;
#STOPS:78.000=0.500
,136.000=0.170
,137.000=0.170
,138.000=0.170
,338.000=0.990
,348.000=1.490
,393.000=1.180
,451.000=0.170
,452.000=0.170
,453.000=0.170
,478.000=3.840
;
#BGCHANGES:;
#ATTACKS:;

//---------------dance-single - ----------------
#NOTES:
     dance-single:
     :
     Hard:
     10:
     0.827,0.995,0.698,0.119,0.000:
0000
0000
0000
0000
,
0000
0000
0000
0000
,
0000
0000
0000
0000
,
0000
0000
0000
0000
,
2002
0000
0000
0000
,
0000
0000
0000
0000
,
0000
0000
0000
0000
,
0000
0000
3003
0000
,
1000
0010
0100
0001
1000
0001
0100
0010
,
1000
0001
1000
0100
1000
0001
0010
0001
,
1000
0001
0100
0010
1000
0001
1000
0001
,
0100
0001
0010
0001
1000
0001
1000
0100
,
0010
0001
0010
0100
1000
0001
1000
0100
,
1000
0001
0100
0001
0100
0010
1000
0001
,
1000
0001
0010
0100
1000
0001
1000
0100
,
0010
0001
1000
0010
0100
0001
1000
0001
,
0010
0100
0100
1000
0001
0100
0010
1000
,
0100
0010
0010
0001
0010
0100
1000
0001
,
0100
0001
0001
1000
0001
0010
0100
1000
,
0100
0000
0010
0000
0010
0000
0100
0000
2002
3003
0000
0000
1000
0000
0100
0000
,
1000
0100
1000
0000
0001
0000
1000
0000
,
0001
0100
0001
0100
0001
0000
0010
0000
,
0100
0000
1000
0100
1000
0100
0010
0000
,
0001
0000
0101
0000
1000
0000
0100
0010
,
0100
0010
0100
0000
1000
0000
0001
0000
,
0100
0010
0100
0010
1000
0000
0001
0000
,
1001
0000
1000
0100
1000
0100
0010
0000
,
0100
0000
1100
0000
1001
0000
0001
0100
,
0010
1000
0100
0000
0010
0000
1001
0000
,
1000
0100
0001
0100
1000
0000
0001
0000
,
1010
0000
0100
0010
1000
0100
0010
0000
,
0011
0000
1100
0000
1001
0000
0001
0010
,
0100
0010
0001
0000
1000
0000
1010
0000
,
0001
0100
0010
0100
1000
0000
0100
0000
,
1010
0101
0011
1100
,
1001
0000
0101
0000
,
0110
0000
1010
0000
,
1001
0000
1100
0000
,
0110
0000
0011
0000
,
0110
0000
1001
0000
,
1010
0000
0101
0000
,
1001
0000
0011
0000
,
1100
0000
1010
0101
,
1001
0000
0011
0000
,
0101
0000
0110
0000
,
1001
0000
1010
0000
,
1100
0000
0110
0000
,
0011
0000
1100
0000
,
1010
0000
0101
0000
,
0110
0000
1100
0000
,
0101
0000
0000
0000
1001
0000
0001
0100
,
0010
1000
0010
0100
,
0001
0010
0100
1000
,
0100
0100
0010
0001
,
0100
0001
1000
0100
,
0010
0010
0100
1000
,
0010
0100
1000
0100
,
0001
0001
1000
0100
,
1000
0001
0010
0100
,
1000
1000
0100
0001
,
0100
0010
0100
1000
,
0001
0001
0100
0010
,
0100
0010
1000
0001
,
0100
0100
0001
0010
,
0001
0100
0010
0001
,
0010
0010
1000
0100
,
0010
0100
0001
0001
,
0100
1000
0100
1000
0001
0000
0100
0000
,
0001
0000
0010
0001
0010
0100
1000
0000
,
0001
0000
0100
0000
0001
1000
0100
1000
,
0001
0100
0101
1010
,
1000
0100
1000
0100
0001
0000
0100
0000
,
0010
0000
0100
1000
0100
0010
0001
0000
,
1000
0000
0010
0000
0001
0010
0100
0010
,
1000
0001
1100
0101
,
0001
0100
0010
0100
0001
0000
1000
0000
,
0001
0000
0010
0100
0001
0100
1000
0000
,
0001
0000
1000
0000
0001
0100
0001
0100
,
1000
0100
1010
0101
,
0010
0001
0010
0001
0100
0000
0010
0000
,
1000
0000
0001
1000
0001
0100
0010
0000
,
1000
0000
0100
0000
0010
0100
1000
0010
,
0001
0010
1010
1001
,
0101
0000
0001
0100
0001
0000
1100
0000
,
1000
0000
0100
0000
1000
0000
0000
0000
0022
0033
0000
0000
0000
0000
0000
0000
,
0010
0000
0100
0000
1100
0000
0001
0010
,
0001
0000
1010
0000
0100
1000
0100
0000
,
2002
3003
0000
0000
1001
0000
1000
0000
0100
0000
0010
0000
0100
0000
1000
0000
,
0001
0010
0100
1000
0100
1000
0001
1000
,
0100
0010
0001
1000
0001
0100
0010
0100
,
0010
1000
0001
0100
0001
0010
0100
1000
,
0001
1000
0001
0000
0010
1000
0000
1000
,
0010
0000
0101
0000
1000
0001
0000
0001
,
1000
0000
1100
0000
0001
0100
0000
0100
,
0010
0000
0001
0000
1000
0100
0000
0100
,
1000
0000
0010
0000
0100
0010
1000
0000
,
1000
0010
0100
0000
0001
0000
0010
0000
,
0001
0000
1000
0000
0100
0001
0010
0000
,
0100
0000
0000
0000
2002
3003
0000
0000
1000
0000
0100
0000
1000
0000
0100
0000
,
0010
0000
0001
0010
0001
0000
0100
0000
,
0010
0100
1000
0000
0100
0000
0010
0100
,
0010
1000
0100
0000
0010
0100
0010
0000
,
0001
0000
1001
0000
1000
0100
0010
0100
,
1000
0000
0001
1000
0001
0000
1000
0000
,
0100
0010
0100
0000
0010
0000
0001
0010
,
0100
0010
1000
0000
0010
0100
0010
0000
,
0001
0000
0101
0000
0001
0100
0001
0100
,
0001
1000
0001
1000
0010
1000
0010
1000
,
0100
1000
0100
0010
0100
0010
0001
0010
,
0001
1000
0001
1000
0100
1000
0100
1000
,
0010
0100
0010
0100
0001
0100
0001
0010
,
0100
1000
0001
0100
0001
0010
0100
1000
,
0010
0100
0010
1000
0001
0000
0101
0000
,
1010
1100
0011
1100
,
0100
0010
0100
0000
0011
0000
1000
0001
,
1000
0000
0101
0000
1000
0010
1000
0000
,
0101
0000
0010
0001
0010
0000
1100
0000
,
0100
0010
0100
0000
1001
0000
0001
0100
,
0001
0000
1010
0000
0001
0010
0001
0000
,
1100
0000
0000
0000
0001
0000
2000
0000
0002
3003
0000
0000
0000
0000
0000
0000
,
2002
0000
0000
0000
,
0000
0000
0000
0000
,
0000
0000
0000
0000
,
3003
0000
0000
0000
;

//---------------dance-single - ----------------
#NOTES:
     dance-single:
     :
     Medium:
     8:
     0.447,0.576,0.221,0.102,0.000:
0000
0000
0000
0000
,
0000
0000
0000
0000
,
0000
0000
0000
0000
,
0000
0000
0000
0000
,
2002
0000
0000
0000
,
0000
0000
0000
0000
,
0000
0000
0000
0000
,
0000
0000
3003
0000
,
1000
0001
1000
0100
,
0010
0000
0001
0000
,
1000
0001
0100
0010
,
0100
0000
0001
0000
,
0000
1000
0000
0001
0000
1000
0000
0100
,
1000
0000
0001
0000
,
0000
0100
0000
0001
0000
1000
0000
0001
,
0100
0000
0010
0000
,
0000
1000
0000
0100
0000
0010
0000
0100
,
1000
0000
0001
0000
,
0000
0100
0000
0010
0000
0100
0000
0001
,
0010
0000
1001
1000
,
0100
1000
0000
0001
,
0100
0001
0000
1000
,
0100
1000
0001
0100
,
0000
0001
0000
0001
,
0100
0001
0000
1000
,
0100
1000
0000
0001
,
0100
0001
0010
0100
,
0000
1000
0000
0001
,
0010
0001
0010
0001
,
0100
0001
0100
0001
,
1000
0001
1000
0001
,
1000
0100
1000
0100
,
1000
0010
1000
0010
,
0100
0010
0100
0010
,
2002
0000
0000
3003
,
1001
0000
0100
0000
,
0010
0000
0001
0000
,
0011
0000
0001
0000
,
0010
0000
0100
0000
,
1100
0000
0100
0000
,
1000
0000
0010
0000
,
1010
0000
0010
0000
,
0100
0000
0001
0000
,
0101
0000
0001
0000
,
1000
0000
0001
0000
,
0011
0000
0001
0000
,
1000
0000
0001
0000
,
0110
0000
1000
0000
,
0100
0000
0010
0000
,
0110
0000
0001
0000
,
0010
0000
0100
0000
,
1001
1000
0100
0000
,
0010
0000
0001
0000
,
1000
0100
0010
0100
,
1000
0000
0001
0000
,
0100
0010
1000
0000
,
0001
0000
1000
0000
,
0001
0100
1000
0100
,
0010
0000
1000
0000
,
0001
0100
0001
0000
,
0010
0000
0001
0000
,
0010
0100
0010
0001
,
0010
0000
0100
1000
,
0001
0010
0100
0000
,
1000
0000
0100
1000
,
0010
0100
0001
0000
,
0001
0000
0010
0000
,
1100
0000
0001
0000
,
1000
0000
0001
1000
0001
0000
0000
0000
,
0100
0000
0001
0000
,
0001
0000
1000
0100
1000
0000
0000
0000
,
0100
0000
1000
0000
,
0001
0000
0100
0001
0100
0000
0000
0000
,
0001
0000
1000
0000
,
0100
0000
0010
0001
0010
0000
0000
0000
,
0100
0000
1000
0000
,
0100
0000
1000
0010
1000
0000
0000
0000
,
1000
0000
0100
0000
,
0010
0000
0001
1000
0001
0000
0000
0000
,
1000
0000
1001
0000
,
0101
0000
0011
0000
,
1100
0000
1010
0000
,
1001
0000
0101
0000
,
1001
0000
1000
0100
,
0000
0001
0100
0000
,
1000
0100
0001
0000
,
0100
1000
0000
0010
,
0001
2002
0000
0000
,
0000
0000
0000
0000
,
3003
0001
0000
1000
,
0001
0010
0000
0100
,
1000
0000
0001
0000
0100
0001
0000
0001
,
0100
0000
0001
0000
1000
0100
0000
0100
,
1000
0000
0001
0000
0010
0001
0000
0001
,
0010
0000
0001
0000
1000
0010
0000
0010
,
1000
0100
0010
0001
,
0010
0000
0100
0000
1000
0000
0100
0010
,
0001
1000
0010
0100
,
0001
1001
1000
0100
,
1000
0000
0001
0100
,
0001
0000
1000
0100
,
1000
0001
0100
0000
,
0001
0000
1000
0100
,
1000
0000
0001
0100
,
0001
0000
1000
0100
,
1000
0001
0100
0000
,
0010
0000
1000
0100
,
1000
0100
1000
0100
,
1000
0100
0010
0100
,
0010
0100
0010
0100
,
0010
0100
0010
0001
,
0010
0001
0010
0001
,
0010
0001
0100
2002
,
0000
0000
3003
1001
,
0000
0001
0100
0000
,
1000
0100
0000
0001
,
0010
0000
1000
0010
,
0000
0001
1000
0000
,
0100
0001
0000
0100
,
1000
0000
0000
0000
0002
0000
0000
0000
2000
3003
0000
0000
0000
0000
0000
0000
,
2002
0000
0000
0000
,
0000
0000
0000
0000
,
0000
0000
0000
0000
,
3003
0000
0000
0000
;

//---------------dance-single - ----------------
#NOTES:
     dance-single:
     :
     Easy:
     5:
     0.201,0.314,0.051,0.034,0.000:
0000
0000
0000
0000
,
0000
0000
0000
0000
,
0000
0000
0000
0000
,
0000
0000
0000
0000
,
2002
0000
0000
0000
,
0000
0000
0000
0000
,
0000
0000
0000
0000
,
0000
0000
0000
3003
,
1000
0000
1000
0000
,
0100
0100
0100
0000
,
0001
0000
0001
0000
,
0100
0100
0100
0000
,
1000
0000
1000
0000
,
0001
0000
0001
0000
,
0010
0000
0010
0000
,
0100
0000
0100
0000
,
1000
0000
1000
0000
,
0001
0000
0001
0000
,
0100
0000
0100
0000
,
0010
0000
1001
1000
,
0000
0000
0000
1000
,
0000
0000
0000
0001
,
0000
0000
0000
0001
,
0000
0000
0000
0010
,
0000
0000
0000
0010
,
0000
0000
0000
0100
,
0000
0000
0000
0100
,
0000
0000
0000
1000
,
0000
0000
0000
1000
,
0000
0000
0000
0001
,
0000
0000
0000
0001
,
0000
0000
0000
0100
,
0000
0000
0000
0100
,
0000
0000
0000
0010
,
0000
0000
0000
0000
,
1000
0000
0000
0000
,
0001
0000
0000
0000
,
0010
0000
0000
0000
,
0100
0000
0000
0000
,
1000
0000
0000
0000
,
0010
0000
0000
0000
,
0100
0000
0000
0000
,
0001
0000
0000
0000
,
0010
0000
0000
0000
,
0100
0000
0000
0000
,
1000
0000
0000
0000
,
0010
0000
0000
0000
,
0100
0000
0000
0000
,
0010
0000
0000
0000
,
0001
0000
0000
0000
,
0010
0000
0000
0000
,
1001
0000
0000
0000
,
1000
0000
0000
0000
,
1000
0000
0000
0000
,
1000
0000
0000
0000
,
0001
0000
0000
0000
,
0001
0000
0000
0000
,
0001
0000
0000
0000
,
0001
0000
0000
0000
,
0010
0000
0000
0000
,
0010
0000
0000
0000
,
0010
0000
0000
0000
,
0010
0000
0000
0000
,
0100
0000
0000
0000
,
0100
0000
0000
0000
,
0100
0000
0000
0000
,
0100
0000
0000
0000
,
0001
0000
0000
0000
,
0001
0000
0000
0000
,
0001
0000
0000
0000
,
0001
0000
0000
0000
,
1000
0000
0000
0000
,
1000
0000
0000
0000
,
1000
0000
0000
0000
,
1000
0000
0000
0000
,
0010
0000
0000
0000
,
0010
0000
0000
0000
,
0010
0000
0000
0000
,
0010
0000
0000
0000
,
0100
0000
0000
0000
,
0100
0000
0000
0000
,
0100
0000
0000
0000
,
0100
0000
0000
0000
,
0001
0000
0001
0000
,
0001
0000
0001
0000
,
0000
0000
1000
0000
,
1000
0000
1000
0000
,
1000
0001
0000
0001
,
0000
1000
0000
1000
,
0000
0001
0000
0001
,
0000
1000
0000
1000
,
0000
0010
0000
0010
,
0000
0100
0000
0100
,
0000
0010
0000
0010
,
0000
0100
0000
0100
,
0000
0001
0000
0001
,
0000
1000
0000
1000
,
0000
0100
0000
0100
,
0000
1001
1000
0000
,
0000
0000
0001
0000
,
0000
0000
1000
0000
,
0000
0000
0001
0000
,
0000
0000
0010
0000
,
0000
0000
0100
0000
,
0000
0000
0010
0000
,
0000
0000
0100
0000
,
0000
0000
1000
0000
,
1000
0000
1000
0000
,
1000
0000
0001
0000
,
0001
0000
0001
0000
,
0001
0000
1000
0000
,
1000
0000
1000
0000
,
1000
0000
0001
0000
,
0000
0000
0000
1001
,
0000
0001
0000
0001
,
0000
0001
0000
1000
,
0000
1000
0000
1000
,
0000
1000
0000
0010
,
0000
0010
0000
0010
,
0000
0010
0000
0000
,
2002
0000
0000
0000
,
0000
0000
0000
0000
,
0000
0000
0000
0000
,
3003
0000
0000
0000
;

//---------------dance-single - ----------------
#NOTES:
     dance-single:
     :
     Beginner:
     2:
     0.130,0.307,0.111,0.000,0.000:
0000
0000
0000
0000
,
0000
0000
0000
0000
,
0000
0000
0000
0000
,
0000
0000
0000
0000
,
1001
0000
0000
0000
,
0000
0000
0000
0000
,
0000
0000
0000
0000
,
0000
0000
0000
0000
,
1000
0000
0000
0000
,
0001
0000
0000
0000
,
0010
0000
0000
0000
,
0100
0000
0000
0000
,
1000
0000
1000
0000
,
1000
0000
0000
0000
,
0001
0000
0001
0000
,
0001
0000
0000
0000
,
0010
0000
0010
0000
,
0010
0000
0000
0000
,
0100
0000
0100
0000
,
0100
0000
1001
0000
,
0000
0000
0000
0000
,
0000
0000
0000
1000
,
0000
0000
0000
0000
,
0000
0000
0000
0010
,
0000
0000
0000
0000
,
0000
0000
0000
0001
,
0000
0000
0000
0000
,
0000
0000
0000
1000
,
0000
0000
0000
0000
,
0000
0000
0000
0010
,
0000
0000
0000
0000
,
0000
0000
0000
0001
,
0000
0000
0000
0000
,
0000
0000
0000
1000
,
0000
0000
0000
0000
,
0001
0000
0000
0000
,
0001
0000
0000
0000
,
0001
0000
0000
0000
,
0000
0000
0000
0000
,
1000
0000
0000
0000
,
1000
0000
0000
0000
,
1000
0000
0000
0000
,
0000
0000
0000
0000
,
0010
0000
0000
0000
,
0010
0000
0000
0000
,
0010
0000
0000
0000
,
0000
0000
0000
0000
,
0100
0000
0000
0000
,
0100
0000
0000
0000
,
0100
0000
0000
0000
,
0000
0000
0000
0000
,
0001
0000
0000
0000
,
0001
0000
0000
0000
,
0001
0000
0000
0000
,
0000
0000
0000
0000
,
1000
0000
0000
0000
,
1000
0000
0000
0000
,
1000
0000
0000
0000
,
0000
0000
0000
0000
,
0010
0000
0000
0000
,
0010
0000
0000
0000
,
0010
0000
0000
0000
,
0000
0000
0000
0000
,
0100
0000
0000
0000
,
0100
0000
0000
0000
,
0100
0000
0000
0000
,
0000
0000
0000
0000
,
0001
0000
0000
0000
,
0001
0000
0000
0000
,
0001
0000
0000
0000
,
0000
0000
0000
0000
,
0100
0000
0000
0000
,
0100
0000
0000
0000
,
0100
0000
0000
0000
,
0000
0000
0000
0000
,
0010
0000
0000
0000
,
0010
0000
0000
0000
,
0010
0000
0000
0000
,
0000
0000
0000
0000
,
1000
0000
0000
0000
,
1000
0000
0000
0000
,
1000
0000
0000
0000
,
0000
0000
0000
0000
,
1001
0000
0000
0000
,
0000
0000
1001
0000
,
0000
0000
1001
0000
,
0000
0000
0000
0000
,
1001
1000
0000
0000
,
0000
0100
0000
0000
,
0000
0001
0000
0000
,
0000
0010
0000
0000
,
0000
1000
0000
0000
,
0000
0001
0000
0000
,
0000
0100
0000
0000
,
0000
0010
0000
0000
,
0000
1000
0000
0000
,
0000
0001
0000
0000
,
0000
0100
0000
0000
,
0000
1001
0000
0000
,
0000
0000
0010
0000
,
0000
0000
0010
0000
,
0000
0000
0010
0000
,
0000
0000
0000
0000
,
0000
0000
0001
0000
,
0000
0000
0001
0000
,
0000
0000
0001
0000
,
0000
0000
0000
0000
,
0000
0000
1000
0000
,
0000
0000
1000
0000
,
0000
0000
1000
0000
,
0000
0000
0000
0000
,
0000
0000
0010
0000
,
0000
0000
0010
0000
,
0000
0000
0000
1001
,
0000
0000
0000
0000
,
0000
1001
0000
0000
,
0000
0000
0000
1001
,
0000
0000
0000
0000
,
0000
1001
0000
0000
,
0000
0000
1001
0000
,
1001
0000
0000
0000
;

//---------------dance-double - ----------------
#NOTES:
     dance-double:
     :
     Hard:
     10:
     0.736,0.995,0.315,0.102,0.000: // measure 1
00000000
00000000
00000000
00000000
,  // measure 2
00000000
00000000
00000000
00000000
,  // measure 3
00000000
00000000
00000000
00000000
,  // measure 4
00000000
00000000
00000000
00000000
,  // measure 5
00022000
00000000
00000000
00000000
,  // measure 6
00000000
00000000
00000000
00000000
,  // measure 7
00000000
00000000
00000000
00000000
,  // measure 8
00000000
00000000
00000000
00033000
,  // measure 9
00010000
00000000
00001000
00010000
01000000
10000000
01000000
00000000
,  // measure 10
00100000
00000000
00010000
00100000
00001000
00010000
00001000
00000000
,  // measure 11
00010000
00000000
00000100
00001000
00000100
00000010
00000001
00000000
,  // measure 12
00000010
00000000
00000100
00001000
00000100
00001000
00010000
00100000
,  // measure 13
01000000
00100000
00010000
00100000
01000000
10000000
00100000
00010000
,  // measure 14
00001000
00010000
00000100
00001000
00000100
00000010
00000001
00000010
,  // measure 15
00000100
00001000
00000001
00000100
00000010
00001000
00010000
01000000
,  // measure 16
00100000
10000000
00010000
00100000
01000000
10000000
01000000
00010000
,  // measure 17
00001000
00000100
00000010
00001000
00000100
00010000
00000010
00001000
,  // measure 18
00000100
00000010
00001000
01000000
00010000
00100000
00001000
01000000
,  // measure 19
00010000
10000000
01000000
00100000
00010000
00001000
00010000
00100000
,  // measure 20
00001000
00000000
00010000
00000000
00001000
00000000
00000010
00000000
00002002
00003003
00000000
00000000
00000001
00000000
00000100
00000000
,  // measure 21
00000001
00000100
00000001
00000000
00001000
00000000
00000100
00000000
,  // measure 22
00010000
00001000
00010000
00001000
00010000
00000000
01000000
00000000
,  // measure 23
00100000
00000000
00010000
10000000
00010000
10000000
00010000
00000000
,  // measure 24
00100000
00000000
01000000
00000000
10000000
00000000
00010000
01000000
,  // measure 25
00010000
01000000
00010000
00000000
00100000
00000000
00001000
00000000
,  // measure 26
00010000
00001000
00010000
00001000
00010000
00000000
00000100
00000000
,  // measure 27
00001000
00000000
00000100
00000010
00000100
00000010
00000001
00000000
,  // measure 28
00000100
00000000
00000010
00000000
00001000
00000000
00000100
00001000
,  // measure 29
00000100
00001000
00000010
00000000
00010000
00000000
00001000
00000000
,  // measure 30
00010000
00001000
00010000
00001000
01000000
00000000
00100000
00000000
,  // measure 31
01000000
00000000
00010000
10000000
00010000
10000000
01000000
00000000
,  // measure 32
00100000
00000000
00001000
00000000
00010000
00000000
00000100
00010000
,  // measure 33
00000100
00010000
00001000
00000000
00000010
00000000
00000001
00000000
,  // measure 34
00001000
00000001
00001000
00000001
00000100
00000000
00000010
00000000
,  // measure 35
00001010
00011000
01001000
01010000
,  // measure 36
10000000
01000000
00100000
00010000
,  // measure 37
00100000
01000000
10000000
00010000
,  // measure 38
10000000
01000000
00100000
00001000
,  // measure 39
00010000
00001000
01000000
00001000
,  // measure 40
00010000
00000100
00001000
00000010
,  // measure 41
00001000
00000010
00000100
00000001
,  // measure 42
00001000
00000100
00000010
00000100
,  // measure 43
00001000
00000001
00000100
00000010
,  // measure 44
00001000
00010000
01000000
00100000
,  // measure 45
01000000
00010000
00100000
01000000
,  // measure 46
00010000
01000000
00100000
10000000
,  // measure 47
00100000
00001000
00010000
00000100
,  // measure 48
00001000
00000001
00000100
00001000
,  // measure 49
00010000
01000000
00100000
00010000
,  // measure 50
10000000
01000000
00100000
00001000
,  // measure 51
00010000
00000000
00000100
00000000
00000010
00000000
00000001
00000100
,  // measure 52
00000010
00001000
00000000
00011000
,  // measure 53
00000000
00000000
01000000
00010000
01000000
00000000
00100000
00000000
,  // measure 54
00000000
11000000
00000000
01000000
,  // measure 55
00000000
00000000
00100000
00010000
00100000
00000000
00001000
00000000
,  // measure 56
00000000
00001100
00000000
00000101
,  // measure 57
00000000
00000000
00000010
00000100
00000010
00000000
00010000
00000000
,  // measure 58
00000000
01001000
00000000
01010000
,  // measure 59
00000000
00000000
00010000
10000000
01000000
00000000
00100000
00000000
,  // measure 60
00000000
00011000
00000000
01010000
,  // measure 61
00000000
00000000
00001000
00010000
00000100
00000000
00001000
00000000
,  // measure 62
00000000
00000101
00000000
00000011
,  // measure 63
00000000
00000000
00000100
00000010
00001000
00000000
00000100
00000000
,  // measure 64
00000000
00011000
00000000
00001100
,  // measure 65
00000000
00000000
00100000
00010000
01000000
00000000
00100000
00000000
,  // measure 66
00000000
10010000
00000000
01010000
,  // measure 67
00000000
00000000
00001000
00010000
00001000
00000000
00000100
00000000
,  // measure 68
00000001
00000100
00000001
00000100
00000001
00000000
00001000
00000000
,  // measure 69
00000100
00000000
00000010
00000100
00000010
00000100
00001000
00000000
,  // measure 70
00010000
00000000
00001000
00000000
00010000
00001000
00010000
00001000
,  // measure 71
00010000
00100000
01000000
00010000
,  // measure 72
10000000
01000000
00100000
01000000
00100000
00000000
00010000
00000000
,  // measure 73
01000000
00000000
00001000
01000000
00001000
01000000
00010000
00000000
,  // measure 74
00100000
00000000
01000000
00000000
00100000
00010000
00100000
00010000
,  // measure 75
00100000
00001000
00010000
00000100
,  // measure 76
00001000
00000010
00001000
00000010
00000100
00000000
00000001
00000000
,  // measure 77
00000010
00000000
00000100
00001000
00000100
00001000
00000010
00000000
,  // measure 78
00010000
00000000
00001000
00000000
00010000
00001000
00010000
00001000
,  // measure 79
00100000
00010000
00100000
01000000
,  // measure 80
10000000
00010000
10000000
00010000
00100000
00000000
00010000
00000000
,  // measure 81
01000000
00000000
00001000
01000000
00001000
01000000
00010000
00000000
,  // measure 82
00100000
00000000
00001000
00000000
00010000
00000100
00010000
00000100
,  // measure 83
00001000
00000001
00000100
00000001
,  // measure 84
00000100
00000000
00001000
00010000
01000000
00000000
10000000
00000000
,  // measure 85
01000000
00000000
00010000
00000000
00001000
00000000
00000000
00000000
00000200
00000300
00000000
00000000
00000000
00000000
00000000
00000000
,  // measure 86
00000010
00000000
00001000
00000000
00000001
00000000
00000010
00001000
,  // measure 87
00010000
00000000
00100000
00000000
10000000
00100000
00010000
00000000
,  // measure 88
00002000
00003000
00000000
00000000
00010000
00000000
00001000
00000000
00010000
00000000
00000010
00000000
00001000
00000000
00000001
00000000
,  // measure 89
00000100
00001000
00010000
00001000
00100000
00010000
01000000
00100000
,  // measure 90
00010000
00001000
01000000
00010000
10000000
01000000
00100000
00010000
,  // measure 91
01000000
00100000
00010000
00001000
00010000
00000100
00001000
00000010
,  // measure 92
00010000
00001000
00100000
00000000
01000000
00100000
00000000
00100000
,  // measure 93
00010000
00000000
01000000
00000000
00010000
01000000
00000000
01000000
,  // measure 94
00100000
00000000
00010000
00000000
00001000
00010000
00000000
00010000
,  // measure 95
00000100
00000000
00001000
00000000
00000100
00000010
00000000
00000010
,  // measure 96
00000001
00000000
00001000
00000000
00000100
00000010
00000000
00000010
,  // measure 97
00001000
00000000
00010000
00000000
00001000
00100000
00000000
00100000
,  // measure 98
00010000
00000000
01000000
00000000
00100000
10000000
00000000
10000000
,  // measure 99
00100000
00000000
20020000
30030000
01000000
00010000
01000000
00010000
,  // measure 100
01000000
00000000
00001000
00010000
00001000
00000000
00010000
00000000
,  // measure 101
00000100
00001000
00000100
00000000
00000010
00000000
00000001
00000100
,  // measure 102
00000001
00000100
00000001
00000000
00000100
00001000
00000100
00000000
,  // measure 103
00001000
00000000
00010000
00000000
01000000
10000000
01000000
10000000
,  // measure 104
00010000
00000000
00100000
01000000
00100000
00000000
00001000
00000000
,  // measure 105
00010000
00001000
00010000
00000000
00000100
00000000
00001000
00000100
,  // measure 106
00001000
00000100
00000010
00000000
00000001
00001000
00000001
00000000
,  // measure 107
00000100
00000010
00001010
00000000
,  // measure 108
00010100
00000000
00011000
00000000
,  // measure 109
00101000
00000000
01010000
00000000
,  // measure 110
10010000
00000000
11000000
00000000
,  // measure 111
00110000
00000000
00011000
00000000
,  // measure 112
00001010
00000000
00001001
00000000
,  // measure 113
00000101
00000000
00000100
00001010
,  // measure 114
00011000
01010000
10000000
01000000
,  // measure 115
00010000
00001000
00000100
00000000
00000001
00000000
00000100
00001000
,  // measure 116
00010000
00000000
01000000
00000000
10000000
00100000
00010000
00000000
,  // measure 117
00001000
00000000
00000010
00000001
00000010
00000000
00001000
00000000
,  // measure 118
00010000
00100000
10000000
00000000
01000000
00000000
00010000
00001000
,  // measure 119
00000100
00000000
00000001
00000000
00000010
00001000
00010000
00000000
,  // measure 120
00100000
00000000
00000000
00000000
00010000
00000000
00002000
00000000
00020000
00033000
00000000
00000000
00000000
00000000
00000000
00000000
,  // measure 121
02000200
00000000
00000000
00000000
,  // measure 122
00000000
00000000
00000000
00000000
,  // measure 123
00000000
00000000
00000000
00000000
,  // measure 124
03000300
00000000
00000000
00000000
;

//---------------dance-double - ----------------
#NOTES:
     dance-double:
     :
     Easy:
     7:
     0.398,0.576,0.119,0.034,0.000:
00000000
00000000
00000000
00000000
,
00000000
00000000
00000000
00000000
,
00000000
00000000
00000000
00000000
,
00000000
00000000
00000000
00000000
,
00022000
00000000
00000000
00000000
,
00000000
00000000
00000000
00000000
,
00000000
00000000
00000000
00000000
,
00033000
00000000
00000000
00000000
,
10000000
00010000
01000000
00100000
,
01000000
00010000
10000000
01000000
,
10000000
00010000
01000000
00001000
,
01000000
00001000
00000100
00000001
,
00000001
00001000
00000001
00000000
00000100
00000000
00000010
00000000
,
00001000
00000100
00010000
01000000
,
10000000
00010000
10000000
00000000
00100000
00000000
01000000
00000000
,
00001000
00010000
00000100
00000010
,
00000001
00000100
00000001
00000000
00000010
00000000
00000100
00000000
,
00010000
00001000
01000000
00100000
,
10000000
01000000
10000000
00000000
01000000
00000000
00010000
00000000
,
01000000
10000000
10010000
00100000
,
00000000
00100000
00000000
01000000
,
00010000
00010000
00000000
01000000
,
00000000
00001000
00000000
00010000
,
00000100
00010000
00000100
00001000
,
00000000
00000010
00000000
00000100
,
00000001
00000001
00000000
00000010
,
00000100
00001000
00000001
00000100
,
00000010
00001000
00000001
00000100
,
00000000
00000010
00000000
00010000
,
00001000
00010000
00000000
00001000
,
00000000
01000000
00000000
00100000
,
10000000
00010000
01000000
00100000
,
00000000
10000000
00000000
01000000
,
00010000
00001000
00000000
00000100
,
00000001
00001000
00000001
00000100
,
00000010
00000000
00001001
00000000
,
00000100
00000000
00011000
00000000
,
01000000
00000000
10010000
00000000
,
10000000
00000000
01000000
00000000
,
00010000
00000000
01000000
00000000
,
00100000
00000000
01000000
00000000
,
00001000
00000000
00010000
00000000
,
00000100
00000000
00000010
00000000
,
00000001
00000000
00000010
00000000
,
00000100
00000000
00001000
00000000
,
00000100
00000000
00010000
00000000
,
00001000
00000000
01000000
00000000
,
00100000
00000000
10000000
00000000
,
00010000
00000000
01000000
00000000
,
00100000
00000000
10000000
00000000
,
00010000
00000000
01000000
00000000
,
00001000
00010000
00000000
00000100
,
00000000
00000010
00000000
00000001
,
00000000
00001000
00000000
00000010
,
00000000
00000100
00000000
00000001
,
00000000
00001000
00000000
00000100
,
00000000
00000010
00000000
00000001
,
00000000
00000100
00000000
00000010
,
00000000
00010000
00000000
00001000
,
00010000
00000000
01000000
00000000
,
10000000
00000000
00010000
00000000
,
01000000
00000000
10000000
00000000
,
01000000
00000000
00010000
00000000
,
10000000
00000000
00100000
00000000
,
01000000
00000000
00010000
00000000
,
01000000
00000000
00001000
00000000
,
00010000
00000000
00000100
00000000
,
00000010
00000001
00000010
00000000
,
00000100
00000000
00010000
00000000
,
00001000
00010000
00001000
00000000
,
01000000
00100000
01000000
00100000
,
01000000
00000000
00010000
00000000
,
10000000
01000000
10000000
00000000
,
00100000
00000000
01000000
00000000
,
00001000
00010000
00001000
00010000
,
00001000
00000000
00000100
00000000
,
00000001
00000010
00000001
00000000
,
00001000
00000000
00000100
00000000
,
00010000
00001000
00010000
00001000
,
00010000
00000000
01000000
00000000
,
10000000
00100000
10000000
00000000
,
00010000
00000000
00100000
00000000
,
01000000
00000000
10000000
00000000
,
00010000
01000000
00000000
00001000
,
00010000
00000000
00001000
00000000
,
00000000
00000000
00010000
00001000
,
00000000
00010000
00000100
00000000
,
00001000
00000001
00000100
00000010
,
00001000
00000100
00000001
00000100
,
00010000
00001000
01000000
00100000
,
10000000
00010000
01000000
10000000
,
01000000
00001000
00011000
00010000
,
00000100
00000010
00000011
00000001
,
00000100
00000010
00001100
00000100
,
00010000
00001000
00011000
01000000
,
10000000
00010000
01000000
00100000
,
10000000
00010000
01000000
00001000
,
00010000
00000000
00000100
00000000
00000010
00000000
00000001
00001000
,
00000001
00001001
00000100
00000000
,
00000010
00000000
00000000
00001000
,
00000000
00000000
00000100
00000000
,
00000000
00010000
00000000
00000000
,
00001000
00000000
00000000
01000000
,
00100000
00000000
00000000
10000000
,
00000000
00000000
01000000
00000000
,
00000000
00100000
00000000
00001000
,
00010000
00000000
00000001
00000000
,
00000001
00000000
00000001
00000000
,
00000001
00000000
00000100
00000000
,
00000100
00000000
00000010
00000000
,
00000010
00000000
00001000
00000000
,
00001000
00000000
00001000
00000000
,
00001000
00000000
00010000
00011000
,
00011000
00011000
00010000
01000000
,
00000000
00010000
00001000
00000000
,
00000100
00001000
00000000
00010000
,
00001000
00000000
01000000
00100000
,
00000000
01000000
00001000
00000000
,
00010000
00000010
00000000
00000100
,
00000010
00010000
00001000
00000000
,
00022000
00000000
00000000
00000000
,
00000000
00000000
00000000
00000000
,
00000000
00000000
00000000
00000000
,
00033000
00000000
00000000
00000000
;

//---------------dance-double - ----------------
#NOTES:
     dance-double:
     :
     Medium:
     9:
     0.548,0.786,0.153,0.060,0.000:
00000000
00000000
00000000
00000000
,
00000000
00000000
00000000
00000000
,
00000000
00000000
00000000
00000000
,
00000000
00000000
00000000
00000000
,
20000000
00000000
00000000
00000000
,
00000000
00000000
00000000
00000000
,
00000000
00000000
00000000
00000000
,
00000000
00000000
00000000
30000000
,
00100000
01000000
00010000
00000000
10000000
01000000
00100000
00000000
,
00010000
01000000
00001000
00000000
00010000
00000000
00011000
00000000
,
00000100
00001000
00000001
00000000
00000100
00000010
00001000
00000000
,
00000001
00000100
00000010
00000000
00001000
00000000
00001100
00000000
,
00010000
00001000
01000000
00000000
00100000
10000000
01000000
00000000
,
00010000
00001000
00000100
00000000
00000001
00000000
00001001
00000000
,
00000010
00001000
00000100
00000000
00000001
00000100
00001000
00000000
,
00000010
00000100
00000001
00000000
00001000
00000000
00000101
00000000
,
00000010
00001000
00000100
00010000
00001000
01000000
00100000
00000000
,
10000000
01000000
00100000
00010000
01000000
00001000
00010000
00000000
,
00000100
00000010
00000001
00000100
00000010
00010000
00001000
00000000
,
00010000
00001000
00010000
00000000
00011000
00000000
01000000
00000000
,
00010000
01000000
00100000
10000000
,
01000000
10000000
01000000
10000000
,
00010000
01000000
00100000
01000000
,
00010000
01000000
00001000
00010000
,
00001000
00010000
00000100
00000010
,
00000001
00001000
00000100
00000010
,
00000001
00000100
00000010
00001000
,
00000001
00000100
00000000
00000010
,
00000010
00001000
00000100
00010000
,
00001000
00010000
00001000
01000000
,
00100000
10000000
00010000
01000000
,
00010000
01000000
00001000
00010000
,
00001000
00010000
00000100
00001000
,
00000010
00000100
00000001
00001000
,
00000001
00000100
00000010
00001000
,
00000100
00000000
00010000
00000000
,
00001000
00000000
01000000
00000000
,
00100000
00000000
10000000
00000000
,
01000000
00000000
10010000
00000000
,
00100000
00000000
01000000
00000000
,
00001000
00000000
00010000
00000000
,
00000100
00000000
00000010
00000000
,
00000001
00000000
00000110
00000000
,
00001000
00000000
00000100
00000000
,
00010000
00000000
00001000
00000000
,
00100000
00000000
01000000
00000000
,
10000000
00000000
10010000
00000000
,
00100000
00000000
01000000
00000000
,
00001000
00000000
00010000
00000000
,
00000100
00000000
00001000
00000000
,
00000001
00000000
00000110
00000000
,
00000001
00000100
00000000
00000010
,
00000000
00001000
00000000
00000100
,
00010000
00001000
00000000
01000000
,
00000000
00100000
00000000
10000000
,
01000000
10000000
00000000
00010000
,
00000000
01000000
00000000
00100000
,
01000000
00010000
00000000
01000000
,
00000000
00001000
00000000
00010000
,
00001000
00010000
00000000
00000100
,
00000000
00000010
00000000
00000001
,
00000100
00000001
00000000
00001000
,
00000000
00000100
00000000
00000010
,
00000001
00000010
00000000
00000100
,
00000000
00010000
00000000
00001000
,
00010000
00001000
00000000
01000000
,
00000000
10000000
00000000
00100000
,
01000000
00010000
01000000
00001000
,
00010000
00000010
00000100
00000001
,
00001000
00000001
00000100
00000010
,
00001000
00000001
00001000
00000100
,
00010000
00001000
00100000
01000000
,
10000000
00010000
01000000
00100000
,
10000000
00010000
10000000
01000000
,
00100000
00001000
00010000
00000100
,
00001000
00000010
00000100
00000001
,
00001000
00000100
00001000
00000010
,
00000100
00000001
00001000
00000100
,
00010000
00001000
00010000
00001000
,
01000000
00100000
10000000
01000000
,
10000000
00100000
01000000
00010000
,
00100000
01000000
10000000
00010000
,
01000000
00001000
00010000
00000000
,
00011000
00000000
00001000
00010000
00001000
00000000
00011000
00000000
,
00010000
00001000
00010000
00000000
00011000
00000000
00000000
00000000
,
00010000
00000000
00000100
00000000
00001000
00000000
00000001
00000100
,
00000001
00000000
00000010
00000000
00000100
00001000
00000100
00000000
,
00000001
00000100
00000010
00001000
,
00000100
00010000
01000000
00100000
,
00010000
01000000
00100000
10000000
,
00010000
01000000
00001000
00010000
,
00000100
00000000
00001001
00000000
00000001
00000100
00000001
00000000
,
00001000
00000100
00001000
00000000
00000010
00010000
00001000
00000000
,
00011000
00000000
01000000
00000000
00100000
10000000
01000000
00000000
,
00010000
00001000
00000100
00000000
00000001
00000000
00000100
00000000
,
00000110
00000000
00001000
00000000
00000100
00010000
00001000
00000000
,
00100000
01000000
00010000
00000000
00001000
00000100
00000010
00000000
,
00001001
00000000
00000100
00000000
00010000
00001000
01000000
00000000
,
00100000
10010000
10000000
00010000
,
10000000
00100000
01000000
00010000
,
01000000
00001000
00010000
00001000
,
00010000
00000010
00001000
00000001
,
00000100
00000010
00001000
00000100
,
00001000
00000100
00010000
00001000
,
00010000
00001000
01000000
00100000
,
10000000
00010000
01000000
00100000
,
10000000
00010000
20000000
00010000
,
00010000
30010000
02000000
00100000
,
00100000
03100000
00002000
00010000
,
00010000
00013000
00000200
00000010
,
00000010
00000310
00000001
00000100
,
00000010
00001000
00000001
00000100
,
00000010
00001000
00000100
00010000
,
00001000
00010000
00001000
00000100
,
00000010
00010000
01000000
00100000
,
00001000
00010000
00000010
00001000
,
00000100
00010000
00001000
01000000
,
00100000
01000000
00001000
00010000
,
00000100
00000010
00001000
00000001
,
00001000
00001000
00000001
00000000
,
20020000
00000000
00000000
00000000
,
00000000
00000000
00000000
00000000
,
00000000
00000000
00000000
00000000
,
30030000
00000000
00000000
00000000
;
