#TITLE:brightred;
#SUBTITLE:(Convex Remix);
#ARTIST:Shatter remixed by Wip'E"Out;
#TITLETRANSLIT:;
#SUBTITLETRANSLIT:;
#ARTISTTRANSLIT:;
#GENRE:;
#CREDIT:;
#MENUCOLOR:;
#BANNER:brightred-bn.png;
#BACKGROUND:brightred-bg.png;
#LYRICSPATH:;
#CDTITLE:ddrencorecdtitle.png;
#MUSIC:brightred (Convex Remix).mp3;
#OFFSET:-7.143;
#SAMPLESTART:14.244;
#SAMPLELENGTH:13.520;
#SELECTABLE:YES;
#LISTSORT:4;
#BPMS:0.000=135.000;
#STOPS:;
#TICKCOUNT:0.000=2;
#BGCHANGES:;
#KEYSOUNDS:;
#ATTACKS:;

//---------------dance-single - ----------------
#NOTES:
     dance-single:
     :
     Hard:
     8:
     0.447,0.546,0.103,0.037,0.141:
0000
1000
0000
0001
,
0000
0000
1000
0000
0000
0000
0001
1000
,
0100
0001
0000
1000
,
0000
0000
0001
0000
0000
0000
1000
0001
,
1000
0100
1000
0000
0010
0000
0100
0000
0010
0000
1000
0100
1000
0000
0100
0000
,
0010
0000
0001
0000
0100
0010
0100
0000
0001
0000
0010
0000
1000
0000
0010
0000
,
0001
0000
0100
1000
0100
0001
0000
1000
,
0100
0001
0100
0000
1000
0010
0100
0001
,
0001
0010
0001
0000
0100
0000
0010
0000
0100
0000
0001
0010
0001
0000
0010
0000
,
0100
0000
1000
0000
0010
0100
0010
0000
1000
0000
0100
0000
0001
0000
0100
0000
,
1000
0000
0010
0001
0010
1000
0000
0001
,
0010
1000
0010
0000
0001
0100
0010
1000
,
1100
0001
1000
0001
,
0010
0000
0001
0000
0010
0000
0100
1000
,
0100
1000
0001
1000
,
0010
0000
1000
0000
0010
0000
0100
0001
,
1000
0100
1000
0100
0010
0000
0010
0001
,
0000
0001
0100
1000
0100
0000
0100
0001
,
1000
0100
0010
0001
1000
0000
1000
0010
,
0000
0010
1000
0100
0001
0100
1000
0010
,
0001
0100
0001
0100
0010
0000
0010
1000
,
0000
1000
0100
0001
0100
0000
0100
1000
,
0001
0100
0010
1000
0001
0000
0001
0010
,
0000
0010
0001
0100
1000
0100
0001
1000
,
2002
0000
0000
0000
,
0000
0000
0000
0000
,
0000
0000
0000
0000
,
0000
0000
0000
3003
,
1000
0001
1000
0001
,
0100
0010
0100
0010
,
1000
0100
0010
0001
,
0100
1000
0010
0100
,
0001
0101
1000
1100
,
0001
0101
1000
1100
,
0001
0110
1000
0110
,
0001
1010
0100
0011
,
1000
0000
0100
0010
0100
1000
0000
0001
,
0100
0001
0000
1000
0100
0001
0100
1000
,
0001
0000
0010
0100
0010
0001
0000
1000
,
0010
0001
0000
0001
0010
1000
0001
0010
,
0001
0100
0001
0000
0000
0000
1000
0100
1000
0000
0000
0000
0001
1000
0100
0000
,
0000
0000
0010
0100
1000
0000
0000
0000
1000
0000
0010
0000
0100
0000
0001
0000
,
1000
0100
1000
0000
0000
0000
0001
0100
0001
0000
0000
0000
1000
0001
0100
0000
,
0000
0000
0010
0100
0001
0000
0000
0000
0001
0000
0010
0000
0100
0000
1000
0000
,
0001
0100
0001
0000
1000
0000
0100
0010
0100
0000
1000
0000
0010
0100
0010
0000
,
1000
0000
0001
0010
0100
0000
1000
0000
0001
0100
0001
0000
1000
0000
0100
0000
,
1000
0010
1000
0000
0001
0000
0010
0100
0010
0000
0001
0000
0100
0010
0100
0000
,
0001
0000
1000
0100
0010
0000
0001
0000
1000
0010
1000
0000
0001
0000
0010
0000
,
0001
0100
0001
0000
0010
0000
0100
0000
0010
0000
0001
0100
0001
0000
0100
0000
,
0010
0000
1000
0000
0100
0010
0100
0000
1000
0000
0010
0000
0001
0000
0010
0000
,
1000
0100
1000
0000
0010
0000
0100
0000
0010
0000
1000
0100
1000
0000
0100
0000
,
0010
0000
0001
0000
0100
0010
0100
0000
0001
0000
0010
0000
0100
0000
1000
0000
,
2002
0000
0000
0000
,
3003
0000
0000
0000
;

//---------------dance-single - ----------------
#NOTES:
     dance-single:
     :
     Beginner:
     2:
     0.141,0.174,0.047,0.019,0.000:
0000
0001
0000
0001
,
0000
1000
0000
1000
,
0000
0001
0000
0001
,
1000
0000
0000
0000
,
0010
0000
0000
0000
,
0100
0000
0000
0000
,
0010
0000
0010
0000
,
1000
0000
0100
0000
,
0010
0000
0000
0000
,
0100
0000
0000
0000
,
0010
0000
0010
0000
,
0001
0000
0100
0000
,
0010
0000
0000
0000
,
1000
0000
0000
0000
,
0001
0000
0000
0000
,
1000
0000
0000
0000
,
1001
0000
0010
0000
,
0100
0000
0001
0000
,
1001
0000
0100
0000
,
0010
0000
1000
0000
,
1001
0000
1000
0000
,
0010
0000
0100
0000
,
1001
0000
0001
0000
,
0010
0000
0100
0000
,
1000
0000
0000
0000
,
0000
0000
0000
0000
,
0001
0000
0000
0000
,
0000
0000
0000
0000
,
1000
1000
1000
0000
,
0001
0000
0100
0000
,
0001
0001
0001
0000
,
0010
0000
0100
0000
,
1000
0001
1000
0000
,
0010
0000
0100
0000
,
0001
1000
0001
0000
,
0010
0000
0100
0000
,
1000
0010
0000
0010
,
0000
0100
0000
0100
,
0001
0100
0000
0100
,
0000
0010
0000
0010
,
1000
0010
0000
0010
,
0000
0100
0000
0100
,
0010
0100
0000
0100
,
0001
0000
1000
0000
,
0001
0000
0010
0000
,
1000
0000
0010
0000
,
0001
0000
0100
0000
,
0010
0000
0010
0000
,
1000
0000
0100
0000
,
0001
0000
0100
0000
,
1000
0000
0010
0000
,
0100
0000
0100
0000
,
2002
0000
0000
0000
,
3003
0000
0000
0000
;

//---------------dance-single - ----------------
#NOTES:
     dance-single:
     :
     Challenge:
     9:
     0.513,0.571,0.131,0.141,0.258:
0000
1100
0000
0101
,
0000
0011
0000
1010
,
0000
0110
0000
1001
,
0200
0000
0000
0300
,
0001
0100
0001
0100
0001
0000
0010
0000
0100
0000
1000
0100
1000
0100
1000
0000
,
0010
0000
0100
0000
0001
1000
0001
1000
0001
0000
0100
0000
0010
0000
1000
0000
,
0100
0000
0010
0100
1000
0010
0000
0100
,
0001
1000
0100
0000
0100
1000
0001
0100
,
0010
1000
0010
1000
0010
0000
0100
0000
0001
0000
0010
0001
0010
0001
0010
0000
,
0100
0000
1000
0000
0010
0100
0010
0100
0010
0000
1000
0000
0001
0000
0010
0000
,
0100
0000
0010
0001
1000
0010
0000
0100
,
0001
0010
0100
0000
0100
1000
0010
0100
,
0002
0000
0203
0000
,
0320
0000
2030
0000
,
3002
0000
2003
0000
,
3200
0000
0320
0000
,
0031
0000
0000
0100
0001
0000
0010
0000
0100
0000
0000
1000
0100
0000
0000
0000
,
1000
0000
0000
0010
1000
0000
0100
0000
0010
0000
0000
0001
0010
0000
0000
0000
,
0001
0000
0000
1000
0010
0000
0100
0000
0001
0000
0000
0010
0001
0000
0000
0000
,
1000
0000
0000
0001
0100
0000
0010
0000
1000
0000
0000
0100
1000
0000
0000
0000
,
0010
0000
1000
0000
0001
0000
0100
0000
1000
0000
0000
0100
0001
0000
0000
0000
,
0010
0000
0001
0000
1000
0000
0100
0000
0001
0000
0000
0100
1000
0000
0000
0000
,
0010
0000
0100
0001
1000
0000
0000
0000
0010
0000
1000
0001
0100
0000
0000
0000
,
0001
0010
0100
1000
0010
1000
0100
0010
,
2002
0000
0000
0000
,
0000
0000
3000
0000
,
0200
0000
0003
0000
,
0020
0000
0300
0000
,
1030
0000
1000
0010
0100
0001
0100
0010
,
1000
0100
0000
1000
0010
0001
0010
0100
,
0001
0000
0001
0100
0010
1000
0010
0100
,
0001
0010
0000
0001
0100
1000
0100
0001
,
1000
0000
1100
0100
1000
0010
0100
0001
,
0010
0100
0000
0010
0001
0100
1000
0100
,
0001
0000
0011
0010
0001
0100
0010
1000
,
0100
0010
0000
0100
1000
0010
0001
0010
,
1000
0000
0101
0010
1000
0100
0001
0100
,
1000
0010
0100
0001
0010
1000
0010
0001
,
0011
0000
1100
0010
0001
0100
1000
0100
,
0001
0010
0100
1000
0010
0001
0010
1000
,
0100
1000
0100
1000
0100
0000
0010
0001
1000
0000
0010
0000
0000
0000
0100
0000
,
0001
0000
0010
0001
0010
0001
0010
0000
0100
1000
0001
0000
0100
0000
0010
0000
,
1000
0001
1000
0001
1000
0000
0010
0100
0001
0000
1000
0000
0000
0000
0100
0000
,
0010
0000
0000
1001
0000
1000
0010
0100
,
0001
0010
0001
0000
0100
0000
0010
1000
0010
0000
1000
0000
0001
1000
0001
0000
,
0010
0000
0100
1000
0100
0000
0010
0000
0001
0100
0010
0000
0100
0010
1000
0000
,
1000
0100
1000
0000
0010
0000
0100
0001
0100
0000
0001
0000
1000
0001
1000
0000
,
0100
0000
0010
0001
0010
0000
0100
0000
1000
0010
0100
0000
0010
0100
0001
0000
,
1000
0100
1000
0100
1000
0000
0010
0000
0100
0000
0001
0100
0001
0100
0001
0000
,
0010
0000
0100
0000
1000
0001
1000
0001
1000
0000
0010
0000
0100
0000
0001
0000
,
0010
0001
0010
0001
0010
0000
0100
0000
1000
0000
0010
1000
0010
1000
0010
0000
,
0100
0001
0010
0000
0010
0001
1000
0010
,
2002
0000
0000
0000
,
3003
0000
0000
0000
;

//---------------dance-single - ----------------
#NOTES:
     dance-single:
     :
     Easy:
     3:
     0.193,0.223,0.047,0.094,0.000:
0000
1000
0000
0001
,
0000
1000
0000
0001
,
0000
0010
0000
0100
,
2002
0000
0000
3003
,
1000
0100
1000
0000
,
0001
0000
0100
0010
,
0100
0000
0001
0000
,
1000
0100
0010
0001
,
0001
0100
0001
0000
,
1000
0000
0100
0010
,
0100
0000
1000
0000
,
0001
0100
0010
1000
,
2000
0000
3000
0000
,
0002
0000
0003
0000
,
2000
0000
3000
0000
,
0002
0000
0003
0000
,
0010
0001
0000
0100
,
0000
0010
0000
1000
,
0100
0010
0000
0001
,
0000
0100
0000
0010
,
1000
0001
1000
0000
,
0010
0100
0001
0000
,
0001
1000
0001
0000
,
0100
0010
1000
0000
,
2002
0000
0000
0000
,
0000
0000
0000
0000
,
0000
0000
0000
0000
,
0000
0000
0000
3003
,
0001
0000
0100
0000
,
0001
0000
0010
0100
,
1000
0000
0010
0000
,
1000
0000
0100
0010
,
0001
0100
0000
1001
,
0000
0100
0000
0010
,
1000
0100
0000
1001
,
0000
0100
0000
0010
,
0001
0100
1000
0100
,
0001
0000
0001
0000
,
1000
0100
0001
0100
,
1000
0000
1000
0000
,
0001
0100
0001
0000
,
0010
0000
0100
0000
,
1000
0010
1000
0000
,
0100
0000
0010
0000
,
0001
0100
0010
1000
,
0001
0010
0100
1000
,
0001
0100
0001
0000
,
1000
0010
1000
0000
,
0100
1000
0001
0100
,
0010
1000
0001
0010
,
0001
0100
0001
0000
,
1000
0100
1000
0000
,
2002
0000
0000
0000
,
3003
0000
0000
0000
;

//---------------dance-single - ----------------
#NOTES:
     dance-single:
     :
     Medium:
     6:
     0.285,0.323,0.131,0.075,0.000:
0000
0001
0000
1000
,
0000
0001
0000
0100
,
0001
0100
0000
0010
,
0000
0100
0000
0001
,
1000
0000
0010
0000
1000
0100
0010
0000
,
0001
0000
0100
0000
0001
0010
0100
0000
,
1000
0000
0001
0000
,
0010
0001
0100
0000
0010
1000
0100
0000
,
1000
0000
0001
0000
1000
0010
0100
0000
,
0001
0000
1000
0000
0001
0010
0100
0000
,
1000
0000
0001
0000
,
0100
0001
0010
0000
0100
1000
0010
0000
,
0100
0000
0001
0000
,
0010
0000
0000
0000
0100
0000
1000
0100
,
1000
0000
1000
0000
,
0010
0000
0000
0000
0100
0000
0001
0100
,
0002
0010
0000
0010
,
0000
0000
0010
0000
0000
0000
0013
0001
,
2000
0100
0000
0100
,
0000
0000
0100
0000
0000
0000
3100
0010
,
0200
1000
0000
0001
,
0000
0000
1000
0000
0000
0000
0310
0100
,
0020
0001
0000
1000
,
0000
0001
0000
0130
,
2002
0000
0000
0000
,
0000
0000
0000
0000
,
0000
0000
0000
0000
,
0000
0000
0000
3003
,
1000
0010
0100
0001
,
0010
0000
0100
0000
0010
0000
0001
1000
,
0010
0100
0001
1000
,
0010
0000
1000
0000
0100
0000
0010
0001
,
0100
0101
0000
0110
,
0000
0000
1010
0000
0000
0000
0001
1000
,
0010
1100
0000
0110
,
0000
0000
0011
0000
0000
0000
1000
0001
,
0100
0101
0001
1001
,
1000
0000
1100
0000
0100
0000
1000
0100
,
0010
1100
1000
1001
,
0001
0000
0101
0000
0100
0000
0001
0010
,
0100
0010
0100
0000
1000
0000
0010
0000
,
0100
0001
1000
0000
0100
1000
0001
0000
,
0010
0100
0010
0000
0001
0000
0100
0000
,
0010
1000
0001
0000
0010
0001
1000
0000
,
0001
0100
1000
0100
,
0001
0010
0100
0100
,
1000
0010
0001
0010
,
1000
0100
0010
0010
,
0001
0100
0001
0000
1000
0100
1000
0000
,
0010
0000
0100
0000
0001
0010
0100
1000
,
0001
0000
0100
0000
0010
1000
0100
0000
,
1000
0001
1000
0000
0001
1000
0001
0000
,
2002
0000
0000
0000
,
3003
0000
0000
0000
;

//---------------dance-double - ----------------
#NOTES:
     dance-double:
     :
     Challenge:
     9:
     0.494,0.571,0.159,0.141,0.145: // measure 1
00000000
00000101
00000000
00000101
,  // measure 2
00000000
00011000
00000000
00011000
,  // measure 3
00000000
11000000
00000000
11000000
,  // measure 4
00020000
00000000
00000000
00030000
,  // measure 5
10000000
01000000
10000000
01000000
10000000
00000000
00100000
00000000
01000000
00000000
00010000
01000000
00010000
01000000
00010000
00000000
,  // measure 6
00100000
01000000
10000000
00010000
00100000
00001000
00010000
00000010
,  // measure 7
00001000
00000000
00000010
00000100
00000001
00000010
00000000
00000100
,  // measure 8
00001000
00000010
00000100
00000000
00000100
00000001
00001000
00000100
,  // measure 9
00000010
00000001
00000010
00000001
00000010
00000000
00000100
00000000
00001000
00000000
00000010
00001000
00000010
00001000
00000010
00000000
,  // measure 10
00000100
00000001
00001000
00000010
00010000
00001000
00100000
01000000
,  // measure 11
10000000
00000000
00100000
01000000
00010000
00100000
00000000
01000000
,  // measure 12
10000000
00100000
01000000
00000000
01000000
00010000
10000000
01000000
,  // measure 13
00200000
00000000
02300000
00000000
,  // measure 14
23000000
00000000
30020000
00000000
,  // measure 15
02030000
00000000
03002000
00000000
,  // measure 16
00023000
00000000
00030020
00000000
,  // measure 17
00000130
00000000
00000101
00000000
00000010
00000000
00001000
00000100
,  // measure 18
00000010
00000000
00011000
00000000
00001000
00000000
00100000
00010000
,  // measure 19
01000000
00000000
10100000
00000000
01000000
00000000
00010000
00100000
,  // measure 20
01000000
00000000
00011000
00000000
00010000
00000000
00000100
00001000
,  // measure 21
00000010
00000100
00000001
00001000
00000010
00000000
00010000
00000100
,  // measure 22
00010000
00001000
01000000
00010000
00100000
00000000
01000000
10000000
,  // measure 23
00010000
01000000
00001000
00010000
00000100
00000000
00010000
00000010
,  // measure 24
00001000
00000001
00000010
00000100
00001000
00000000
00000010
00010000
,  // measure 25
00022000
00000000
00000000
00000000
,  // measure 26
00000000
00000000
00003000
00000000
,  // measure 27
02000000
00000000
00030000
00000000
,  // measure 28
20000000
00000000
03000000
00000000
,  // measure 29
30010000
00000000
00010000
01000000
00100000
10000000
01000000
00100000
,  // measure 30
00001000
00010000
00000000
00000100
00001000
00000010
00000001
00000010
,  // measure 31
00001000
00000000
00001000
00000100
00000010
00000001
00000100
00000010
,  // measure 32
00010000
00001000
00000000
01000000
00010000
00100000
10000000
00100000
,  // measure 33
00010000
00000000
11000000
00100000
00010000
01000000
00001000
00010000
,  // measure 34
00000010
00000100
00000000
00000001
00000010
00000100
00001000
00000001
,  // measure 35
00000010
00000000
00000101
00000010
00001000
00000100
00010000
00001000
,  // measure 36
00100000
01000000
00000000
10000000
00100000
01000000
00010000
10000000
,  // measure 37
01000000
00000000
11000000
10000000
00010000
00100000
00001000
00010000
,  // measure 38
00000100
00000100
00001000
00000001
00000100
00001000
00000100
00000001
,  // measure 39
00000011
00000000
00000101
00000001
00001000
00000010
00010000
00001000
,  // measure 40
01000000
01000000
00010000
10000000
01000000
00010000
01000000
10000000
,  // measure 41
00010000
01000000
00010000
01000000
00010000
00000000
00100000
01000000
10000000
00000000
00010000
00000000
00100000
00000000
00001000
00000000
,  // measure 42
00010000
00000000
00000010
00001000
00000010
00001000
00000010
00000000
00000100
00000001
00001000
00000000
00000010
00000000
00000010
00000000
,  // measure 43
00001000
00000100
00001000
00000100
00001000
00000000
00000010
00000100
00000001
00000000
00001000
00000000
00000010
00000000
00010000
00000000
,  // measure 44
00001000
00000000
00100000
00010000
00100000
00010000
00100000
00000000
01000000
00000000
10000000
00000000
00010000
00000000
01000000
00000000
,  // measure 45
00100000
00000000
10000000
01000000
00100000
00000000
00010000
00000000
01000000
00000000
00001000
00000000
00010000
00000000
00000010
00000000
,  // measure 46
00000100
00000001
00001000
00000100
00010000
00000010
00001000
00000010
,  // measure 47
00000100
00000000
00000001
00000010
00000100
00000000
00001000
00000000
00000010
00000000
00010000
00000000
00001000
00000000
00100000
00000000
,  // measure 48
01000000
10000000
00010000
01000000
00001000
00100000
00010000
00100000
,  // measure 49
01000000
10000000
00010000
00100000
01000000
00000000
10000000
00000000
00010000
00000000
00100000
00010000
01000000
00100000
10000000
00000000
,  // measure 50
00010000
00000000
01000000
00000000
00001000
00010000
00001000
00010000
00001000
00000000
00010000
00000000
00000010
00000000
00000100
00000000
,  // measure 51
00000010
00001000
00000001
00000100
00000010
00000000
00001000
00000000
00000001
00000000
00000010
00000001
00000100
00000010
00001000
00000000
,  // measure 52
00000100
00010000
00001000
00000000
01000000
00001000
00010000
00000100
,  // measure 53
00022000
00000000
00000000
00000000
,  // measure 54
00033000
00000000
00000000
00000000
;

//---------------dance-double - ----------------
#NOTES:
     dance-double:
     :
     Hard:
     8:
     0.391,0.447,0.112,0.112,0.037: // measure 1
00000000
00000001
00000000
00001000
,  // measure 2
00000000
00010000
00000000
10000000
,  // measure 3
00010000
10000000
00000000
00010000
,  // measure 4
00000000
00001000
00000000
00000001
,  // measure 5
00000010
00000000
00000001
00000010
00000001
00000000
00000100
00000000
00000010
00000000
00001000
00000010
00001000
00000000
00000100
00000000
,  // measure 6
00000010
00000000
00000100
00001000
00000010
00010000
00001000
01000000
,  // measure 7
00010000
00000000
00100000
01000000
10000000
00100000
00000000
01000000
,  // measure 8
00010000
10000000
01000000
00000000
01000000
10000000
00010000
00000000
,  // measure 9
00100000
00000000
00010000
00100000
00010000
00000000
01000000
00000000
00100000
00000000
10000000
00100000
10000000
00000000
01000000
00000000
,  // measure 10
00100000
00000000
01000000
10000000
00010000
00100000
00001000
00010000
,  // measure 11
00000010
00000000
00000100
00000001
00000010
00000100
00000000
00001000
,  // measure 12
00000001
00000100
00000010
00000000
00000010
00001000
00000001
00000000
,  // measure 13
00000200
00000000
00000302
00000000
,  // measure 14
00000203
00000000
00000302
00000000
,  // measure 15
00002003
00000000
00003020
00000000
,  // measure 16
00002030
00000000
00003020
00000000
,  // measure 17
00010030
00001000
01000000
00010000
,  // measure 18
00100000
00000000
01000000
00000000
10000000
00000000
00100000
01000000
,  // measure 19
00010000
10000000
01000000
00100000
,  // measure 20
00010000
00000000
01000000
00000000
00001000
00000000
00010000
00000010
,  // measure 21
00001000
00001100
00000001
00000101
,  // measure 22
00000010
00000000
00010000
00000000
00001000
00000000
00100000
00010000
,  // measure 23
10000000
11000000
00010000
01010000
,  // measure 24
00100000
00000000
00001000
00000000
00010000
00000000
00000010
00002000
,  // measure 25
00000002
00000000
00000000
00000000
,  // measure 26
00000000
00000000
00000000
00000000
,  // measure 27
00000000
00000000
00000000
00000000
,  // measure 28
00000000
00000000
00000000
00003003
,  // measure 29
00000001
00000000
00000100
00000010
00000100
00000010
00001000
00000100
,  // measure 30
00010000
00001000
00000000
01000000
00010000
00100000
01000000
10000000
,  // measure 31
00100000
00000000
00100000
01000000
00100000
01000000
00010000
00100000
,  // measure 32
00001000
00010000
00000000
00000100
00001000
00000010
00000100
00000001
,  // measure 33
00001000
00000000
00000101
00000000
00000010
00001000
00000100
00000000
,  // measure 34
00000010
00000000
00001100
00000000
00000100
00010000
00001000
00000000
,  // measure 35
01000000
00000000
01010000
00000000
10000000
00010000
00100000
00000000
,  // measure 36
01000000
00000000
11000000
00000000
00010000
10000000
00010000
00000000
,  // measure 37
10100000
01000000
10000000
01000000
10000000
00010000
01000000
00000000
,  // measure 38
00100000
01000000
00001000
00010000
00000010
00000100
00000100
00000000
,  // measure 39
00000101
00000010
00000001
00000010
00000001
00001000
00000010
00000000
,  // measure 40
00000100
00000010
00010000
00001000
01000000
00100000
00100000
00000000
,  // measure 41
10000000
00000000
01000000
10000000
00010000
00000000
00000000
00000000
01000000
00000000
00001000
00000000
00000000
00000000
00010000
00000000
,  // measure 42
00001000
00000000
00000000
00000000
00100000
00010000
01000000
00000000
00000000
00000000
00001000
00000000
00010000
00000000
00010000
00000000
,  // measure 43
00000010
00000000
00000100
00000001
00001000
00000000
00000000
00000000
00000100
00000000
00010000
00000000
00000000
00000000
00001000
00000000
,  // measure 44
00010000
00000000
00000000
00000000
00000010
00001000
00000100
00000000
00000000
00000000
00010000
00000000
00001000
00000000
00001000
00000000
,  // measure 45
00100000
00010000
01000000
00000000
00100000
10000000
00010000
00000000
,  // measure 46
00100000
00001000
00010000
00000100
00010000
00001000
00100000
00000000
,  // measure 47
00100000
00010000
01000000
00000000
00100000
10000000
00010000
00000000
,  // measure 48
00100000
00001000
00010000
00000010
00001000
00000000
00001001
00000000
,  // measure 49
00000100
00001000
00000010
00000000
00000100
00000001
00001000
00000000
,  // measure 50
00000100
00010000
00001000
00100000
00001000
00010000
00000010
00001000
,  // measure 51
00000100
00000000
00000010
00000001
00001000
00000100
00000000
00010000
,  // measure 52
00001000
01000000
00100000
00000000
00100000
10000000
00010000
00000000
,  // measure 53
20020000
00000000
00000000
00000000
,  // measure 54
30030000
00000000
00000000
00000000
;

//---------------dance-double - ----------------
#NOTES:
     dance-double:
     :
     Medium:
     6:
     0.273,0.372,0.056,0.112,0.000: // measure 1
00000000
10000000
00000000
01000000
,  // measure 2
00000000
00100000
00000000
00010000
,  // measure 3
00000000
01000000
00000000
00001000
,  // measure 4
00000000
00010000
00000000
00001000
,  // measure 5
00010000
00000000
00000010
00000000
00000100
00000001
00000100
00000000
,  // measure 6
00000010
00000000
00001000
00000000
00000100
00001000
00000100
00000000
,  // measure 7
00010000
00000000
00001000
00000000
,  // measure 8
01000000
00000000
00010000
00000000
00100000
00010000
01000000
00000000
,  // measure 9
00010000
00000000
10000000
00000000
00100000
10000000
00100000
00000000
,  // measure 10
01000000
00000000
00010000
00000000
00100000
00010000
00100000
00000000
,  // measure 11
00001000
00000000
00010000
00000000
,  // measure 12
00000010
00000000
00001000
00000000
00000100
00000010
00000001
00000000
,  // measure 13
00002000
00000000
00003002
00000000
,  // measure 14
00002003
00000000
00003002
00000000
,  // measure 15
00000203
00000000
00000320
00000000
,  // measure 16
00000230
00000000
00000320
00000000
,  // measure 17
00001030
00000100
00000000
00010000
,  // measure 18
00000000
00000000
00001000
00000000
00000000
00000000
01000000
00010000
,  // measure 19
01000000
00010000
00000000
00100000
,  // measure 20
00000000
00000000
01000000
00000000
00000000
00000000
10000000
00010000
,  // measure 21
10000000
00010000
00000000
00100000
,  // measure 22
00000000
00000000
00001000
00000000
00000000
00000000
00010000
00000100
,  // measure 23
00010000
00000100
00000000
00000010
,  // measure 24
00000000
00000001
00000000
00001000
,  // measure 25
00002002
00000000
00000000
00000000
,  // measure 26
00000000
00000000
00000000
00000000
,  // measure 27
00000000
00000000
00000000
00000000
,  // measure 28
00000000
00000000
00000000
00003003
,  // measure 29
00000001
00000100
00000001
00000010
,  // measure 30
00000100
00000000
00001000
00000000
00000010
00000000
00010000
00001000
,  // measure 31
00010000
00001000
01000000
00010000
,  // measure 32
00100000
00000000
01000000
00000000
10000000
00000000
00010000
10000000
,  // measure 33
00010000
00000000
00100000
01000000
10000000
00000000
00010000
00000000
,  // measure 34
00100000
00000000
00001000
00000000
00010000
00000000
00000010
00000100
,  // measure 35
00000010
00000000
00001000
00000001
00000100
00000000
00000010
00000000
,  // measure 36
00001000
00000100
00010000
00000010
,  // measure 37
00001000
00001100
00000001
00000101
,  // measure 38
00000010
00000000
00010000
00000000
00001000
00000000
00001000
00100000
,  // measure 39
00010000
01010000
10000000
11000000
,  // measure 40
00100000
00000000
00001000
00000000
00010000
00000000
00010000
00000100
,  // measure 41
00001000
00000010
00000100
00000100
,  // measure 42
00000001
00000010
00000100
00001000
,  // measure 43
00000010
00010000
00001000
00001000
,  // measure 44
01000000
00010000
00100000
01000000
,  // measure 45
10000000
01000000
10000000
00000000
00010000
01000000
00010000
00000000
,  // measure 46
00100000
00001000
00010000
00000010
,  // measure 47
00001000
00000100
00001000
00000000
00000001
00000100
00000001
00000000
,  // measure 48
00000100
00000010
00010000
00001000
,  // measure 49
00100000
00010000
00100000
00010000
00100000
01000000
10000000
00000000
,  // measure 50
00010000
01000000
00010000
01000000
00001000
00010000
00000100
00000000
,  // measure 51
00000010
00000001
00000100
00000010
,  // measure 52
00010000
00000000
00001000
00000000
,  // measure 53
00022000
00000000
00000000
00000000
,  // measure 54
00033000
00000000
00000000
00000000
;

//---------------dance-double - ----------------
#NOTES:
     dance-double:
     :
     Easy:
     4:
     0.201,0.248,0.075,0.075,0.000: // measure 1
00000000
00010000
00000000
01000000
,  // measure 2
00000000
00001000
00000000
00010000
,  // measure 3
00000000
00000010
00000000
00001000
,  // measure 4
00000000
00000100
00000000
00010000
,  // measure 5
00001000
00000000
00001000
00000000
,  // measure 6
00100000
00010000
01000000
00100000
,  // measure 7
10000000
00000000
00010000
00000000
,  // measure 8
10000000
01000000
00100000
00001000
,  // measure 9
00010000
00000000
00010000
00000000
,  // measure 10
00000010
00001000
00000100
00000010
,  // measure 11
00000001
00000000
00001000
00000000
,  // measure 12
00000001
00000100
00000010
00010000
,  // measure 13
00002000
00000000
00003000
00000000
,  // measure 14
00020000
00000000
00030000
00000000
,  // measure 15
00002000
00000000
00003000
00000000
,  // measure 16
00020000
00000000
00030000
00000000
,  // measure 17
00001000
00100000
00010000
00000000
,  // measure 18
01000000
00010000
00100000
00000000
,  // measure 19
01000000
10000000
00010000
00000000
,  // measure 20
00100000
00001000
00010000
00000000
,  // measure 21
00010000
00000010
00001000
00000000
,  // measure 22
00000100
00001000
00000010
00000000
,  // measure 23
00000100
00000001
00001000
00000000
,  // measure 24
00000100
00010000
00001000
00000000
,  // measure 25
00022000
00000000
00000000
00000000
,  // measure 26
00000000
00000000
00000000
00000000
,  // measure 27
00000000
00000000
00000000
00000000
,  // measure 28
00000000
00000000
00000000
00033000
,  // measure 29
00000100
00000000
00001000
00000000
,  // measure 30
00000010
00000000
00000100
00000001
,  // measure 31
00000010
00000000
00000100
00000000
,  // measure 32
00010000
00000000
00001000
01000000
,  // measure 33
00010000
00000000
00100000
00000000
,  // measure 34
01000000
00000000
10000000
00010000
,  // measure 35
00100000
00000000
00001000
00000000
,  // measure 36
00010000
00000000
00000010
00000100
,  // measure 37
00000001
00001000
00000000
00000100
,  // measure 38
00000000
00010000
00000000
00001000
,  // measure 39
01000000
00010000
00000000
00100000
,  // measure 40
00000000
01000000
00000000
10000000
,  // measure 41
00010000
01010000
00000000
00011000
,  // measure 42
00000000
00001100
00000000
00000001
,  // measure 43
00001000
00001010
00000000
00011000
,  // measure 44
00000000
00110000
00000000
01000000
,  // measure 45
10000000
01000000
00100000
00010000
,  // measure 46
01000000
00001000
00010000
00000010
,  // measure 47
00001000
00000100
00000010
00000001
,  // measure 48
00001000
00000010
00000100
00000100
,  // measure 49
00000001
00000010
00000100
00001000
,  // measure 50
00000010
00010000
00001000
01000000
,  // measure 51
00010000
00100000
01000000
10000000
,  // measure 52
00010000
01000000
00001000
00001000
,  // measure 53
00022000
00000000
00000000
00000000
,  // measure 54
00033000
00000000
00000000
00000000
;
