#TITLE:astrum*;
#SUBTITLE:;
#ARTIST:MMM UndRground;
#TITLETRANSLIT:;
#SUBTITLETRANSLIT:;
#ARTISTTRANSLIT:;
#GENRE:;
#CREDIT:;
#MENUCOLOR:;
#METERTYPE:DDR;
#BANNER:Astrum-bn.png;
#BACKGROUND:astrum-bg.png;
#LYRICSPATH:;
#CDTITLE:;
#MUSIC:astrum.mp3;
#OFFSET:-0.015;
#SAMPLESTART:23.840;
#SAMPLELENGTH:12.160;
#SELECTABLE:YES;
#LISTSORT:;
#BPMS:0.000=161.282,96.000=80.641,111.000=161.282;
#STOPS:177.000=1.116
;
#BGCHANGES:;
#ATTACKS:;

//---------------dance-single - [Ness]----------------
#NOTES:
     dance-single:
     [Ness]:
     Hard:
     8:
     0.497,0.618,0.305,0.179,0.058: // measure 1
0000
0000
0000
0000
,  // measure 2
0000
0000
0000
0000
,  // measure 3
0000
0000
0000
0000
,  // measure 4
0000
0000
0000
0000
,  // measure 5
0000
0000
0000
0000
,  // measure 6
0000
0000
0000
0000
,  // measure 7
0000
0000
0000
0000
,  // measure 8
0000
0000
0000
0000
,  // measure 9
1000
0010
0100
0001
1000
0000
0000
0000
,  // measure 10
0100
0010
0001
1000
0100
0000
1100
0000
,  // measure 11
0200
0000
2300
0000
,  // measure 12
3020
0000
0230
0000
,  // measure 13
0301
0000
1000
0010
1000
0000
1000
0100
,  // measure 14
1000
0000
0001
0010
0001
0000
0001
0100
,  // measure 15
0001
0000
0100
1000
0100
0000
0100
0010
,  // measure 16
0100
0000
0010
1000
0001
0000
0010
0000
,  // measure 17
1001
0000
1000
0010
0000
0001
0010
0000
,  // measure 18
1001
0000
0001
0010
0000
1000
0010
0000
,  // measure 19
0110
0000
1000
0010
0000
1000
0100
0000
,  // measure 20
1100
0000
0100
1000
0001
0100
0001
0100
,  // measure 21
0010
0000
1000
0100
0000
0010
0001
0000
,  // measure 22
1001
0000
0001
0100
0000
1000
0100
0000
,  // measure 23
0110
0000
0100
0001
0000
0010
0001
0000
,  // measure 24
0110
0000
0010
0001
0100
0000
0010
0000
,  // measure 25
1000
0000
0000
0100
0000
0000
1000
0000
0000
0100
0000
0000
1000
0000
0100
1000
,  // measure 26
0001
0000
0000
1000
0000
0000
0010
0000
0000
0100
0000
0000
0001
0000
1000
0001
,  // measure 27
0100
0000
0000
0001
0000
0000
0100
0000
0000
0001
0000
0000
0100
0000
0001
0100
,  // measure 28
0010
0000
0000
1000
0000
0000
0100
0000
0000
0010
0000
0000
0001
0000
0010
0000
,  // measure 29
0100
1000
0001
0100
0001
1000
0100
1000
,  // measure 30
0001
0100
0001
1000
0100
1000
0001
0100
,  // measure 31
0001
0000
1000
0010
1000
0001
0010
0001
,  // measure 32
1000
0010
0001
1000
0100
0001
1000
0001
,  // measure 33
0010
0100
1000
0100
0010
0001
1000
0001
,  // measure 34
0100
0010
1000
0100
0001
0100
0010
0000
,  // measure 35
0001
0100
0010
1000
0010
1000
0001
0010
,  // measure 36
0001
0010
0100
1000
0001
0100
0010
1000
,  // measure 37
0100
0001
0100
0000
1100
0000
0000
1001
,  // measure 38
0000
0000
0010
0000
1010
0000
0000
1001
,  // measure 39
0000
0000
0001
0000
0101
0000
0000
1001
,  // measure 40
0000
0000
0011
0000
0010
0100
1000
0001
,  // measure 41
1000
0100
1000
0000
0010
0100
0000
0010
,  // measure 42
0100
0000
0001
0000
0010
0100
0000
0010
,  // measure 43
0100
0000
1000
0000
0100
0010
0000
0001
,  // measure 44
0100
0000
0001
0000
0100
0010
1000
0000
,  // measure 45
0000
0000
0000
0000
1001
0000
1000
0010
,  // measure 46
0100
0001
1000
0000
0001
0000
0010
0100
,  // measure 47
1000
0001
0100
0000
0010
0000
1000
0001
,  // measure 48
0100
0010
1000
0000
0100
0000
1000
0100
,  // measure 49
0010
0001
0010
0100
1000
0000
0001
0100
,  // measure 50
0010
1000
0100
0000
0010
0000
0001
1000
,  // measure 51
0010
0100
0001
0000
1000
0000
0100
0010
,  // measure 52
0001
0100
0010
0000
1000
0000
0001
0010
,  // measure 53
0100
0000
1001
1100
,  // measure 54
1000
0001
0101
0000
1000
0000
0011
0000
,  // measure 55
0010
0100
1100
0000
0001
0000
1100
0000
,  // measure 56
0010
1000
1001
0000
0100
0000
0001
1000
,  // measure 57
0010
0100
0001
1000
0001
0000
0101
1000
,  // measure 58
0100
0000
1100
0000
0010
0000
0011
1000
,  // measure 59
0010
0000
1010
0000
0100
0000
1100
0001
,  // measure 60
0100
0000
0101
0000
0010
0000
0001
1000
,  // measure 61
0010
0100
0000
0001
0100
0000
0010
0000
1001
0000
0000
0000
0001
0000
0020
0000
,  // measure 62
0001
0030
2001
0000
3001
0020
0001
0030
,  // measure 63
1001
0000
0001
2000
0100
3000
0100
0020
,  // measure 64
0100
0030
0120
0000
0130
2000
0100
3000
,  // measure 65
0110
0000
0100
1000
0002
0000
0000
0203
,  // measure 66
0000
0000
0302
0000
0000
0203
0000
0000
,  // measure 67
0301
0000
0001
0100
0020
0000
0000
2030
,  // measure 68
0000
0000
3200
0000
0000
0320
0000
0000
,  // measure 69
0031
0000
0001
2000
0000
0000
0000
0000
,  // measure 70
3000
0000
0000
0000
;

//---------------dance-single - [Ness]----------------
#NOTES:
     dance-single:
     [Ness]:
     Medium:
     6:
     0.320,0.368,0.099,0.054,0.000:
0000
0000
0000
0000
,
0000
0000
0000
0000
,
0000
0000
0000
0000
,
0000
0000
0000
0000
,
0000
0000
0000
0000
,
0000
0000
0000
0000
,
0000
0000
0000
0000
,
0000
0000
0000
0000
,
1000
0001
0101
0000
,
0001
1000
0001
0000
0010
0000
0000
0000
,
0001
1000
1100
0000
,
0001
1000
0010
0000
0100
0000
0000
0000
,
0010
0000
1000
0001
1000
0000
0000
0000
,
0010
0000
0100
0010
0100
0000
0000
0000
,
0001
0010
0100
1000
,
0001
1000
1001
0000
,
1000
0000
0100
1000
0100
0000
1000
0000
,
0001
0000
0100
0001
0100
0000
0001
0000
,
1000
0000
0010
1000
0010
0000
1000
0000
,
0001
0000
0010
0001
0010
0000
0100
0000
,
1000
0000
0100
1000
0100
0000
0010
0000
,
0001
0000
0010
0001
0010
0000
0100
0000
,
1000
0000
0001
1000
0001
0000
1000
0000
,
0010
0000
1000
0010
1000
0000
0000
0000
,
0010
0000
0000
0010
0000
0000
0100
0000
,
0001
0000
0000
1000
0000
0000
0100
0000
,
0010
0000
0000
0010
0000
0000
0001
0000
,
1000
0000
0000
0010
0000
0000
0100
0000
,
0001
1000
0100
0010
,
0001
0000
0100
0000
0010
0000
1000
0001
,
1000
0010
0100
0001
,
0010
0100
1000
0010
,
0100
0001
0010
0100
,
1000
0001
0100
0001
,
1000
0000
0100
0000
0010
0100
0010
0000
,
0100
0000
1000
0000
0100
1000
0100
0000
,
0010
0000
0001
0000
0100
0000
0000
0100
,
0000
0000
0010
0000
1000
0000
0000
1000
,
0000
0000
0100
0000
0010
0000
0000
0010
,
0000
0000
0001
0000
1000
0001
1000
0000
,
0010
0000
0100
0000
0001
0000
0000
0001
,
0000
0000
0010
0000
0100
0000
0000
0100
,
0000
0000
1000
0000
0010
0000
0000
0010
,
0000
0000
0100
0000
0001
0100
0001
0000
,
0000
0000
0000
0000
0010
0000
0000
1000
,
0000
0100
1000
0000
0001
0000
0000
0010
,
0000
0001
0010
0000
0001
0000
0000
0100
,
0000
0010
0100
0000
0010
0000
1000
0000
,
0100
0000
0010
0000
0001
0000
0000
1000
,
0000
0001
1000
0000
0010
0000
0000
1000
,
0000
0100
1000
0000
0001
0000
0000
0100
,
0000
0001
0010
0000
0001
0000
0010
0001
,
0010
0100
1000
0010
,
1000
0101
1000
0100
,
1000
0011
0010
0100
,
1000
0000
1001
0000
1000
0000
0010
1000
,
0010
0100
0001
0101
,
1000
1100
0001
0101
,
1000
1100
0001
0010
,
0100
0000
1000
0000
0001
0000
1000
0001
,
0010
0100
1001
1000
,
0001
0001
0100
0100
,
0010
0010
1000
0100
,
0010
0100
1000
0010
,
0100
0001
0020
0000
,
0000
0230
0000
0000
,
2300
0000
3002
0000
,
0000
0203
0000
0000
,
0320
0000
1030
0000
;

//---------------dance-single - [Ness]----------------
#NOTES:
     dance-single:
     [Ness]:
     Easy:
     3:
     0.188,0.246,0.000,0.054,0.000:
0000
0000
0000
0000
,
0000
0000
0000
0000
,
0000
0000
0000
0000
,
0000
0000
0000
0000
,
0000
0000
0000
0000
,
0000
0000
0000
0000
,
0000
0000
0000
0000
,
0000
0000
0000
0000
,
1000
0000
0100
0000
,
0010
0001
0100
0000
,
0001
0000
2000
0000
,
3020
0000
2030
0000
,
3010
0100
0010
0000
,
0100
0001
1000
0000
,
0001
0000
0020
0000
,
0032
0000
0023
0000
,
0130
1000
1000
0000
,
0001
0100
0100
0000
,
0010
1000
1000
0000
,
0001
1000
0001
0000
,
0010
0001
0001
0000
,
1000
0010
0010
0000
,
0100
0001
0001
0000
,
1000
0001
1000
0000
,
0100
0000
0000
0000
,
0010
0000
0001
0000
,
0100
0000
0000
0000
,
0010
0000
1000
0000
,
0000
0100
0000
0100
,
0000
0010
0000
0001
,
0100
0001
0000
1000
,
0000
0010
0000
0100
,
0000
0001
0000
0010
,
0000
0100
0000
1000
,
0100
1000
0000
1000
,
0000
0001
0001
0001
,
0000
0100
0000
0010
,
0000
0010
0000
0100
,
0000
0100
0000
0010
,
0000
0010
0000
0100
,
0000
0001
0000
1000
,
0000
0001
0000
1000
,
0000
0010
0000
0100
,
0000
0010
0000
0100
,
0000
0000
0001
0000
,
0010
0100
1000
0000
,
0100
0010
0001
0000
,
0010
0100
1000
0000
,
0001
0000
1000
0000
,
0010
0100
0001
0000
,
0010
0100
1000
0000
,
0010
0100
0001
0000
,
1000
0000
0100
0100
,
0000
1000
0010
1000
,
0000
0010
0100
0010
,
0000
0100
0001
0000
,
1000
0000
0100
1000
,
0000
0001
1000
0001
,
0000
0010
0001
0010
,
0000
0100
1000
0000
,
0001
0000
0100
0000
,
0000
0010
0000
0000
,
0100
0000
0001
0000
,
0000
1000
0000
0000
,
0001
0000
0010
0000
,
0000
0010
0000
0000
,
0010
0000
0100
0000
,
0000
0100
0000
0000
,
0100
0000
1000
0000
;

//---------------dance-single - [Ness]----------------
#NOTES:
     dance-single:
     [Ness]:
     Beginner:
     1:
     0.082,0.123,0.000,0.000,0.000:
0000
0000
0000
0000
,
0000
0000
0000
0000
,
0000
0000
0000
0000
,
0000
0000
0000
0000
,
0000
0000
0000
0000
,
0000
0000
0000
0000
,
0000
0000
0000
0000
,
0000
0000
0000
0000
,
0010
0000
0000
0000
,
0000
0000
1000
0000
,
0000
0000
0000
0000
,
0000
0000
0100
0000
,
0000
0000
0010
0000
,
0000
0000
0001
0000
,
0000
0000
1000
0000
,
0000
0000
0010
0000
,
0010
0000
0010
0000
,
0000
0000
0100
0000
,
0000
0000
0001
0000
,
0000
0000
1000
0000
,
0000
0000
0100
0000
,
0000
0000
0100
0000
,
0000
0000
0010
0000
,
0000
0000
0001
0000
,
0000
0000
0000
0000
,
0000
0000
0000
0000
,
1000
0000
0000
0000
,
0000
0000
0000
0000
,
0000
0010
0000
0010
,
0000
0010
0000
0010
,
0000
0010
0000
0100
,
0000
0100
0000
0100
,
0000
0100
0000
0000
,
0000
0100
0000
0000
,
0000
0001
0000
0000
,
0000
1000
0000
0000
,
0000
0100
0000
0000
,
0000
0100
0000
0000
,
0000
0010
0000
0000
,
0000
0001
0000
0000
,
0000
0100
0000
0000
,
0000
0100
0000
0000
,
0000
0010
0000
0000
,
0000
1000
0000
1000
,
0000
0000
1000
0000
,
0000
0000
0100
0000
,
0000
0000
0001
0000
,
0000
0000
1000
0000
,
0000
0000
0001
0000
,
0000
0000
0010
0000
,
0000
0000
1000
0000
,
0000
0000
0001
0000
,
1000
0000
0001
0000
,
0000
0000
0010
0000
,
0000
0000
0100
0000
,
0000
0000
1000
0000
,
0000
0000
0010
0000
,
0000
0000
0100
0000
,
0000
0000
0001
0000
,
0000
0000
0010
0000
,
0010
0000
0100
0000
,
0000
0000
0000
0000
,
0000
0000
1000
0000
,
0000
0001
0000
0000
,
1000
0000
1000
0000
,
0000
0000
0000
0000
,
0000
0000
0010
0000
,
0000
0000
0100
0000
,
0000
0000
0001
0000
;

//---------------dance-double - [Ness]----------------
#NOTES:
     dance-double:
     [Ness]:
     Hard:
     8:
     0.494,0.588,0.305,0.197,0.049:
00000000
00000000
00000000
00000000
,
00000000
00000000
00000000
00000000
,
00000000
00000000
00000000
00000000
,
00000000
00000000
00000000
00000000
,
00000000
00000000
00000000
00000000
,
00000000
00000000
00000000
00000000
,
00000000
00000000
00000000
00000000
,
00000000
00000000
00000000
00000000
,
01000000
00001000
00010000
00000100
00000000
00000000
00000000
00000000
,
00000100
00010000
00001000
01000000
00000000
00000000
00100000
00000000
,
00000000
00000000
20000000
00000000
,
30020000
00000000
00032000
00000000
,
00003001
00000000
00001000
00000001
00001000
00000000
00001000
00000100
,
00001000
00000000
00001000
00010000
00001000
00000000
00010000
00000000
,
00100000
00000000
00010000
10000000
00010000
00000000
00010000
01000000
,
00010000
00000000
00010000
00001000
00010000
00000000
00100000
00000000
,
00110000
00000000
00100000
01000000
00000000
10000000
00100000
00000000
,
10010000
00000000
10000000
00010000
00000000
00100000
00001000
00000000
,
00011000
00000000
00010000
00000010
00000000
00000100
00000001
00000000
,
00000101
00000000
00000100
00000001
00000010
00000100
00010000
00001000
,
00010000
00000000
00001000
01000000
00000000
01000000
00010000
00000000
,
10010000
00000000
10000000
00100000
00000000
00100000
01000000
00000000
,
01100000
00000000
10000000
00100000
00000000
10000000
00100000
00000000
,
10000000
00000000
01000000
00100000
00001000
00000000
00000000
00000000
,
00011000
00000000
00000000
00000010
00000000
00000000
00001000
00000000
00000000
00100000
00000000
00000000
10000000
00000000
10000000
01000000
,
10000000
00000000
00000000
00010000
00000000
00000000
00100000
00000000
00000000
00001000
00000000
00000000
00000010
00000000
00000001
00000010
,
00000001
00000000
00000000
00000100
00000000
00000000
00001000
00000000
00000000
00010000
00000000
00000000
00100000
00000000
10000000
00100000
,
10000000
00000000
00000000
01000000
00000000
00000000
00010000
00000000
00000000
00001000
00000000
00000000
00000100
00000000
00000010
00000000
,
00000100
00000010
00000001
00000010
00001000
00010000
00100000
10000000
,
00010000
01000000
10000000
10000000
01000000
00010000
00001000
00000100
,
00000001
00000000
00000001
00000100
00000010
00000010
00010000
00001000
,
00001000
01000000
00010000
00010000
10000000
01000000
01000000
00100000
,
00010000
01000000
00100000
10000000
01000000
00010000
01000000
01000000
,
00100000
00100000
00001000
00010000
00000100
00001000
00000010
00000000
,
00000100
00000001
00000010
00000001
00000100
00000010
00001000
00000100
,
00010000
01000000
10000000
01000000
10000000
00100000
00010000
00100000
,
10000000
00010000
01000000
00000000
11000000
00000000
00000000
10010000
,
00000000
00000000
01000000
00000000
01010000
00000000
00000000
00011000
,
00000000
00000000
00010000
00000000
00001100
00000000
00000000
00001001
,
00000000
00000000
00000010
00000000
00000001
00001000
00000010
00001000
,
00000100
00001000
00010000
00000000
00100000
01000000
00000000
00100000
,
01000000
00000000
10000000
00000000
00100000
01000000
00000000
00100000
,
01000000
00000000
00010000
00000000
00100000
00001000
00000000
00100000
,
00001000
00000000
00010000
00000000
00000100
00001000
00000010
00000000
,
00000000
00000000
00000000
00000000
00000101
00000000
00000100
00000010
,
00001000
00010000
00001000
00000000
00011000
00000000
00001000
00010000
,
00100000
10000000
00100000
00000000
10100000
00000000
10000000
01000000
,
00010000
01000000
00100000
00000000
01100000
00000000
00100000
00001000
,
00010000
00000010
00001000
00000100
00000001
00000000
00000100
00000010
,
00000001
00001000
00000100
00000000
00001100
00000000
00000100
00010000
,
00001000
01000000
00100000
00000000
10100000
00000000
00100000
10000000
,
00010000
00100000
00001000
00000000
00011000
00000000
00001000
00010000
,
00100000
10000000
00010000
01010000
,
01000000
00001000
00010000
00000000
00000100
00000000
00001100
00000000
,
00000100
00000010
00000001
00000000
00000100
00000000
00000110
00000000
,
00000010
00001000
00000100
00000000
00010000
00000000
00011000
00010000
,
00001000
01000000
00010000
10000000
01000000
00000000
00110000
00100000
,
00001000
00010000
00001000
00000000
00010000
00000000
00011000
00010000
,
00000100
00001000
00000010
00000000
00000100
00000000
00000110
00000001
,
00000010
00000100
00010000
00000000
00011000
00000000
00001000
01000000
,
00010000
00000000
10010000
00000000
20100000
00000000
30100000
20000000
,
00100000
30000000
02100000
00000000
03100000
02000000
00100000
03000000
,
00120000
00000000
00130000
00010000
00001000
00000000
00001000
00020000
,
00001000
00030000
00001200
00000000
00001300
00020000
00001000
00030000
,
00021000
00000000
00031000
00100000
00020000
00000000
00000000
02030000
,
00000000
00000000
03002000
00000000
00000000
00003200
00000000
00000000
,
00000302
00000000
00001003
00000001
00000020
00000000
00000000
00000230
,
00000000
00000000
00020300
00000000
00000000
00230000
00000000
00000000
,
01300000
00000000
00010000
20000000
00000000
00000000
00000000
00000000
,
30000000
00000000
00000000
00000000
;

//---------------dance-double - [Ness]----------------
#NOTES:
     dance-double:
     [Ness]:
     Medium:
     6:
     0.365,0.430,0.134,0.215,0.036:
00000000
00000000
00000000
00000000
,
00000000
00000000
00000000
00000000
,
00000000
00000000
00000000
00000000
,
00000000
00000000
00000000
00000000
,
00000000
00000000
00000000
00000000
,
00000000
00000000
00000000
00000000
,
00000000
00000000
00000000
00000000
,
00000000
00000000
00000000
00000000
,
01000000
00100000
00011000
00000000
,
00000100
00000010
00011000
00000000
,
00000010
00000000
00002000
00000000
,
00003200
00000000
00000302
00000000
,
00000103
00000010
00001001
00000001
,
00001000
00000010
00001010
00000010
,
00010000
00001000
00012000
00000000
,
02003000
00000000
23000000
00000000
,
31000000
00000000
00100000
10000000
00100000
00000000
01000000
00000000
,
00010000
00000000
00100000
00010000
00100000
00000000
00001000
00000000
,
00010000
00000000
00000100
00010000
00000100
00000000
00001000
00000000
,
00000010
00000000
00001000
00000010
00001000
00000000
00000001
00000000
,
00000100
00000000
00000010
00000100
00000010
00000000
00000100
00000000
,
00000001
00000000
00001000
00000100
00001000
00000000
00000100
00000000
,
00010000
00000000
00001000
00010000
00001000
00000000
01000000
00000000
,
00010000
00000000
10000000
00010000
10000000
00000000
00100000
00000000
,
10010000
00000000
00000000
10000000
00000000
00000000
00010000
00000000
00000000
10000000
00000000
00000000
00010000
00000000
10000000
00000000
,
00010000
00000000
00000000
00100000
00000000
00000000
00001000
00000000
00000000
00010000
00000000
00000000
00001000
00000000
00010000
00000000
,
00000100
00000000
00000000
00001000
00000000
00000000
00000100
00000000
00000000
00001000
00000000
00000000
00000100
00000000
00001000
00000000
,
00000010
00000000
00000000
00000100
00000000
00000000
00000010
00000000
00000000
00000100
00000000
00000000
00000001
00000000
00000000
00000000
,
00001000
00000000
00000001
00000000
00000001
00000010
00000000
00000010
,
00000001
00000000
00000001
00000100
00000000
00000100
00000010
00000000
,
00001000
00000000
00000100
00000000
00000100
00010000
00000000
00010000
,
00000100
00000000
00000100
00010000
00000000
00010000
00001000
00000000
,
00011000
00001000
01000000
00100000
,
10000000
00000000
01000000
10000000
01000000
10000000
01000000
00000000
,
00100000
00001000
00010000
00001000
,
00010000
00000000
00000100
00000000
00001000
00000001
00000010
00000000
,
00000001
00001000
00000100
00000000
00010000
00000000
00000000
00010000
,
00000000
00000000
00000000
00000000
00001000
00000000
00000000
00001000
,
00000000
00000000
00000000
00000000
01000000
00000000
00000000
01000000
,
00000000
00000000
00000000
00000000
00100000
00000000
00000000
00100000
,
00000000
00000000
10000000
00000000
10000000
01000000
00000000
10000000
,
01000000
00000000
00000000
00000000
00010000
01000000
00000000
00010000
,
01000000
00000000
00000000
00000000
00100000
01000000
00000000
00100000
,
01000000
00010000
00100000
00001000
,
00000000
00000000
00000000
00000000
00011000
00000000
00000000
00010000
,
00000000
00000100
00001000
00000000
00001100
00000000
00000000
00000100
,
00000000
00000010
00000100
00000000
00000010
00000000
00000000
00000001
,
00000000
00001000
00000001
00000000
00000100
00000000
00000000
00000010
,
00000000
00000100
00000010
00000000
00000110
00000000
00000000
00000010
,
00000000
00010000
00001000
00000000
00011000
00000000
00000000
01000000
,
00000000
00010000
01000000
00000000
00100000
00000000
00000000
10000000
,
00000000
01000000
10000000
00000000
00010000
00000000
00100000
00000000
,
00001000
00000000
00011000
00000100
,
00011000
01000000
00011000
00000100
,
00011000
00000000
01000000
00000000
00001000
00000000
00010000
00001000
,
00010000
00000000
00000100
00000000
00001000
00000000
00010000
00001000
,
00010000
00000000
00100000
00000000
01000000
00000000
10000000
00010000
,
10000000
00000000
00100000
00000000
01000000
00000000
00010000
10000000
,
00010000
00000000
00100000
00000000
00001000
00000000
00010000
00001000
,
00010000
00000000
00000100
00000000
00001000
00000000
00000010
00000100
,
00000010
00000000
00000100
00000000
00000002
00000000
00000000
00000023
,
00000000
00000000
00000230
00000000
00000000
00020300
00000000
00000000
,
00031000
00000000
00010000
00000000
00002000
00000000
00000000
02003000
,
00000000
00000000
03020000
00000000
00000000
20030000
00000000
00000000
,
31000000
00000000
00100000
00000000
02000000
00000000
00000000
23000000
,
00000000
00000000
32000000
00000000
00000000
03020000
00000000
00000000
,
01030000
00000000
00100000
00000000
00002000
00000000
00000000
00023000
,
00000000
00000000
00030200
00000000
00000000
00002300
00000000
00000000
,
00003020
00000230
00000301
00000000
;

//---------------dance-double - [Ness]----------------
#NOTES:
     dance-double:
     [Ness]:
     Easy:
     3:
     0.173,0.215,0.000,0.108,0.000:
00000000
00000000
00000000
00000000
,
00000000
00000000
00000000
00000000
,
00000000
00000000
00000000
00000000
,
00000000
00000000
00000000
00000000
,
00000000
00000000
00000000
00000000
,
00000000
00000000
00000000
00000000
,
00000000
00000000
00000000
00000000
,
00000000
00000000
00000000
00000000
,
00100000
00000000
10000000
00000000
,
01000000
00000000
00100000
00000000
,
00001000
00000000
00010000
00000000
,
00000100
00000000
00000100
00000000
,
00000010
00000000
00000001
00000000
,
00000100
00000000
00000010
00000000
,
00010000
00000000
00001000
00000000
,
01000000
00000000
01000000
00000000
,
00100000
00000000
20000000
00000000
,
00000000
00000000
32000000
00000000
,
00000000
00000000
03100000
00000000
,
00001000
00000000
00010000
00000000
,
00000100
00000000
00000020
00000000
,
00000000
00000000
00000032
00000000
,
00000000
00000000
00000103
00000000
,
00000010
00000000
00010000
00000000
,
00001000
00000000
00000000
00000000
,
01000000
00000000
00100000
00000000
,
10000000
00000000
00000000
00000000
,
00010000
00000000
00100000
00000000
,
00000000
00001000
00001000
00010000
,
00010000
00001000
00001000
00010000
,
00000000
00000100
00000100
00001000
,
00001000
00000100
00000100
00001000
,
00000000
00000010
00000000
00000100
,
00000000
00000010
00000000
00000100
,
00000000
00000001
00000000
00000010
,
00000000
00000100
00000000
00010000
,
00000000
00001000
00000000
00000000
,
00000000
00010000
00000000
00000000
,
00000000
00100000
00000000
00000000
,
00000000
01000000
00000000
10000000
,
00000000
00010000
00000000
00000000
,
00000000
01000000
00000000
00000000
,
00000000
00001000
00000000
00000000
,
00000000
00010000
00000000
00000100
,
00000000
00000000
00000010
00000000
,
00000002
00000000
00001003
00000000
,
00000200
00000000
00010300
00000000
,
00002000
00000000
01003000
00000000
,
00020000
00000000
10030000
00000000
,
00200000
00000000
01300000
00000000
,
00020000
00000000
00130000
00000000
,
00002000
00000000
00013000
00000000
,
00000020
00000000
00001030
00000100
,
00000000
00000100
00000000
00000010
,
00000000
00000010
00000001
00000100
,
00000000
00000100
00000010
00010000
,
00000000
00010000
00001000
01000000
,
00000000
01000000
00000000
00100000
,
00000000
00100000
10000000
01000000
,
00000000
01000000
00100000
00001000
,
00000000
00001000
00010000
00010000
,
00000000
00001000
00001000
00000000
,
01000000
01000000
01000000
01000000
,
00000000
00100000
00100000
00000000
,
10000000
10000000
01000000
00000000
,
00000000
00100000
00000000
00000000
,
00001000
00000000
00010000
00000000
,
00000000
00000100
00000000
00000000
,
00001000
00000000
00000001
00000000
;
