#TITLE:Your Song;
#SUBTITLE:(Anthem Mix);
#ARTIST:Obsession;
#TITLETRANSLIT:;
#SUBTITLETRANSLIT:;
#ARTISTTRANSLIT:;
#GENRE:;
#CREDIT:;
#MENUCOLOR:;
#METERTYPE:DDR;
#BANNER:Your Song (Anthem Mix)-bn.png;
#BACKGROUND:Your Song (Anthem Mix).png;
#LYRICSPATH:Your Song (Anthem Mix).lrc;
#CDTITLE:ddrencorecdtitle.png;
#MUSIC:Your Song (Anthem Mix).mp3;
#OFFSET:-0.054;
#SAMPLESTART:63.625;
#SAMPLELENGTH:13.060;
#SELECTABLE:YES;
#LISTSORT:;
#BPMS:0.000=136.007;
#STOPS:;
#BGCHANGES:;
#ATTACKS:;

//---------------dance-single - ----------------
#NOTES:
     dance-single:
     :
     Hard:
     8:
     0.480,0.490,0.352,0.117,0.021:
0000
0000
0000
0000
,
0000
0000
0000
0000
,
0000
0000
0000
0000
,
0000
0000
0000
0000
,
0101
0000
0010
0100
0001
0010
0001
0000
,
1000
0010
0000
0000
0010
0000
1001
0000
,
1000
0000
0001
0010
0000
0001
1000
0100
,
0010
0000
0000
0000
0100
0000
0010
0001
1000
0000
0000
0000
0001
0000
0000
0000
,
0100
0000
0010
1000
0000
0001
0010
0100
,
0000
1000
0010
0100
0000
0100
0010
0000
,
1000
0000
0010
0000
0010
1000
0100
0001
,
0100
1000
0010
0000
0100
0010
1000
0000
,
1001
0000
0010
1000
0000
0001
0010
0001
,
0100
0010
0000
0000
1000
0001
0010
0100
,
0000
0100
1000
0010
0100
0001
0000
1000
,
0000
0010
0100
0001
0000
0010
0100
1000
,
0001
0000
0001
0010
0000
0001
0010
0000
,
0001
0000
1000
0010
0100
0000
0001
0000
,
1100
0000
0010
0100
0001
0010
0100
0000
,
1000
0001
0000
1000
0000
0010
0000
0100
,
0001
0000
1000
0010
1000
0001
0010
0100
,
2000
0010
0100
3100
,
1100
0000
0010
0001
0100
0010
1000
0100
,
0020
0000
0001
0000
0100
0100
0130
0000
,
0011
0000
0001
1000
0010
1000
0001
0010
,
0000
0010
0100
1000
0000
0010
0100
0000
,
0101
0000
1001
0000
0010
1000
0001
0010
,
0200
0000
1000
0000
0010
0010
0310
0000
,
0110
0000
0010
0001
1000
0010
0100
0000
,
1001
0000
0001
0100
0010
1000
0001
0110
,
0000
0011
0000
1001
0000
0101
0000
0110
,
0000
0010
1000
0001
0000
0010
0100
1000
,
0001
0000
1000
0010
0000
1000
0001
0000
,
0101
0000
0010
0100
0001
0000
1000
0000
,
1001
0000
0010
0100
0010
0100
0010
0000
,
1000
0001
0011
1001
,
1100
0000
1000
0001
0100
0010
0100
0000
,
0002
0000
0010
0010
0000
1003
0000
1000
,
0001
0000
0101
0000
0010
1000
0001
0010
,
0100
0000
0010
0000
0001
0010
0001
0000
,
0100
0000
0100
0010
1000
0100
0010
0000
,
0001
0000
0100
0010
1000
0001
0000
0001
,
1000
0000
0101
0000
0010
1000
0001
0010
,
0100
0000
0010
0000
0001
0010
0100
0000
,
0011
0001
1000
0010
0100
0101
0000
0000
,
0101
0100
0010
1000
0001
0101
0000
0000
,
1010
0010
0100
0001
0000
0010
0001
1000
,
0100
0000
1000
0000
0010
1000
0010
0000
,
0100
0000
0001
0000
0100
0010
0100
0000
,
1002
0000
0010
0010
0000
0100
0103
0000
,
0020
0000
1000
1000
0000
0000
0130
0001
,
2000
0000
0010
3020
0000
0100
0130
0000
,
1001
0000
0001
0000
0100
0000
0000
0010
0000
0000
2000
0000
0000
0000
0001
0000
,
3001
0000
0010
0000
0001
0000
0000
1000
0000
0000
0020
0000
0000
0000
0100
0000
,
0130
0000
0001
0000
0010
0000
0000
0100
0000
0000
2000
0000
0000
0000
0010
0000
,
3010
0000
0100
0000
0001
0000
0000
1000
0000
0000
0020
0000
0000
0000
0100
0000
,
0130
0101
0000
0010
1000
1100
0000
0010
,
0001
0011
0000
0001
0100
0110
0000
1000
,
0100
1100
0000
0010
0001
0101
0000
0010
,
0100
0110
0000
0010
1000
1001
0000
1000
,
0010
0100
0001
0010
0100
0010
0001
1000
,
0010
0100
0001
0010
0100
1000
0010
0100
,
0010
1000
0100
0001
0100
0010
0001
0100
,
0101
1001
1010
0110
,
2002
0000
0000
0000
,
3003
0000
0000
0000
;

//---------------dance-single - ----------------
#NOTES:
     dance-single:
     :
     Medium:
     6:
     0.348,0.435,0.142,0.117,0.000:
0000
0000
0000
0000
,
0000
0000
0000
0000
,
0000
0000
0000
0000
,
0000
0000
0000
0000
,
1000
0000
0010
0000
0100
0001
0010
0000
,
0001
0010
0000
0010
0001
0000
1000
0000
,
0010
0000
0100
0001
0000
0000
0100
0010
,
2000
0001
3001
0000
,
0010
0000
0100
0001
0000
1000
0001
0000
,
0100
0000
0001
1000
0000
0100
1000
0000
,
0010
0000
0100
0000
0010
1000
0001
0000
,
0200
0000
0301
0000
,
0010
0000
1000
0100
0000
0100
1000
0000
,
1000
0001
0000
0000
1000
0000
0010
0000
,
1010
0000
0000
0000
0100
0010
0000
0000
,
1001
0000
0010
0100
,
0101
0000
0001
1000
0000
1000
0100
0000
,
0010
0000
0100
1000
0001
0000
0100
0000
,
0010
0000
1000
0100
1000
0100
1000
0000
,
0001
0000
0100
0000
,
0010
0000
1000
0100
0000
1000
0100
1000
,
0000
0010
0000
0000
0100
0000
0100
0000
,
0001
0000
0000
0001
0100
0010
0000
1000
,
0200
0000
1000
1300
,
0001
0000
0100
0001
0100
0001
0000
1000
,
0000
0010
0000
0100
0000
0001
0000
1000
,
0100
0000
1000
0000
0001
0100
0001
0000
,
1000
0010
0100
0001
,
1000
0000
0100
1000
0100
0000
1000
0001
,
1000
0000
0001
0000
0100
0010
1000
0001
,
0000
0100
0000
0001
0000
1000
0000
0100
,
0000
1000
0000
0010
0000
0100
0000
0001
,
0010
0000
0001
0010
0001
0010
0001
0000
,
1000
0000
0010
0100
0000
0000
0010
1000
,
0001
0000
0001
0010
0000
0010
0100
0000
,
1000
0001
0100
0110
,
1002
0000
0000
0000
0000
0103
0010
2000
,
0000
0000
3001
0100
,
0120
0000
0000
0000
1000
1030
0100
2000
,
0010
0010
3100
0100
,
2001
0000
0000
0000
0000
3010
0100
0002
,
0000
0000
0013
0100
,
0120
0000
0000
0000
0001
0031
0100
0020
,
1000
1000
0100
0130
,
0101
0000
0001
1000
0001
0000
1000
0000
,
1100
0000
0100
0010
0100
0000
0010
0000
,
1001
0000
0010
0100
0001
0000
0010
0100
,
0020
0000
0000
0000
,
0031
0000
1000
0001
,
1000
0000
0000
0010
0000
0000
0100
0000
,
0001
0000
0000
0010
0000
0000
0001
0000
,
1000
0000
0010
0100
0000
0100
0001
0000
,
1001
0010
0100
0100
,
1000
0100
0010
0010
,
0001
0010
0100
0010
,
0001
0100
0010
0100
,
0001
0100
0000
0000
0010
1000
0000
0000
,
0010
0100
0000
0000
0001
0100
0000
0000
,
0010
1000
0000
0000
0100
0010
0000
0000
,
0001
1000
0000
0000
0010
0100
0000
0000
,
0010
1000
0001
0000
0010
0100
0010
0000
,
0001
1000
0100
0000
1000
0010
0100
0000
,
0010
1000
0001
0000
0010
0001
0100
0000
,
0110
0110
1001
1001
,
0202
0000
0000
0000
,
0303
0000
0000
0000
;

//---------------dance-single - ----------------
#NOTES:
     dance-single:
     :
     Easy:
     4:
     0.239,0.381,0.109,0.084,0.000:
0000
0000
0000
0000
,
0000
0000
0000
0000
,
0000
0000
0000
0000
,
0000
0000
0000
0000
,
0001
0100
0001
1000
,
0010
0000
0010
0000
,
1000
0100
1000
0001
,
0010
0000
1001
0000
,
0010
0100
0001
0000
,
0100
0010
1000
0000
,
0010
0100
0001
1000
,
0100
0000
0010
0000
,
0001
1000
0100
1000
,
0010
0000
0010
1000
,
1001
0000
0010
0100
,
0001
0000
1000
0000
,
0001
0010
0100
0010
,
0001
1000
0010
0100
,
0001
1000
0100
1000
,
0001
0000
1000
0000
,
0010
0100
0001
0100
,
0010
1000
0100
0000
,
0010
0001
1000
0010
,
0100
0000
0010
0000
,
1000
0001
0010
0000
,
0100
0010
0001
0000
,
1000
0010
1000
0001
,
0010
0000
0100
0000
,
0010
0001
1000
0010
,
0100
0000
0010
1000
,
0001
0010
0001
1000
,
0010
0000
0100
0000
,
0010
1000
0001
0000
,
0010
0100
0010
0000
,
0001
1000
0100
0010
,
0001
0000
1000
0000
,
0002
0000
0000
1000
,
2003
0000
3010
0100
,
0020
0000
0000
1000
,
2030
0000
3001
0010
,
0200
0000
0000
0010
,
0320
0000
0031
1000
,
0200
0000
0000
1000
,
2300
0000
3010
0100
,
1001
0000
0010
0000
,
0101
0000
0010
0000
,
1100
0000
1001
0000
,
0101
0000
0010
0000
,
1000
0001
0100
0010
,
1000
0000
0000
0001
0000
0000
1000
0000
,
0001
0000
0000
1000
0000
0000
0001
0000
,
0010
0100
1000
0001
,
0100
0000
0010
0000
,
1000
0000
0001
0000
,
0010
0000
0100
0000
,
1000
0001
0100
0010
,
1001
0000
0100
0000
,
0010
0000
1000
0000
,
0001
0000
0010
0000
,
0100
0000
1000
0000
,
0001
0100
0001
1000
,
0010
0100
0010
1000
,
0001
0010
0100
1000
,
1001
1001
0110
1001
,
2002
0000
0000
0000
,
3003
0000
0000
0000
;

//---------------dance-single - ----------------
#NOTES:
     dance-single:
     :
     Beginner:
     2:
     0.144,0.214,0.075,0.000,0.000:
0000
0000
0000
0000
,
0000
0000
0000
0000
,
0000
0000
0000
0000
,
0000
0000
0000
0000
,
1000
0000
0000
0000
,
0001
0000
0000
0000
,
0100
0000
0000
0000
,
0010
0000
0010
0000
,
1000
0000
0000
0000
,
0100
0000
0000
0000
,
1000
0000
0000
0000
,
0010
0000
0100
0000
,
0001
0000
0001
0000
,
1000
0000
1000
0000
,
0010
0000
0000
0000
,
0100
0000
0000
0000
,
0010
0000
1000
0000
,
0010
0000
0100
0000
,
0001
0000
1000
0000
,
0100
0000
0000
0000
,
1001
0000
0010
0000
,
0100
0000
0001
0000
,
1001
0000
1000
0000
,
0010
0000
0100
0100
,
0100
0000
0010
0000
,
1000
0000
0001
0000
,
1001
0000
0010
0010
,
0010
0000
0001
0000
,
1001
0000
1000
0000
,
1001
0000
0010
0010
,
0010
0000
0100
0000
,
1001
0000
0000
0000
,
0001
0001
0001
0000
,
1000
1000
1000
0000
,
0010
0000
0100
0000
,
0001
0000
0000
0000
,
1000
0000
0000
0010
,
0010
0000
0100
0000
,
0001
0000
1000
0000
,
0001
0000
0000
0000
,
0100
0000
0000
0010
,
0010
0000
1000
0000
,
0001
0000
0000
0100
,
0100
0000
0000
0000
,
0010
0010
0010
0000
,
0010
0010
0010
0000
,
0001
0000
1000
0000
,
1001
0000
0000
0000
,
0100
0000
0000
0000
,
0010
0000
1000
0000
,
0010
0000
0100
0000
,
0001
0000
1000
0000
,
1001
0000
0000
0000
,
0010
0000
0000
0000
,
0100
0000
0000
0000
,
0001
0000
0000
0000
,
1001
0000
0010
0000
,
0100
0000
0010
0000
,
0100
0000
0001
0000
,
1000
0000
0001
0000
,
1000
0000
0010
0000
,
1000
0000
0010
0000
,
0100
0000
0001
0000
,
0100
0100
0100
0100
,
0100
0000
0000
0000
;

//---------------dance-double - ----------------
#NOTES:
     dance-double:
     :
     Easy:
     5:
     0.293,0.408,0.218,0.117,0.000:
00000000
00000000
00000000
00000000
,
00000000
00000000
00000000
00000000
,
00000000
00000000
00000000
00000000
,
00000000
00000000
00000000
00000000
,
10010000
00010000
01000000
00100000
,
00010000
00000000
00001000
00000100
,
00000010
00001000
00000001
00000010
,
00000100
00000000
00000010
00000001
,
00001001
00000000
00000010
00000000
,
00001001
00000000
00000100
00000000
,
00001000
00000100
00010000
00001000
,
00100000
00000000
00001000
01000000
,
01010000
00000000
01000000
00100000
,
10000000
00000000
00010000
00000000
,
01000000
00010000
00100000
00001000
,
00010000
00000000
00011000
00000000
,
00001000
00010000
00000100
00000010
,
00000001
00000000
00000100
00000000
,
00000010
00001000
00000100
00000010
,
00000100
00000000
00010000
00000000
,
00011000
00001000
00100000
00010000
,
01000000
00100000
10000000
01000000
,
10010000
10000000
00100000
01000000
,
00010000
00100000
00001000
00010000
,
00011000
00010000
00000100
00000010
,
00000011
00000001
00000100
00000010
,
00001010
00000010
00010000
00001000
,
00011000
00000000
00011000
00101000
,
00011000
00010000
00000100
00000010
,
00000001
00000100
00000010
00001000
,
00000100
00010000
00000100
00001000
,
00000010
00000000
00000100
00000000
,
00000001
00000100
00000010
00001000
,
00000100
00000000
00010000
00000000
,
00001000
00100000
00010000
01000000
,
00100000
00000000
10000000
00000000
,
00020000
00000000
01000000
01000000
,
02030000
00000000
03100000
10000000
,
00020000
00000000
00100000
00130000
,
00200000
00000000
00301000
00010000
,
00000200
00000000
00000010
00000010
,
00000320
00000000
00000031
00000100
,
00000020
00000000
00001000
00001000
,
00002030
00000000
00003100
00010000
,
00011000
00001000
00100000
00010000
,
01010000
01000000
00100000
10000000
,
10010000
00010000
01000000
00001000
,
00011000
00000000
00010000
00000000
,
00000100
00000010
00000001
00000100
,
00000010
00000000
00000000
00001000
00000000
00000000
00000100
00000000
,
00000010
00000000
00000000
00000100
00000000
00000000
00001000
00000000
,
00000010
00000000
00000000
00000100
00000000
00000000
00000001
00000000
,
00002000
00000100
00000100
00000100
,
00003200
00010000
00010000
00010000
,
00020300
00001000
00001000
00001000
,
00032000
00100000
00100000
00100000
,
00103000
01000000
00100000
00010000
,
01000000
00001000
00010000
00000100
,
00000010
00000100
00001000
00000010
,
00000100
00000010
00001000
00000100
,
00010100
00010000
00001000
01000000
,
01010000
00010000
10000000
01000000
,
01100000
00100000
00010000
01000000
,
01010000
01001000
00011000
00010100
,
00000220
00000000
00000000
00000000
,
00000330
00000000
00000000
00000000
;

//---------------dance-double - ----------------
#NOTES:
     dance-double:
     :
     Hard:
     9:
     0.517,0.599,0.176,0.084,0.054:
00000000
00000000
00000000
00000000
,
00000000
00000000
00000000
00000000
,
00000000
00000000
00000000
00000000
,
00000000
00000000
00000000
00000000
,
10010000
00000000
01000000
00010000
01000000
00100000
10000000
00000000
,
00010000
01000000
00001000
00000000
00010000
00001000
00000100
00000000
,
00000010
00001000
00000001
00000010
00000100
00000010
00000001
00000000
,
00001000
00000000
00000000
00000000
00000010
00000000
00001000
00000100
00010000
00000000
00000000
00000000
00001000
00000000
00000000
00000000
,
00011000
00000000
00010000
00000100
00001000
00000010
00000100
00000010
,
00000001
00000010
00001000
00000001
00000000
00000010
00000000
00000100
,
00001000
00000000
00000101
00000000
00000010
00010000
00001000
00100000
,
01000000
10000000
00000000
00100000
00000000
01000000
00010000
00000000
,
01010000
00000000
00100000
01000000
00010000
00100000
00001000
00010000
,
00000100
00000010
00000000
00000001
00000100
00000010
00001000
00000010
,
00000100
00000001
00001000
00000100
00010000
00001000
00000010
00000001
,
00000000
00001000
00000010
00000100
00000000
00000001
00000100
00001000
,
00000000
00000100
00000010
00010000
00001000
00100000
01000000
00100000
,
00001000
00010000
00000100
00000010
00000000
00001000
00010000
00000000
,
00010000
00001000
00100000
00010000
01000000
10000000
01000000
00100000
,
10000000
00010000
00000000
01000000
00000000
10000000
00000000
01000000
,
00001000
00010000
00001000
00100000
00010000
01000000
00100000
10000000
,
01000000
00010000
01000000
00100000
00010000
00100000
01000000
10000000
,
00100000
00010000
00001000
00000100
00000001
00000010
00001000
00000010
,
00000100
00001000
00000100
00000010
00000001
00000100
00000010
00000000
,
00000100
00000010
00000100
00000001
00000010
00001000
00000010
00000100
,
00001000
00000100
00000010
00000001
00000100
00001000
00010000
00100000
,
10000000
01000000
00010000
01000000
00100000
00010000
00100000
01000000
,
00010000
01000000
10000000
00100000
01000000
00010000
10000000
00000000
,
00100000
01000000
00010000
00100000
00001000
00010000
00000100
00001000
,
00000010
00010000
00000100
00001000
00000010
00000100
00001000
00000100
,
00000010
00010000
00001000
00100000
00010000
01000000
00100000
00010000
,
00000000
00010000
00001000
00000100
00000000
00000100
00000010
00010000
,
00001000
00000000
00010000
00000100
00000010
00000001
00001000
00000000
,
00000010
00000000
00001000
00000100
00000010
00000000
00000100
00000000
,
00010000
00000000
00001000
00100000
00010000
01000000
10000000
00000000
,
01000000
00010000
00000000
00100000
00000000
01000000
00000000
00100000
,
00020000
00000000
10000000
00000000
01000000
01030000
00001000
00010000
,
00000200
00000010
00001000
00010000
,
00002300
00000000
00000001
00000000
00000010
00003010
00000100
00000001
,
00000020
00000000
00000000
00000000
00000100
00000000
00000000
00000000
00000031
00000000
00001000
00000001
00000100
00000000
00000010
00000000
,
00002000
00000000
00000100
00000000
00000010
00003010
00010000
00001000
,
00200000
00010000
01000000
00010000
,
00302000
00000000
01000000
00000000
00100000
00103000
00010000
01000000
,
00200000
00000000
10000000
00000000
10300000
00010000
01000000
00000000
,
00011000
00001000
01000000
00100000
10000000
01010000
00000000
00000000
,
00101000
00001000
00010000
00000100
00000010
00000110
00000000
00000000
,
00000011
00000010
00000001
00000100
00000000
00000010
00000100
00001000
,
00010000
00001000
00100000
00010000
,
01000000
01001000
00011000
00010100
,
00000100
00000010
00000001
00000100
00000000
00000010
00001000
00000100
,
00010000
00001000
01000000
00100000
00000000
00010000
00001000
01000000
,
00100000
10000000
01000000
00010000
00000000
01000000
00100000
00001000
,
00010000
00000000
00001000
00000000
01000000
00000000
00001000
00100000
00000000
00100000
00001000
00000000
00010000
00000000
00000100
00000000
,
00010100
00000000
00000100
00000000
00000010
00000000
00000001
00000100
00000000
00000100
00000001
00000000
00001000
00000000
00000010
00000000
,
00001010
00000000
00000010
00000000
00010000
00000000
00001000
00100000
00000000
00100000
00001000
00000000
01000000
00000000
00010000
00000000
,
01010000
00000000
00010000
00000000
10000000
00000000
01000000
00100000
00000000
00100000
01000000
00000000
10000000
00000000
00010000
00000000
,
10010000
01000000
00000000
00100000
01000000
00010000
00000000
00100000
,
00001000
00010000
00000000
00001000
00100000
00010000
00000000
01000000
,
00001000
00010000
00000000
00001000
00000100
00000010
00000000
00001000
,
00000100
00000001
00000000
00000100
00000010
00000001
00000000
00000100
,
00000010
00000000
00001000
00000000
00000100
00000000
00010000
00001000
00100000
00000000
00010000
00000000
01000000
00000000
00100000
00000000
,
10000000
00000000
01000000
00000000
00010000
00000000
01000000
00100000
00010000
00000000
01000000
00000000
00100000
00000000
00010000
00000000
,
00001000
00000000
00000100
00000000
00000010
00000000
00001000
00000100
00000010
00000000
00000001
00000000
00000100
00000000
00000010
00000000
,
00001010
00010010
00011000
00101000
,
02200000
00000000
00000000
00000000
,
03300000
00000000
00000000
00000000
;

//---------------dance-double - ----------------
#NOTES:
     dance-double:
     :
     Medium:
     6:
     0.355,0.435,0.117,0.067,0.000:
00000000
00000000
00000000
00000000
,
00000000
00000000
00000000
00000000
,
00000000
00000000
00000000
00000000
,
00000000
00000000
00000000
00000000
,
00011000
00000000
00001000
00000000
01000000
00010000
01000000
00000000
,
00001000
00010000
00000100
00000010
,
00000001
00000000
00000100
00000010
00000000
00000010
00001000
00000000
,
00000001
00000000
00000100
00000010
00001000
00000000
00000100
00000000
,
00010000
00000000
00001000
00000000
00100000
00000000
00010000
01000000
,
00000000
00100000
00000000
10000000
00000000
00010000
00000000
01000000
,
00001000
00000000
00010000
00000000
00000100
00000010
00000100
00000010
,
00000100
00000010
00000001
00001000
,
00000010
00000000
00000100
00000001
00000000
00000001
00001000
00000000
,
00001000
00000100
00000000
00000100
00000010
00000000
00000001
00000000
,
00000100
00000000
00000010
00001000
00000010
00001000
00000000
00000100
,
00010000
00001000
00100000
00001000
,
00010000
00000000
00000100
00000010
00000000
00000010
00000001
00000000
,
00000100
00000000
00000010
00001000
00000000
00000000
00001000
00000100
,
00010000
00000000
00001000
00100000
00000000
00100000
00010000
00000000
,
01000000
00100000
10000000
00010000
,
10000000
01000000
10000000
00100000
,
01000000
00000000
00010000
00000000
00100000
00001000
00100000
00001000
,
00100000
00001000
00010000
00000100
,
00000010
00000000
00000001
00000100
00000001
00000000
00001000
00000000
,
00000010
00000100
00000001
00000010
,
00000100
00001000
00000100
00010000
,
00001000
00000000
00010000
00000000
00000010
00001000
00000100
00001000
,
00000010
00000000
00000100
00000000
00000001
00001000
00000001
00000000
,
00000100
00000000
00000010
00001000
00000010
00000000
00001000
00000000
,
00000100
00000000
00010000
00001000
00010000
00000000
00001000
00000000
,
00100000
00010000
00000000
01000000
00000000
00100000
00000000
10000000
,
00000000
00010000
00000000
01000000
00000000
00100000
00000000
10000000
,
01000000
00000000
00100000
00010000
00000000
00010000
01000000
00000000
,
00001000
00000000
00010000
00000100
00000000
00000000
00001000
00000100
,
00001000
00000000
00000010
00000100
00000000
00000100
00000001
00000000
,
00001000
00000100
00010000
00001000
,
00021000
00000000
00000000
00000000
00000000
00031000
00100000
00020000
,
00000000
00000000
01030000
00100000
,
20000000
00000000
00000000
00000000
00000000
30100000
01000000
00010000
,
00100000
00001000
01000000
00010000
,
00200000
00000000
00000000
00000000
00000000
00310000
00100000
00002000
,
00000000
00000000
00013000
00000010
,
00000200
00000000
00000000
00000000
00000000
00000310
00001000
00000100
,
00000010
00000001
00001000
00000010
,
00000101
00000000
00000010
00001000
00000100
00000000
00010000
00000000
,
00011000
00000000
00001000
00100000
00010000
00000000
01000000
00000000
,
01010000
00000000
00100000
10000000
00010000
00100000
00000000
00100000
,
00001000
00010000
00000100
00000010
,
00000100
00010000
00001000
00100000
,
00010000
00000000
01000000
00100000
00000000
00100000
10000000
00000000
,
00010000
00000000
01000000
00001000
00000000
00000000
00010000
00001000
,
00010000
00000000
00010000
00000100
00000000
00000100
00000010
00000000
,
00000101
00000100
00000001
00001000
,
00001100
00000100
00010000
00001000
,
00010100
00000100
00010000
00001000
,
00101000
00100000
00010000
01000000
,
00010000
01000000
00000000
00000000
00100000
10000000
00000000
00000000
,
00100000
01000000
00000000
00000000
00010000
00100000
00000000
00000000
,
00001000
00010000
00000000
00000000
00000100
00001000
00000000
00000000
,
00000010
00000100
00000000
00000000
00000001
00001000
00000000
00000000
,
00000100
00000010
00000001
00000000
00000100
00000010
00001000
00000000
,
00000100
00001000
00000100
00000000
00001000
00000001
00001000
00000000
,
00000100
00010000
00001000
00000000
00100000
00010000
01000000
00000000
,
01010000
01010000
01001000
01001000
,
00022000
00000000
00000000
00000000
,
00033000
00000000
00000000
00000000
;

//---------------dance-single - [Ness]----------------
#NOTES:
     dance-single:
     [Ness]:
     Challenge:
     10:
     0.693,1.000,0.243,0.318,0.494: // measure 1
0000
0000
0000
0000
,  // measure 2
0000
0000
0000
0000
,  // measure 3
0000
0000
0000
0000
,  // measure 4
0000
0000
0000
0000
,  // measure 5
2010
3010
0100
0001
0100
0010
0100
0001
,  // measure 6
0010
0100
1000
0100
0010
0100
1000
0100
,  // measure 7
0010
0001
1000
0001
0100
0001
1000
0001
,  // measure 8
0020
0200
1000
0001
,  // measure 9
0330
0000
0010
0001
0100
0001
1000
0001
,  // measure 10
0010
0100
1000
0100
0010
0100
2000
0000
,  // measure 11
3010
0100
0001
1000
0010
0100
0010
1000
,  // measure 12
0100
0020
0200
0000
0000
1000
0330
0000
,  // measure 13
0100
1000
0100
0001
0100
1000
0010
1000
,  // measure 14
0020
0200
0000
0000
0000
0000
1000
1330
,  // measure 15
0000
0000
0010
1000
0001
0010
0001
0200
,  // measure 16
0000
0301
0010
0001
1000
0100
0010
0100
,  // measure 17
1000
0010
0100
0001
0100
0010
2000
0000
,  // measure 18
0002
0000
0010
0100
0000
0010
3013
0000
,  // measure 19
0000
0000
0100
1000
0010
0100
1002
0000
,  // measure 20
0013
0001
1000
0001
0100
0010
1000
0100
,  // measure 21
0110
0000
0010
0100
0010
0100
1000
0000
0010
0000
1000
0010
1000
0010
0100
0000
,  // measure 22
0001
0000
0010
0001
0010
0001
0100
0000
0001
0000
0100
0010
0100
0010
1000
0000
,  // measure 23
0100
0000
0010
0001
1000
0001
0010
0000
0100
0000
1000
0001
0100
0001
1000
0000
,  // measure 24
1010
0220
1000
0330
,  // measure 25
0010
0000
0001
0010
0001
0100
0001
0000
0010
0000
0100
1000
0010
1000
0100
0000
,  // measure 26
0010
0000
0001
0100
0010
0100
0001
0000
0010
0000
0100
1000
0010
1000
0001
0000
,  // measure 27
1000
0000
0010
1000
0001
0010
0001
0000
0100
0000
0010
0100
0001
1000
0001
0000
,  // measure 28
0101
0200
0020
0000
0001
0000
0330
0000
,  // measure 29
1001
0000
0001
0100
0010
0000
1000
0000
0100
0000
0010
0100
1000
0000
0010
0000
,  // measure 30
1000
0000
0001
0100
0010
0000
1000
0000
0010
0000
1000
0010
0100
0000
0001
0000
,  // measure 31
1000
0001
0100
0000
0001
1000
0010
0000
1000
0100
0010
0000
0001
0010
0100
0000
,  // measure 32
1000
0000
0001
0000
0010
0000
0100
0000
1000
0100
0010
0000
0001
0000
1000
0000
,  // measure 33
0010
0000
1000
0000
0100
0010
0002
0000
0000
0000
0103
0010
2000
0000
0000
0000
,  // measure 34
3001
0000
0010
0001
0100
0000
0020
0000
0000
0000
1030
0100
0010
0000
0001
0000
,  // measure 35
1000
0001
1000
0001
1000
0100
1000
0100
0010
0100
0010
0100
0010
0001
0010
0001
,  // measure 36
0100
0001
0100
0001
1000
0001
1000
0001
0010
0100
1000
0010
0100
0001
0010
0100
,  // measure 37
2000
0000
0000
0000
3001
0000
0100
0000
0010
0000
1000
0010
1000
0010
0200
0000
,  // measure 38
0000
0000
0301
0000
1000
0000
0010
0000
1000
0001
0010
0000
0100
0000
1000
0000
,  // measure 39
0202
0000
M000
0000
0010
1000
0010
1000
,  // measure 40
0303
0000
0000
0000
0001
0000
0000
0000
1000
0000
0010
1000
0100
0000
0010
0001
,  // measure 41
0100
0000
0000
0000
0001
0000
0010
0000
0100
0000
1000
0010
1000
0010
0200
0000
,  // measure 42
0000
0000
0301
0000
0010
0000
0100
0000
1000
0010
0100
0000
0001
0000
0010
0000
,  // measure 43
2200
0000
000M
0000
0010
0001
0010
0001
,  // measure 44
3300
0000
0000
0000
1000
0000
0000
0000
0001
0000
0010
0001
0100
0000
0010
1000
,  // measure 45
1MM1
0000
0000
0000
1000
0010
1000
0010
1000
0100
2000
0000
0100
0000
3000
0000
,  // measure 46
1MM1
0000
0000
0000
0001
0010
0001
0010
0001
0100
0002
0000
0100
0000
0003
0000
,  // measure 47
00M1
0100
1000
0100
M001
0010
0100
0000
,  // measure 48
0110
0010
0100
1000
0001
1000
0010
0001
,  // measure 49
0010
0100
0001
1000
0100
0010
0011
0000
,  // measure 50
10M1
0000
0000
0000
0000
0000
0000
0000
0000
0000
0000
0000
001M
0000
0000
1000
0000
0000
0020
0000
0M00
0000
0000
0000
0000
0000
0000
0000
000M
0000
1030
0000
0000
0100
0000
0000
1000
0000
0000
0000
0000
0000
0000
0000
0000
0000
0000
0000
,  // measure 51
00M1
0000
0000
0000
0000
0000
0000
0000
0000
0000
0000
0000
M010
0000
0000
0001
0000
0000
0020
0000
0M00
0000
0000
0000
0000
0000
0000
0000
M000
0000
0031
0000
0000
0100
0000
0000
0001
0000
0000
0000
0000
0000
1000
0000
0000
0000
0000
0000
,  // measure 52
0020
0000
0000
0000
0000
0000
0000
0000
0000
0000
0000
0000
0000
0000
0000
0000
1030
0000
0000
0000
0000
0000
0000
0000
0100
0000
0000
0000
0000
0000
0000
0000
M000
0000
0000
0000
0000
0000
0000
0000
0100
0000
0000
0000
0000
0000
0000
0000
0020
0000
0000
0000
0000
0000
0000
0000
0000
0000
0000
0000
0000
0000
0000
0030
,  // measure 53
0021
0000
0031
0000
0100
0001
0000
0100
0000
0010
1000
0000
0100
1000
0010
0000
,  // measure 54
1010
1000
0010
0000
1000
0100
0000
0010
0000
0001
1000
0000
0001
0100
0001
0000
,  // measure 55
1001
1000
0001
1000
0001
1000
0001
1000
0010
1000
0010
1000
0010
1000
0010
1000
,  // measure 56
0001
0010
0001
0100
0001
0010
0001
0100
0010
1000
0010
0100
0010
1000
0010
0100
,  // measure 57
0001
0011
0010
000M
0100
1001
0100
0M00
,  // measure 58
1000
1010
0010
M000
0100
1001
0100
0M00
,  // measure 59
0001
1010
0001
000M
1000
0101
1000
M000
,  // measure 60
0001
1100
0001
000M
1000
0011
1000
M000
,  // measure 61
0001
0011
0010
00MM
1000
1010
0010
M0M0
,  // measure 62
0001
1001
0100
M00M
1000
1001
1000
M00M
,  // measure 63
1000
0010
1000
0010
1000
0100
1000
0100
0010
0100
0010
0100
0010
0001
0010
0001
,  // measure 64
2000
3001
0100
0001
2000
3010
1000
0100
0020
0031
0100
0010
2000
3100
0010
0001
,  // measure 65
0200
0000
0000
0000
,  // measure 66
0300
0000
0000
0000
;

//---------------dance-double - [Ness]----------------
#NOTES:
     dance-double:
     [Ness]:
     Challenge:
     10:
     0.690,1.000,0.293,0.318,0.461:
00000000
00000000
00000000
00000000
,
00000000
00000000
00000000
00000000
,
00000000
00000000
00000000
00000000
,
00000000
00000000
00000000
00000000
,
00021000
00031000
01000000
00100000
10000000
01000000
00100000
00001000
,
00010000
00000010
00000001
00000010
00000100
00000001
00000010
00001000
,
00010000
00100000
01000000
10000000
00100000
00010000
00001000
00000010
,
00000002
00000000
00000000
00000000
00000013
00000000
00001000
00000010
00002000
00000000
00000000
00000000
00003100
00000000
00000000
00000000
,
00010000
00001000
01000000
10000000
01000000
00100000
10000000
01000000
,
00100000
00001000
00010000
00000010
00000001
00000010
00001000
00000100
,
00000010
00000001
00000100
00000010
00001000
00000100
00010000
01000000
,
00200000
00020000
00000000
00000000
00000000
00001000
00330000
00000000
,
01000000
00010000
01000000
00010000
10000000
00100000
00010000
00001000
,
00000010
00000001
00000010
00000100
00010000
00001000
01000000
10000000
,
01000000
00100000
10000000
01000000
00100000
00001000
00000000
00010100
,
00000100
00000010
00000000
00000101
00001000
00000010
00010000
00001000
,
01000000
00100000
10000000
01000000
00010000
00001000
00000100
00000001
,
00000100
00001000
00010000
01000000
10000000
01000000
00010000
01000000
,
00200000
00000000
01000000
02000000
00000000
00010000
00010000
00000000
,
03300000
00000000
00000000
10000000
00000000
00010000
00000000
00001000
,
00011000
00000000
00010000
00001000
00010000
00000100
00010000
00000000
00000100
00000000
00000010
00000001
00000010
00000100
00000010
00000000
,
00000100
00000000
00010000
00001000
01000000
00001000
01000000
00000000
00010000
00000000
01000000
00100000
01000000
00100000
10000000
00000000
,
00100000
00000000
10000000
01000000
10000000
01000000
00100000
00000000
00001000
00000000
00100000
00001000
00010000
00001000
00010000
00000000
,
00000200
00000000
00000000
00000000
00000310
00000000
00000001
00000010
00000002
00000000
00000000
00000000
00000103
00000000
00000000
00000000
,
00000010
00000000
00001000
00000100
00001000
00000100
00010000
00000000
00001000
00000000
01000000
00010000
01000000
00010000
00100000
00000000
,
01000000
00000000
10000000
00100000
10000000
00100000
01000000
00000000
10000000
00000000
01000000
00001000
01000000
00001000
00010000
00000000
,
00001000
00000000
00010000
00000100
00010000
00000100
00001000
00000000
00000010
00000000
00001000
00000000
00000001
00000000
00001000
00000000
,
00000200
00020000
00000000
00000000
00000000
00001000
00030300
00000000
,
00101000
00000000
00100000
00010000
00100000
00000000
01000000
00000000
10000000
00000000
00100000
10000000
00010000
00000000
00100000
00000000
,
00001000
00000000
00010000
00001000
00010000
00000000
00000100
00000000
00000010
00000000
00000001
00000100
00000010
00000000
00010000
00000000
,
00001000
01000000
00010000
00000000
10000000
00100000
01000000
00000000
00010000
00100000
00001000
00000000
00010000
00000010
00001000
00000000
,
00000010
00000000
00000100
00000000
00000001
00000010
00000001
00000000
00000010
00000000
00000100
00000000
00010000
00001000
00010000
00000000
,
00001000
00000000
01000000
00000000
00100000
10000000
00200000
00000000
00000000
00000000
00310000
00100000
00020000
00000000
00000000
00000000
,
00031000
00000000
00000000
00000000
00000100
00001000
00000200
00000000
00000000
00000000
00000310
00000000
00001000
00000010
00001000
00000010
,
00000100
00000001
00000100
00000001
00000010
00000100
00000010
00000100
00000010
00000100
00010000
00001000
00010000
00001000
00010000
00001000
,
01000000
00010000
00100000
00010000
01000000
00001000
00010000
00001000
00010000
00000100
00000010
00000100
00000010
00000001
00000100
00000001
,
00000020
00000000
00000000
00000000
00000031
00000000
00000100
00000000
00000010
00000000
00010000
00001000
01000000
00010000
00100000
00000000
,
00000000
01100000
10000000
01010000
00000000
00110000
10000000
00101000
,
00200000
00000000
00000020
00000000
00010000
00001000
00010000
00001000
,
00300030
00100010
00011000
01000100
,
02000000
00000000
00000000
00000000
03010000
00000000
00100000
00000000
00001000
00000000
00010000
00000010
00001000
00000100
00000010
00000000
,
00000000
00000110
00000001
00001010
00000000
00001100
00000001
00010100
,
00000200
00000000
02000000
00000000
00001000
00010000
00001000
00010000
,
03000300
00000000
01000100
00000000
00010000
00001000
00100000
00000010
,
00001000
00000000
00000010
00000100
00000010
00000100
00000001
00001000
00000001
00001000
00000200
00000000
00000000
00000000
00010300
00000000
,
00001000
00000000
01000000
00010000
01000000
00010000
10000000
00100000
10000000
00100000
00020000
00000000
00000000
00000000
00130000
00000000
,
01000000
00010000
00100000
00002000
00000000
00010000
00020000
00000000
,
00000010
00100000
00000100
01033000
,
00000000
00011000
00100010
00011000
,
00002000
00000000
00000000
00000000
01003000
00100000
20000000
00000000
00000000
00000000
30100000
01000000
00002000
00000000
00000000
00000000
,
00023000
00000000
00000000
00000000
00030100
00000010
00000002
00000000
00000000
00000000
00000013
00000100
00020000
00000000
00000000
00000000
,
00031000
01000000
00010000
20000000
00000000
00100000
30100000
00000000
,
20100000
00000000
30100000
00000000
01000000
00010000
00000000
00100000
00000000
00001000
00000000
00010000
00000100
00000000
00000010
00000000
,
00000012
00000000
00000013
00000000
00000100
00001000
00000000
00000010
00000000
00010000
00000000
00001000
01000000
00000000
00100000
00000000
,
10010000
00000000
10000000
00010000
10000000
00010000
00100000
00010000
00100000
00010000
01000000
00001000
01000000
00001000
00010000
00000100
,
00010000
00000100
00001000
00000010
00001000
00000001
00000100
00000010
00001000
00000001
00000100
00000010
00001000
00000100
00000010
00000001
,
00001000
00010100
00001000
0000M000
00000100
00000011
00000100
00000M00
,
00000010
00001001
00000010
000000M0
00000100
00001010
00000100
00000M00
,
00000010
00011000
00000010
000000M0
00000100
00010010
00000100
00000M00
,
00010000
00101000
00010000
000M0000
01000000
00110000
01000000
0M000000
,
00100000
10010000
01000000
M00M0000
10000000
01100000
00010000
0MM00000
,
00100000
00011000
00000010
000MM000
00000100
00011000
01000000
000MM000
,
00010000
01000000
00010000
01000000
00100000
10000000
00100000
10000000
00010000
00100000
00010000
00100000
00001000
00010000
00001000
00010000
,
00000200
00000310
00000001
00000100
00000020
00010030
00001000
01000000
00020000
00130000
01000000
10000000
00200000
01300000
00010000
10000000
,
00020000
00000000
00000000
00000000
,
00030000
00000000
00000000
00000000
;
