#TITLE:You;
#SUBTITLE:;
#ARTIST:Versus II;
#TITLETRANSLIT:;
#SUBTITLETRANSLIT:;
#ARTISTTRANSLIT:;
#GENRE:;
#CREDIT:;
#MENUCOLOR:;
#METERTYPE:DDR;
#BANNER:youbn.png;
#BACKGROUND:youbg.png;
#LYRICSPATH:;
#CDTITLE:ddrencorecdtitle.png;
#MUSIC:You.mp3;
#OFFSET:-0.032;
#SAMPLESTART:83.175;
#SAMPLELENGTH:12.000;
#SELECTABLE:YES;
#LISTSORT:;
#BPMS:0.000=150.000;
#STOPS:;
#BGCHANGES:;
#ATTACKS:;

//---------------dance-double - ----------------
#NOTES:
     dance-double:
     :
     Hard:
     9:
     0.668,0.742,0.287,0.233,0.300:
00000000
00000000
00000000
00000000
,
00000000
00000000
00000000
00000000
,
00000000
00000000
00000000
00000000
,
00000000
00000000
00000000
00000000
,
00000100
00000000
00000000
00001000
00000010
00000000
00000100
00000000
00000001
00000000
00000000
00000000
00000010
00000000
00000000
00000000
,
00000100
00011000
00100000
00011000
,
01000000
00100000
10000000
00010000
00100000
10000000
00100000
00010000
,
01000000
00100000
00010000
00001000
00010000
00100000
10000000
01000000
,
00100000
00000000
00000000
01000000
10000000
00000000
00010000
00000000
01000000
00000000
00000000
00000000
00100000
00000000
00000000
00000000
,
01000000
00011000
00000010
00011000
,
00000100
00001000
00000010
00000001
00000010
00000100
00000001
00000010
,
00001000
00000000
00000000
00010000
00000000
00000000
01000000
00000000
10000000
00000000
00010000
00000000
01000000
00000000
00100000
00000000
,
10000000
00000000
01000000
10000000
01000000
00000000
10000000
00000000
00100000
00000000
00010000
00000000
00001000
00000000
00000100
00000000
,
00000010
00000000
00001000
00000001
00001000
00000000
00000100
00000000
00000010
00000000
00000001
00001000
00000001
00000000
00000100
00000000
,
00000010
00000000
00001000
00000100
00001000
00000000
00000001
00000000
00000010
00000000
00001000
00000000
00010000
00000000
00100000
00000000
,
10000000
00000000
01000000
00100000
01000000
00000000
10000000
00000000
00010000
00000000
01000000
00100000
01000000
00000000
00010000
00000000
,
10000000
00000000
00010000
01000000
00010000
00000000
10000000
00000000
00100000
00000000
00010000
00000000
00001000
00000000
00000100
00000000
,
00000010
00000000
00001000
00000001
00001000
00000000
00000010
00000000
00000000
00000000
00000101
00000000
00000010
00000000
00001000
00000000
,
00000200
00000000
00010300
00002000
00000000
01003000
00000000
00200000
,
00000000
10300000
00010000
01000000
00100000
10000000
00100000
00010000
,
00001000
00000000
01000000
00010000
01000000
00000000
00100000
00000000
10000000
00000000
01000000
00000000
00010000
00000000
00001000
00000000
,
00000010
00000001
00001000
00000010
00000000
00001001
00000010
00000001
,
00000100
00000000
00000010
00001000
00000010
00000000
00000100
00000000
00000000
00000000
00010010
00000000
00001000
00000000
00100000
00000000
,
00020000
00000000
10030000
00200000
00000000
01300000
00000000
00001000
,
00000000
00020000
00000000
00000000
00031000
00000000
01000000
00000000
,
00200000
00000000
10300000
02000000
00000000
03100000
00001000
00020000
,
00000000
00030010
00000100
00000000
00000001
00000000
00000010
00000000
,
00000100
00000000
00001000
00000001
00001000
00000000
00000010
00000000
00000020
00000000
00000000
00000000
00020030
00000000
00000000
00000000
,
00031000
00000000
00100000
00001000
00010000
00000000
00001000
00000000
01000000
00000000
00100000
00000000
10000000
00000000
00010000
00000000
,
10100000
00000000
01001000
00000000
00010000
00000100
00001010
00000000
,
00000100
00000000
00000001
00000100
00000010
00000000
00001000
00000100
00000010
00000000
00000001
00000000
00001000
00000000
00000010
00000000
,
00000110
00000000
00011000
00010000
01000000
00000000
10000000
00000000
,
01010000
00000000
00100000
10000000
00010000
00000000
00100000
00000000
01000000
00000000
00100000
00000000
00011000
00000000
00010000
00000000
,
00000100
00001000
00000010
00000100
00000001
00000010
00001000
00020000
,
00100000
00001000
01030000
10000000
,
00100000
01000000
00001000
00010000
01000000
00000000
10000000
00000000
,
01010000
00000000
01000000
00001000
01000000
00000000
00001000
00100000
00000000
00010000
01000000
00001000
00010000
00000000
00000100
00000000
,
00001000
00000000
00000010
00010000
00000010
00000000
00001000
00000100
00000000
00010000
00001000
00100000
00010000
00000000
01000000
00000000
,
00001000
00000000
00010000
00001000
00010000
00000000
00000100
00000010
00000000
00001000
00010000
00100000
01000000
00000000
00010000
00000000
,
00100000
00000000
01000000
10000000
01000000
00000000
00100000
00010000
00000000
01000000
00001000
00010000
00000010
00000000
00000100
00000000
,
00000001
00000000
00001000
00000100
00001000
00000000
00000010
00000100
00000000
00000001
00000100
00000010
00001000
00000000
00000100
00000000
,
00010000
00000000
00001000
00100000
00001000
00000000
00010000
00001000
00000000
00100000
00010000
01000000
00100000
00000000
10000000
00000000
,
00010000
00000000
00100000
01000000
10000000
00000000
00100000
01000000
00000000
00010000
10000000
00100000
01000000
00000000
00010000
00000000
,
00100000
00000000
00001000
00010000
00000100
00000000
00001000
00000010
00000000
00000100
00000001
00000010
00000100
00000000
00001000
00000000
,
00000101
00000000
00000100
00000000
00000010
00000000
00001000
00000000
00000100
00000010
00000000
00000001
00000000
00000000
00001000
00000000
,
00000100
00000000
00010000
00000000
00000010
00000000
00000100
00000000
00001000
00010000
00000000
00100000
00000000
00000000
10000000
00000000
,
01000000
00100000
00010000
01000000
00001000
00010000
00000010
00000100
,
00000002
00002003
00003020
00010030
,
00001000
00000000
01000000
00100000
10000000
00010000
00100000
01000000
,
20000000
00000000
30010000
00200000
00000000
00301000
00000000
00020000
,
00000000
00000000
00031000
00000000
00000100
00000010
00001000
00000001
,
00000010
00000000
00000000
00000000
00000001
00000000
00000000
00000000
00001000
00000000
00000010
00010000
00001000
00000000
00100000
00001000
,
00010000
00000000
00000100
00000000
00001000
00000000
00000010
00000000
00000100
00000001
00000000
00001000
00000000
00000000
00000100
00000000
,
00010000
00000000
00001000
00000000
01000000
00000000
00100000
00000000
00010000
00001000
00000000
00010000
00000000
00000000
00100000
00000000
,
10000000
00010000
00100000
01000000
00010000
00001000
00000010
00000001
,
00001000
00000010
00010000
00000010
00000100
00000000
00000001
00000000
,
00002200
00000000
00003300
00000110
00000000
00010100
00000000
00022000
,
00000000
00033000
00100000
00110000
00000000
01100000
00000000
22000000
,
00000000
33000000
10000000
00000000
00010000
00000000
01000000
00000000
,
00010000
00000000
00100000
01000000
00000000
00100000
00000000
00010000
01000000
00000000
00001000
00000000
00010000
00000000
00000100
00000010
,
00000001
00000000
00000000
00001000
00000010
00000000
00000100
00000000
00000001
00000000
00000000
00000000
00001000
00000000
00000000
00000000
,
00000010
00011000
00100000
00011000
,
00000100
00000010
00000001
00000100
00001000
00000100
00000010
00001000
,
00000100
00010000
00000010
00000100
00000001
00001000
00000100
00010000
,
00001000
00110000
00001000
00010100
,
00001000
00000101
00000010
00001100
,
00000010
00001001
00000010
00010100
,
00010000
00000000
00001000
00000000
01000000
00000000
00100000
00000000
00010000
00100000
10000000
00000000
01000000
00100000
00001000
00000000
,
00022000
00000000
00000000
00000000
,
00033000
00000000
00000000
00000000
;

//---------------dance-double - ----------------
#NOTES:
     dance-double:
     :
     Medium:
     6:
     0.335,0.433,0.027,0.161,0.000:
00000000
00000000
00000000
00000000
,
00000000
00000000
00000000
00000000
,
00000000
00000000
00000000
00000000
,
00000000
00000000
00000000
00000000
,
00001000
00000000
00000000
00010000
00001000
00000000
00000000
00000000
,
01000000
00100000
10000000
00000000
,
00010000
00100000
00001000
01000000
,
00100000
10000000
01000000
00100000
,
00010000
00000000
00000000
01000000
00001000
00000000
00000000
00000000
,
00010000
00001000
01000000
00000000
,
00100000
10000000
00010000
00100000
,
00001000
00000000
00000000
00010000
00000100
00001000
00000010
00000100
,
00000001
00001000
00000000
00000010
,
00000100
00000000
00000100
00000001
00000000
00000001
00001000
00000000
,
00000010
00010000
00000000
00001000
,
00100000
00000000
00010000
01000000
00000000
01000000
00100000
00000000
,
10000000
00010000
00000000
10000000
,
00100000
00000000
01000000
00010000
00000000
00100000
00000000
00000000
,
01000000
00000000
10000000
00100000
00000000
01000000
00000000
00010000
,
00000000
00000000
00100000
00000000
00001000
00010000
00001000
00010000
,
00000100
00001000
00000010
00000100
,
00000010
00000000
00001000
00000001
00000000
00000100
00000000
00000010
,
00001000
00000000
00000100
00010000
00000000
00000000
00001000
00000000
,
00100000
00000000
00010000
01000000
00000000
00100000
00000000
10000000
,
00000000
01000000
00000000
00000000
00100000
00000000
00010000
00000000
,
01000000
00000000
00010000
00100000
00000000
00001000
00000000
00020000
,
00000000
00000000
00030100
00000000
,
00001000
00000000
00000000
00000001
00000100
00000000
00000010
00000000
,
00000010
00000100
00000001
00000100
00000010
00001000
00000100
00000000
,
00010000
00000000
00001000
00000000
00100000
00001000
00010000
00000000
,
00001000
00000000
01000000
00000000
,
00100000
10000000
00010000
00000000
,
00100000
00000000
01000000
00100000
00010000
01000000
00100000
00000000
,
01000000
00000000
00010000
00000000
00100000
00000000
00001000
00020000
,
00000000
00000000
00030100
00010000
,
00001000
00010000
00000100
00001000
00000010
00000000
00000100
00000000
,
00000002
00000000
00000000
00000000
,
00002003
00000000
00000000
00000000
,
00003020
00000000
00000000
00000000
,
00020030
00000000
00000000
00000000
,
00032000
00000000
00010000
00000000
,
02003000
00000000
00010000
00000000
,
03200000
00000000
10000000
00000000
,
20300000
00000000
01000000
31000000
,
10010000
00000000
00000000
10000000
00100000
01000000
00010000
01000000
,
00100000
00000000
00000000
00100000
10000000
00010000
00100000
00010000
,
01000000
00000000
00000000
00000000
00001000
00100000
00001000
00010000
,
00000200
00002300
00003020
00000130
,
00001001
00000000
00000000
00000100
00000010
00000000
00001000
00000000
,
00000100
00000000
00010000
00000100
00000000
00001000
00000000
00000020
,
00000000
00000000
00000130
00000000
,
00000010
00001000
00000100
00010000
,
00011000
00000000
00000000
00010000
00001000
00100000
00010000
01000000
,
00100000
00000000
00000000
00100000
10000000
00010000
00100000
01000000
,
10000000
00000000
00000000
00000000
00010000
00100000
00001000
00010000
,
00000100
00000000
00010000
00001000
00100000
00000000
00010000
00000000
,
02000000
00000000
00000000
03010000
00000000
00100000
00000000
00002000
,
00000000
00000000
00013000
00000100
00000000
00001000
00000000
00000020
,
00000000
00000000
00000000
00000000
00000000
00000000
00000000
00000030
,
00000100
00000000
00000010
00000000
00001000
00000100
00001000
00000010
,
00010000
00000000
00000000
00001000
00010000
00000000
00000000
00000000
,
00000100
00001000
00000010
00000000
,
00000100
00000010
00001000
00000100
,
00010000
00000010
00000100
00000001
,
00001000
00000000
00000100
00000000
,
00010000
00000000
00001000
00000000
,
01000000
00000000
00100000
00000000
,
10000000
00000000
00010000
00000000
00100000
01000000
10000000
00100000
,
02000000
00000000
00000000
00000000
,
03000000
00000000
00000000
00000000
;

//---------------dance-double - ----------------
#NOTES:
     dance-double:
     :
     Easy:
     4:
     0.258,0.340,0.009,0.170,0.000:
00000000
00000000
00000000
00000000
,
00000000
00000000
00000000
00000000
,
00000000
00000000
00000000
00000000
,
00000000
00000000
00000000
00000000
,
01000000
00000000
00100000
00000000
,
10000000
00010000
01000000
00000000
,
00100000
01000000
00010000
00100000
,
00001000
00010000
01000000
10000000
,
00100000
00000000
01000000
00000000
,
00010000
00100000
01000000
00000000
,
00100000
00010000
01000000
00001000
,
00020000
00000000
00032000
00000000
,
00013000
00000010
00000000
00000100
,
00000010
00001000
00000001
00000010
,
00000100
00001000
00000000
00000010
,
00000100
00000001
00001000
00000100
,
00010000
00001000
00000000
00100000
,
00001000
00000000
00000000
00010000
00000000
00000100
00000000
00000000
,
00010000
00001000
01000000
00100000
,
10000000
00000000
00100000
01000000
,
00010000
10000000
00000000
00100000
,
01000000
00010000
00100000
00001000
,
00010000
00000000
00000000
00000010
00000000
00000000
00001000
00000000
,
00000010
00000000
00000000
00000100
00000000
00000001
00000000
00000100
,
00000000
00000001
00000000
00000000
00000000
00000000
00001000
00000000
,
00000010
00000000
00000000
00000010
00000000
00010000
00000000
00002000
,
00000000
00000000
00013000
00000000
,
01000000
00000000
10000000
00000000
,
00010000
01000000
00100000
10000000
,
00010000
00100000
01000000
00100000
,
00010000
00000000
01000000
00000000
,
00001000
00010000
00000100
00000000
,
00001000
00000010
00000100
00000001
,
00001000
00000010
00010000
00001000
,
00200000
00000000
00301000
00000000
,
00001000
01000000
00100000
10000000
,
00020000
00000000
00000000
00000000
,
20030000
00000000
00000000
00000000
,
30200000
00000000
00000000
00000000
,
02300000
00000000
00000000
00000000
,
03020000
00000000
00000000
00000000
,
00230000
00000000
00000000
00000000
,
00302000
00000000
00000000
00000000
,
00023000
00000000
00000000
00000000
,
00030010
00000000
00000100
00000010
,
00001000
00000000
00000001
00000010
,
00000100
00000000
00001000
00000010
,
00020000
00032000
02003000
03010000
,
10000000
00000000
01000000
00100000
,
00010000
01000000
00001000
00010000
,
00000100
00000000
00001000
00000000
,
00000010
00000010
00000010
00000010
,
00000100
00000000
00000010
00001000
,
00000100
00000000
00010000
00001000
,
01000000
00000000
00010000
00100000
,
01000000
10000000
00100000
01000000
,
00010000
00000000
00000000
10000000
00000000
01000000
00000000
20000000
,
00000000
00000000
00000000
30010000
00000000
01000000
00000000
00020000
,
00000000
00000000
00000000
00000000
,
10030000
00000000
00010000
01000000
,
00001000
00000000
00010000
00000000
,
00000100
00001000
00000010
00000000
,
00000100
00000010
00001000
00000001
,
00001000
00000100
00010000
00000010
,
00001000
00000000
00000100
00000000
,
00010000
00000000
00001000
00000000
,
01000000
00000000
00010000
00000000
,
00100000
01000000
10000000
00100000
,
20020000
00000000
00000000
00000000
,
30030000
00000000
00000000
00000000
;

//---------------dance-single - ----------------
#NOTES:
     dance-single:
     :
     Easy:
     4:
     0.288,0.371,0.072,0.125,0.000:
0000
0000
0000
0000
,
0000
0000
0000
0000
,
0000
0000
0000
0000
,
0000
0000
0000
0000
,
0001
0000
1000
0000
,
0100
1000
0001
0000
,
0100
0010
0100
0001
,
1000
0100
0010
0100
,
1000
0000
0001
0000
,
0100
0010
1000
0000
,
0001
0100
0010
1000
,
0002
0000
2003
0000
,
3010
0100
0000
0010
,
1000
0001
0010
0100
,
1000
0010
0000
0100
,
0001
0010
0100
0010
,
0001
1000
0000
0010
,
0100
0010
1000
0001
,
0010
0010
0001
0001
,
1000
0010
0100
0001
,
1000
0100
0000
0010
,
0100
1000
0010
0100
,
0001
1000
0001
0010
,
0100
0000
0010
0001
,
1000
0010
0100
0010
,
1000
0001
0010
0001
,
0100
0000
0010
0000
,
1000
0100
0010
0010
,
0001
1000
0010
1001
,
0010
0100
1001
1001
,
0010
0100
0001
0010
,
0100
1000
0010
0000
,
1000
0010
0100
0001
,
1001
0010
0001
0100
,
0020
0000
0230
0000
,
0310
1000
0001
0010
,
0200
0000
0000
0000
,
2300
0000
0000
0000
,
3020
0000
0000
0000
,
0230
0000
0000
0000
,
0302
0000
1000
0000
,
0023
0000
0001
0000
,
0230
0000
0010
0000
,
2300
0000
0001
0000
,
3010
0000
0100
0001
,
1000
0000
0100
1000
,
0010
0000
0100
0001
,
0010
0100
1000
0010
,
0100
0000
0010
1000
,
0001
0010
0100
0010
,
0001
0000
1000
0000
,
0010
0010
0100
0010
,
1001
0000
0010
1000
,
0001
0000
0010
0001
,
1000
0000
0010
1000
,
0001
0100
0001
0010
,
0100
0000
0010
0001
,
1100
0000
1000
0010
,
0101
0000
0010
0000
,
1000
0100
0001
0010
,
1000
0000
0001
0000
,
0100
0010
1000
0000
,
0001
0010
0100
0010
,
0001
1000
0010
0100
,
0001
1000
0010
1000
,
0100
1000
0001
1000
,
0100
0001
0010
0001
,
1000
0001
0100
0010
,
2002
0000
0000
0000
,
3003
0000
0000
0000
;

//---------------dance-single - ----------------
#NOTES:
     dance-single:
     :
     Beginner:
     2:
     0.169,0.185,0.116,0.009,0.000:
0000
0000
0000
0000
,
0000
0000
0000
0000
,
0000
0000
0000
0000
,
0000
0000
0000
0000
,
0010
0000
1001
0000
,
0010
0000
0100
0000
,
0001
0000
1000
0000
,
0010
0000
0100
0000
,
0010
0000
1001
0000
,
0010
0000
1000
0000
,
0001
0000
0010
0000
,
0100
0000
0000
0000
,
1000
1000
0000
0000
,
0010
0000
0100
0000
,
0001
0001
0000
0000
,
0010
0000
0001
0000
,
1000
1000
0000
0000
,
0010
0000
0100
0000
,
0001
0000
1000
0000
,
0100
0000
0000
0000
,
0010
0010
0000
0000
,
0001
0000
0100
0000
,
0010
0010
0010
0000
,
1000
0000
0001
0000
,
0100
0000
0000
0000
,
0010
0000
1000
0000
,
0100
0000
0000
0000
,
1000
0000
0010
0010
,
0010
0000
0100
0000
,
0010
0000
1000
0000
,
0001
0000
0010
0000
,
0001
0001
0001
0000
,
1000
0000
0010
0000
,
0100
0000
0010
0000
,
1000
0000
0000
0000
,
0001
0000
0010
0000
,
1001
0000
0000
0000
,
1001
0000
0000
0000
,
0110
0000
0000
0000
,
0110
0000
0000
0000
,
1001
0000
0000
0000
,
0110
0000
0000
0000
,
1001
0000
0000
0000
,
1001
0000
0000
0000
,
1000
0000
0100
0000
,
1000
0000
0001
0000
,
0100
0000
0010
0000
,
1000
1000
1000
0000
,
0001
0000
0010
0000
,
0001
0000
0100
0000
,
0010
0000
0000
0000
,
1000
0000
1000
0000
,
1000
0000
0001
0000
,
0010
0000
0001
0000
,
0100
0000
0010
0000
,
1000
1000
1000
0000
,
0001
0000
0000
0000
,
1000
0000
0000
0000
,
0010
0000
0000
0000
,
1001
0000
1001
0000
,
0010
0000
1001
0000
,
0010
0000
0100
0000
,
0001
0000
1000
0000
,
0100
0000
0010
0000
,
0001
0001
0000
1000
,
0000
0010
0000
1000
,
0000
0001
0000
0010
,
0000
0100
0000
0010
,
0020
0000
0000
0000
,
0030
0000
0000
0000
;

//---------------dance-single - ----------------
#NOTES:
     dance-single:
     :
     Medium:
     6:
     0.389,0.402,0.134,0.107,0.004:
0000
0000
0000
0000
,
0000
0000
0000
0000
,
0000
0000
0000
0000
,
0000
0000
0000
0000
,
1000
0000
0000
1000
0001
0000
0000
0000
,
0010
0100
0001
0000
,
0010
0001
1000
0010
,
0100
0010
1000
1001
,
0001
0000
0000
0001
1000
0000
0000
0000
,
0010
1000
0001
0000
,
0100
0010
1000
0001
,
1000
0000
0000
0010
0000
0000
1000
0000
0001
0000
0010
0000
0001
0000
1000
0000
,
0010
1001
0010
0100
,
0001
0000
1000
0100
0000
0100
0010
0000
,
0001
1001
0010
0001
,
0100
0000
0010
1000
0000
1000
0001
0000
,
0010
1001
0010
0001
,
0100
0000
0010
1000
0000
1000
0001
0000
,
0100
0000
0100
0010
0000
1000
0001
0000
,
0100
0000
0010
0000
1000
0001
1000
0001
,
1000
1001
0010
1000
,
0001
0000
0010
0001
0000
0001
0100
0000
,
0010
0000
0010
1000
0000
0000
1000
0000
,
0001
0000
0100
0001
0000
1000
0000
0100
,
0000
1000
0000
0010
1000
0000
0001
0000
,
0010
0000
0001
0100
0000
0001
1000
0001
,
1000
0100
0010
0001
,
2000
0000
3010
0100
0002
0000
1003
0000
,
0100
1000
0001
1001
,
0010
0100
1001
1001
,
0010
0000
0100
0000
0001
0010
0100
1000
,
0001
0000
1000
0100
0010
0000
0001
0000
,
1001
0010
0100
1001
,
1001
0000
0010
0000
1000
0100
0010
0001
,
0000
1000
0010
0100
,
0010
0000
1000
0001
1000
0000
0100
0000
,
0020
0000
0000
0000
,
0032
0000
0000
0000
,
2003
0000
0000
0000
,
3020
0000
0000
0000
,
0230
0001
0001
0001
,
0302
0010
0010
0010
,
0023
0100
0100
0100
,
0230
1000
1000
1000
,
1300
0000
0010
0000
1000
0001
0100
0001
,
1000
0000
0010
0000
0100
0001
0100
0010
,
1000
0000
0001
0000
0010
0100
1000
0100
,
0010
0000
0001
1000
0010
0000
0100
0000
,
0001
0000
0010
0000
0001
1000
0100
1000
,
0010
0000
0010
0100
0000
0001
0000
1000
,
0100
0010
0001
1000
,
0010
1001
0010
1001
,
0100
0000
0010
0000
1000
0100
0010
0001
,
1000
0000
0001
0000
0010
0001
0100
0010
,
1000
0000
0100
0000
1000
0100
1000
0010
,
0100
0000
0010
1000
0001
0000
0010
0000
,
0100
0000
0010
0001
0000
1000
0000
0010
,
0000
0000
0010
0100
0000
0001
0000
1000
,
0000
0100
1000
0001
,
0100
0000
0010
0000
1000
0001
1000
0001
,
1000
0000
0000
1000
0001
0000
0000
0000
,
0010
0001
0100
0000
,
0010
1000
0001
0100
,
0010
1000
0001
1001
,
0010
0100
0010
0001
,
0010
1000
0010
0100
,
1000
0010
0100
0010
,
0001
0010
1000
0001
,
2002
0000
0000
0000
,
3003
0000
0000
0000
;

//---------------dance-single - ----------------
#NOTES:
     dance-single:
     :
     Hard:
     9:
     0.662,0.711,0.206,0.251,0.331: // measure 1
0000
0000
0000
0000
,  // measure 2
0000
0000
0000
0000
,  // measure 3
0000
0000
0000
0000
,  // measure 4
0000
0000
0000
0000
,  // measure 5
1000
0000
0000
0001
0100
0000
0001
0000
0010
0000
0000
0000
1001
0000
0000
0000
,  // measure 6
0010
1100
0001
0110
,  // measure 7
0010
1000
0100
0001
0100
1000
0010
0100
,  // measure 8
0001
0010
1000
0010
0001
0100
0010
1000
,  // measure 9
0100
0000
0000
1000
0010
0000
0100
0000
0001
0000
0000
0000
1100
0000
0000
0000
,  // measure 10
0001
0110
1000
0101
,  // measure 11
0001
1000
0010
0001
0010
1000
0001
0010
,  // measure 12
0100
0000
0000
0010
0000
0000
0001
0000
0100
0000
0010
0000
1000
0000
1000
0000
,  // measure 13
0001
0000
0010
0001
0010
0000
0100
0000
1000
0000
0010
0000
0100
0000
0001
0000
,  // measure 14
1000
0000
0010
1000
0010
0000
0100
0000
0001
0000
1000
0100
1000
0000
0010
0000
,  // measure 15
0100
0000
0001
0100
0001
0000
0010
0000
0001
0000
0100
0000
0010
0000
1000
0000
,  // measure 16
0100
0000
0010
0100
0010
0000
0001
0000
1000
0000
0010
0100
0010
0000
1000
0000
,  // measure 17
0001
0000
0010
0001
0010
0000
0001
0000
0100
0000
0010
0000
1000
0000
0100
0000
,  // measure 18
1000
0000
0001
0100
0001
0000
2000
0000
0000
0000
3100
0000
1000
0000
0010
0000
,  // measure 19
0100
0000
0001
1000
0001
0000
0020
0000
0000
0000
0032
0000
0000
0000
0203
0000
,  // measure 20
0000
0310
1000
0001
0010
0100
0010
0010
,  // measure 21
0001
0000
1000
0100
1000
0000
0010
0000
0100
0000
0001
0000
1000
0000
0100
0000
,  // measure 22
0010
0001
1000
0020
0000
0130
0001
1000
,  // measure 23
0010
0000
0100
0001
0100
0000
0020
0000
0000
0000
1030
0000
0001
0000
0010
0000
,  // measure 24
0100
0000
0010
0011
0000
1100
0000
1010
,  // measure 25
0000
0101
0000
0000
1000
0000
0101
0000
,  // measure 26
0010
0000
1000
0100
0000
0010
0001
1000
,  // measure 27
0020
0000
0100
0000
1000
0000
0001
0030
,  // measure 28
0010
0000
1000
0001
0010
0000
0001
0000
1100
0000
0000
0000
0011
0000
0000
0000
,  // measure 29
0010
0000
0001
0010
0100
0000
0010
0100
1000
0000
0010
0000
0100
0000
0001
0000
,  // measure 30
1010
0000
0101
0000
0010
1000
0001
0010
,  // measure 31
0001
0000
0100
0010
1000
0000
0010
1000
0001
0000
0010
0000
0100
0000
1000
0000
,  // measure 32
0020
0000
0130
0001
2000
0000
3010
0000
,  // measure 33
1001
0000
0010
1000
0001
0000
1000
0001
0100
0000
0010
0000
1000
0000
0001
0000
,  // measure 34
0001
0000
0010
0001
0100
0000
0010
0000
1000
0000
0100
0000
0010
0000
0200
0000
,  // measure 35
0000
0000
1000
0000
0001
0000
0010
0300
,  // measure 36
0100
1000
0010
0100
0001
0000
1000
0000
,  // measure 37
0010
0000
1000
0000
0001
0000
0010
0001
0000
0100
0000
0001
0010
0000
0100
0000
,  // measure 38
1000
0000
0010
0000
0100
0000
0001
1000
0000
0010
0000
1000
0001
0000
0010
0000
,  // measure 39
0100
0000
1000
0000
0010
0000
0100
0001
0000
1000
0000
0001
0100
0000
0010
0000
,  // measure 40
1000
0000
0001
0000
0010
0000
0001
1000
0000
0010
0000
1000
0001
0000
1000
0000
,  // measure 41
0010
0000
1000
0001
1000
0000
0010
0100
0000
0010
1000
0010
1000
0000
0001
0000
,  // measure 42
0100
0000
0010
0100
0010
0000
1000
0001
0000
1000
0100
1000
0100
0000
0010
0000
,  // measure 43
0001
0000
0100
0010
0100
0000
0001
1000
0000
0100
1000
0100
1000
0000
0010
0000
,  // measure 44
0100
0000
0001
0010
0001
0000
0100
0010
0000
1000
0001
1000
0001
0000
0100
0000
,  // measure 45
0020
0000
0000
0000
1030
0000
0001
0000
0100
0001
0000
1000
0000
0000
0010
0000
,  // measure 46
0100
0000
0001
0000
0010
0000
0100
0000
1000
0001
0000
0100
0000
0000
0010
0000
,  // measure 47
1000
0000
0101
0000
1000
0010
0100
0001
,  // measure 48
2000
0000
3010
0100
0002
0000
0013
0000
,  // measure 49
0200
0000
0310
1000
0001
0010
0100
0010
,  // measure 50
0002
0000
1003
0020
0000
0130
0001
1000
,  // measure 51
0020
1000
0001
0130
,  // measure 52
1001
0000
0000
0001
1000
0000
0000
0010
0100
0000
0001
0000
0010
0000
0100
1000
,  // measure 53
0200
0000
0000
0000
0310
0000
0001
0000
1000
0010
0000
0100
0000
0000
0001
0000
,  // measure 54
0010
0000
0100
0000
1000
0000
0001
0000
0100
0010
0000
0001
0000
0000
0010
0000
,  // measure 55
1000
0000
0101
0000
0010
1000
0100
0001
,  // measure 56
0100
0010
0001
1000
0002
0000
0103
0000
,  // measure 57
0020
0000
0100
0230
0000
0302
0000
1000
,  // measure 58
2003
0000
0100
3200
0000
0320
0000
0001
,  // measure 59
0032
0000
0100
0000
1000
0000
0010
0003
,  // measure 60
0001
0000
0100
0010
0000
1000
0000
0001
0010
0000
0001
0000
0100
0000
0010
1000
,  // measure 61
0001
0000
0000
0010
0100
0000
0010
0000
0001
0000
0000
0000
1100
0000
0000
0000
,  // measure 62
0010
1001
0100
0011
,  // measure 63
0100
0001
0010
1000
0010
0001
0100
0010
,  // measure 64
1000
0100
0001
0100
1000
0010
0100
0001
,  // measure 65
0010
0000
0000
0001
0100
0000
0000
0000
0010
0000
0000
1000
0001
0000
0000
0000
,  // measure 66
0010
0000
0000
0100
1000
0000
0000
0000
0001
0000
0000
0100
0010
0000
0000
0000
,  // measure 67
1000
0000
0000
0001
0100
0000
0000
0000
0010
0000
0000
1000
0001
0000
0000
0000
,  // measure 68
0100
0000
0001
0000
1000
0000
0100
0000
1000
0010
0100
0000
0001
0010
0100
0000
,  // measure 69
2002
0000
0000
0000
,  // measure 70
3003
0000
0000
0000
;
