#TITLE:X-Terminate;
#SUBTITLE:;
#ARTIST:Ziggy-X;
#TITLETRANSLIT:;
#SUBTITLETRANSLIT:;
#ARTISTTRANSLIT:;
#GENRE:;
#CREDIT:;
#MENUCOLOR:;
#METERTYPE:DDR;
#BANNER:X-Terminate-bn.png;
#BACKGROUND:X-Terminate-bg.png;
#LYRICSPATH:Lyrics.lrc;
#CDTITLE:ddrencorecdtitle.png;
#MUSIC:X-Terminate.mp3;
#OFFSET:-0.016;
#SAMPLESTART:70.596;
#SAMPLELENGTH:13.945;
#SELECTABLE:YES;
#LISTSORT:;
#BPMS:0.000=141.988;
#STOPS:;
#BGCHANGES:;
#ATTACKS:;

//---------------dance-single - ----------------
#NOTES:
     dance-single:
     :
     Beginner:
     1:
     0.122,0.174,0.030,0.059,0.000:
0000
0000
0000
0000
,
0000
0000
0000
0000
,
0000
0000
0000
0000
,
0000
0000
0000
0000
,
0100
0000
0000
0100
,
0100
0000
0000
0000
,
0010
0000
0000
0010
,
0010
0000
0000
0000
,
1000
0000
0001
0000
,
0100
0000
0010
0000
,
0100
0000
0000
0100
,
0100
0000
0000
0000
,
0001
0000
1000
0000
,
0010
0000
0100
0000
,
0010
0000
0000
0000
,
0100
0000
0000
0000
,
0001
0000
1000
0000
,
0100
0000
0010
0000
,
0001
0000
1000
0000
,
0010
0000
0100
0000
,
1001
0000
0000
0000
,
0100
0000
0000
0000
,
0010
0000
0000
0000
,
1000
0000
0000
0000
,
0010
0000
0000
0000
,
0100
0000
0000
0000
,
0002
0000
0003
0000
,
2000
0000
3000
0000
,
0002
0000
0003
0000
,
2000
0000
3000
0000
,
0010
0000
0010
0000
,
0100
0000
0100
0000
,
0001
0000
0000
0000
,
1000
0000
0000
0000
,
0001
0000
0001
0000
,
1000
0000
1000
0000
,
0010
0000
0000
0000
,
0100
0000
0000
0000
,
0010
0000
0000
0000
,
0010
0000
0000
0000
,
0010
0000
0000
0000
,
0100
0000
0000
0000
,
0001
0000
1000
0000
,
0001
0000
0100
0000
,
0010
0000
0000
0000
,
1000
0000
0000
0000
,
0001
0000
1000
0000
,
0001
0000
0010
0000
,
0100
0000
0000
0000
,
0110
0000
0000
0000
,
1000
0000
0001
0000
,
1000
0000
0100
0000
,
0010
0000
0000
0000
,
0001
0000
0000
0001
,
0001
0000
0000
0000
,
1000
0000
0000
1000
,
1000
0000
0000
0000
,
0010
0000
0000
0000
,
2002
0000
0000
0000
,
3003
0000
0000
0000
;

//---------------dance-single - ----------------
#NOTES:
     dance-single:
     :
     Easy:
     3:
     0.215,0.262,0.099,0.099,0.000:
0000
0000
0000
0000
,
0000
0000
0000
0000
,
0000
0000
0000
0000
,
0000
0000
0000
0000
,
0001
0000
0000
1000
,
2000
0000
3010
0000
,
1000
0000
0000
0001
,
0002
0000
0103
0001
,
0010
0100
0010
0100
,
1000
0010
0100
0001
,
1000
0000
0010
0000
,
0100
0000
0001
1000
,
0100
0010
0100
0010
,
0001
0100
0010
1000
,
0001
0000
1000
0000
,
1001
0000
0010
1000
,
0001
0000
0100
0000
,
0010
0000
0001
1000
,
0010
0000
0100
0000
,
0001
0000
0010
0001
,
0100
0000
1010
0000
,
0101
0000
1001
0000
,
1000
0000
0001
0100
,
0010
0000
1000
0000
,
0001
0000
0010
0000
,
0100
0000
1000
0000
,
0002
0000
0003
0000
,
0020
0000
0030
0000
,
0200
0000
0300
0000
,
2000
0000
3000
0000
,
0001
1000
0100
0000
,
0100
1000
0001
0000
,
0100
0000
0000
0010
,
0010
0000
0010
0000
,
1000
0001
0100
0000
,
0100
0001
1000
0000
,
0100
0000
0010
0000
,
1001
0000
0001
0000
,
0100
0000
0000
0000
,
0010
0000
0000
1000
,
1000
0000
0001
0000
,
1000
0000
0000
1000
,
0001
0100
0010
0100
,
0001
1000
0100
1000
,
0020
0000
0000
0100
,
0130
0000
0001
1000
,
0001
0010
0100
0010
,
0001
1000
0010
1000
,
0200
0000
0000
0300
,
1001
0000
0000
0001
,
1000
0010
0100
0010
,
1000
0001
0010
0001
,
0100
0000
0010
0000
,
1001
0000
0100
0000
,
1001
0000
0000
0000
,
0110
0000
0000
0001
,
1000
0000
0100
0000
,
1000
0000
0001
0000
,
2002
0000
0000
0000
,
3003
0000
0000
0000
;

//---------------dance-single - ----------------
#NOTES:
     dance-single:
     :
     Medium:
     5:
     0.313,0.378,0.148,0.187,0.015:
0000
0000
0000
0000
,
0000
0000
0000
0000
,
0000
0000
0000
0000
,
0000
0000
0000
0000
,
1000
0000
0000
1000
0001
0000
0100
0000
,
0020
0000
0130
0000
,
0001
0000
0000
0001
1000
0000
0100
0000
,
0020
0000
0000
0000
0130
0000
1000
0001
,
1000
0000
0010
0000
,
0100
0000
0001
1000
,
0100
0000
0000
0100
0010
0000
0001
0000
,
1000
0000
0000
1000
0001
0000
1000
0001
,
1000
0010
0100
0001
,
1000
0001
0100
0010
,
2002
0000
3003
0000
,
0220
0000
0000
0000
0330
0000
0001
1000
,
0001
0100
0010
1000
,
0100
0010
0100
1000
,
0001
0100
0010
1000
,
0001
0010
0100
0010
,
0001
0000
0001
1000
0000
0000
0010
0000
0000
1001
0000
0000
,
0100
1001
0010
1001
,
0100
0010
1000
0001
,
2000
0000
3001
1000
,
0010
1000
0100
0010
,
0001
0000
0001
1000
0000
0000
1000
0000
1000
0001
0000
0000
,
2000
0000
3100
0000
,
0002
0000
0103
0000
,
2000
0000
3010
0000
,
0002
0000
0013
0000
,
1000
0000
0001
0000
1000
0000
0010
0100
,
0001
0000
1000
0000
0001
0000
0010
0100
,
0000
0100
0000
0100
0000
0000
1000
0001
,
1000
0000
0010
0000
,
1000
0000
0001
0000
1000
0000
0100
0010
,
0001
0000
1000
0000
0001
0000
0100
0010
,
0000
0010
0000
0010
0000
0100
0000
0100
,
0001
0000
1000
1000
,
0200
0000
0310
0010
,
0200
0000
0310
0001
,
1000
0100
0001
0100
,
1000
0000
0000
1001
,
0100
0000
0001
0000
0010
0000
0001
1000
,
0100
0000
1000
0000
0001
0000
1000
0010
,
0100
0000
0100
0000
0100
0000
0010
1000
,
0001
0000
1000
0000
,
0100
0000
1000
0000
0010
0000
1000
0001
,
0100
0001
1000
0001
,
2002
0000
3003
0000
,
0220
0000
0000
0000
0330
0000
1000
0001
,
0100
0000
0010
0000
1001
0000
0100
0001
,
0100
0000
0010
0000
1000
0000
0001
0010
,
0100
0000
0010
0001
,
1000
0000
0010
0000
,
1001
0000
0000
0000
,
1001
0000
0000
0101
,
1100
0000
0001
0000
,
0110
0000
0100
0000
,
2002
0000
0000
0000
,
3003
0000
0000
0000
;

//---------------dance-double - ----------------
#NOTES:
     dance-double:
     :
     Easy:
     3:
     0.214,0.262,0.128,0.089,0.000:
00000000
00000000
00000000
00000000
,
00000000
00000000
00000000
00000000
,
00000000
00000000
00000000
00000000
,
00000000
00000000
00000000
00000000
,
00010000
00000000
01000000
00100000
,
00200000
00000000
10300000
00000000
,
10000000
00000000
01000000
00100000
,
00200000
00000000
00310000
10000000
,
01000000
00000000
00100000
00000000
,
00010000
00000000
01000000
00001000
,
00010000
00000000
00000100
00000000
,
00001000
00000000
00000010
00000100
,
00000001
00000000
00001000
00000000
,
00000100
00000000
00010000
00001000
,
01000000
00000000
00000000
00000000
,
10010000
00000000
10000000
01000000
,
00100000
00000000
01000000
00000000
,
10000000
00000000
00010000
00000000
,
01000000
00000000
00001000
00000000
,
00010000
00000000
00000100
00000000
,
00000010
00000000
00000011
00000000
,
00001100
00000000
00001001
00000000
,
00000000
00000000
00000001
00000100
,
00000010
00000000
00010000
00000000
,
00001000
00000000
01000000
00000000
,
00010000
00000000
00100000
00000000
,
01002000
00000000
00000000
00003000
,
00020100
00000000
00000000
00030000
,
00102000
00000000
00000000
00003000
,
00020010
00000000
00000000
00030000
,
00001000
01000000
00100000
00000000
,
00100000
01000000
00010000
00000000
,
10000000
00000000
01000000
00000000
,
00100000
00000000
00001000
00000000
,
00010000
00000100
00001000
00000000
,
00001000
00000100
00000010
00000000
,
00000001
00000000
00001000
00000000
,
00000010
00000000
00000100
00000000
,
00001001
00000000
00000000
00000010
,
00000100
00000000
00000000
00000001
,
00001000
00000000
00000100
00000000
,
00011000
00000000
00000000
00001000
,
01000000
00010000
00100000
01000000
,
10000000
00100000
01000000
00010000
,
10000000
00000000
00000000
01000000
,
02000000
00000000
03000000
10000000
,
00010000
01000000
00001000
00010000
,
00000100
00001000
00000010
00000100
,
00000001
00000000
00001000
00000000
,
00001001
00000000
00000000
00000010
,
00001000
00000010
00010000
00001000
,
01000000
00010000
00100000
01000000
,
00100000
00000000
00010000
00000000
,
10010000
00000000
01000000
00010000
,
01000000
00000000
00001000
00000000
,
00010000
00000000
00000100
00000010
,
00000100
00000000
00001000
00000000
,
00000001
00000000
00000100
00000010
,
00002002
00000000
00000000
00000000
,
00003003
00000000
00000000
00000000
;

//---------------dance-double - ----------------
#NOTES:
     dance-double:
     :
     Medium:
     5:
     0.311,0.378,0.158,0.158,0.030:
00000000
00000000
00000000
00000000
,
00000000
00000000
00000000
00000000
,
00000000
00000000
00000000
00000000
,
00000000
00000000
00000000
00000000
,
00010000
00000000
00000000
00010000
00100000
00000000
01000000
00000000
,
10000000
00000000
00010000
00000000
,
10000000
00000000
00000000
10000000
00100000
00000000
01000000
00000000
,
00010000
00000000
00000000
00000000
01000000
00000000
00001000
00010000
,
00001000
00010000
00001000
00010000
,
00000100
00001000
00000100
00000010
,
00000001
00000000
00000000
00000001
00001000
00000000
00000010
00000000
,
00010000
00000000
00000000
00001000
00010000
00000000
00010000
00001000
,
00010000
00001000
00010000
00001000
,
01000000
00010000
01000000
00100000
,
20020000
00000000
30030000
00000000
,
02200000
00000000
00000000
00000000
03300000
00000000
10000000
00010000
,
10000000
01000000
00100000
00010000
,
00100000
01000000
10000000
00010000
,
01000000
00001000
00010000
00000100
,
00001000
00000010
00000100
00000001
,
00001000
00000000
00001000
00000001
00000000
00000000
00000010
00000000
00000000
00000110
00000000
00000000
,
00000010
00000110
00000010
00000110
,
00000100
00001000
00000010
00010000
,
00002000
00000000
01003000
00001000
,
00010000
00000100
00010000
00001000
,
01000000
00000000
01000000
00010000
00000000
00000000
00010000
00000000
00010000
10000000
00000000
00000000
,
02000000
00000000
03000000
00000000
,
00200000
00000000
00300000
00000000
,
00002000
00000000
00003000
00000000
,
00000200
00000000
00000300
00000000
,
00000010
00000000
00000100
00000000
00000001
00000000
00001000
00000001
,
00000100
00000000
00000010
00000000
00001000
00000000
00000001
00000010
,
00000000
00000100
00000000
00000100
00000000
00000000
00001000
00000001
,
00001000
00000000
00000010
00000000
,
00010000
00000000
00001000
00000000
00010000
00000000
00001000
01000000
,
00010000
00000000
00100000
00000000
01000000
00000000
10000000
00100000
,
00000000
00100000
00000000
00100000
00000000
01000000
00000000
01000000
,
00010000
00000000
10000000
10000000
,
02000000
00000000
13000000
10000000
,
00020000
00000000
00130000
00001000
,
00011000
00000000
00000000
00000000
,
00010100
00000000
00000000
00001001
,
00000001
00000000
00000100
00000000
00000010
00000000
00001000
00000001
,
00001000
00000000
00000000
00000000
00000010
00000000
00000000
00000000
00000100
00000000
00000000
00000010
00000000
00000000
00000100
00000000
,
00000001
00001000
00000100
00010000
,
00011000
00000000
00001000
00000000
,
01000000
00000000
00010000
00000000
01000000
00000000
00100000
10000000
,
00010000
00000000
00000000
00000000
00100000
00000000
00000000
00000000
01000000
00000000
00000000
10000000
00000000
00000000
00010000
00000000
,
02000000
00000000
03000000
00000000
,
20020000
00000000
30030000
00000000
,
10000000
00000000
01000000
00000000
00100000
00000000
00010000
01000000
,
00100000
00000000
00000000
00000000
10000000
00000000
00000000
00000000
00010000
00000000
00000000
00100000
00000000
00000000
00010000
00000000
,
01000000
00001000
00010000
00000100
,
00001000
00000010
00000100
00000001
,
00001001
00000000
00000000
00000000
,
00011000
00000000
00000000
01010000
,
11000000
00100000
01000000
00010000
,
10100000
01000000
00010000
00100000
,
00022000
00000000
00000000
00000000
,
00033000
00000000
00000000
00000000
;

//---------------dance-single - ----------------
#NOTES:
     dance-single:
     :
     Hard:
     8:
     0.474,0.552,0.355,0.276,0.222:
0000
0000
0000
0000
,
0000
0000
0000
0000
,
0000
0000
0000
0000
,
0000
0000
0000
0000
,
1001
0000
0000
0010
0001
0000
0110
0000
,
1001
0000
0010
0000
,
1001
0000
0000
0100
1000
0000
0110
0000
,
1001
0000
0000
0000
0000
0000
0001
1000
0001
0000
0000
0000
0100
0000
0010
0000
,
2000
0100
0001
0100
,
0010
3001
1010
0110
,
1001
0000
0000
0010
0100
0000
0101
0000
,
1100
0000
0000
0000
0000
0000
1000
0001
1000
0000
0000
0000
0010
0000
0100
0000
,
0002
0100
1000
0100
,
0010
1003
0101
0110
,
2002
0000
3000
0103
,
2020
0000
0000
0000
3030
0000
0010
1000
,
0001
0100
0010
0100
0001
0100
0010
1000
,
0001
0010
0100
0010
0001
0010
0100
1000
,
1000
0010
0100
0010
1000
0010
0100
0001
,
1000
0100
0010
0100
1000
0100
0010
0001
,
0100
0010
0100
0010
0000
0000
1000
0000
0000
0001
0100
0000
,
1000
0000
0000
0001
0100
0000
1000
0000
0000
0001
0100
0000
,
0010
0000
1000
0001
0000
0100
0010
1000
0010
0000
0000
0000
,
0020
0000
0130
0001
,
1000
0100
1000
0100
0000
0100
0010
0000
0010
1000
0000
1000
,
0010
0000
0010
0001
0000
0001
1000
0000
1000
0100
0000
0000
,
0022
0003
1000
0030
,
2200
3000
0001
0300
,
0202
0003
1000
0300
,
2020
3000
0001
0030
,
1000
0000
0000
0000
0001
0000
0000
0000
1000
0000
0000
0000
0010
0000
0000
0100
,
0001
0000
0000
0000
1000
0000
0000
0000
0001
0000
0000
0010
0100
0000
0010
0000
,
0001
0000
1000
0000
0000
0000
0010
0000
0000
0000
1000
0000
0001
0100
0001
0100
,
0002
0000
0000
0000
0010
0000
0000
0000
1003
0000
0000
0000
0010
0000
0000
1000
,
0001
0000
0000
0000
1000
0000
0000
0000
0001
0000
0000
0000
0100
0000
0000
0010
,
1000
0000
0000
0000
0001
0000
0000
0000
1000
0000
0000
0100
0010
0000
0100
0000
,
0000
1000
0000
0010
0000
0100
0000
0001
,
1000
0000
0000
0000
0010
0000
0000
0000
1000
0100
1000
0000
0001
0100
0001
0000
,
0020
0000
0000
0000
1000
0000
0000
0030
0001
0100
0001
0000
1000
0100
1000
0000
,
0020
0000
0000
0000
0001
0000
0000
0000
1030
0001
1000
0000
0001
1000
0001
0000
,
0100
0010
0110
1001
,
1000
0000
0000
0000
0001
0000
0000
0000
0011
0000
0000
0000
0100
0000
0000
0010
,
0100
0000
0000
1000
0000
0000
0010
0000
0000
0100
0001
1000
,
0001
0000
0000
0000
0100
0000
0000
0000
0001
0000
0000
0100
0000
0000
0010
0000
,
1001
0000
0101
0000
0001
1100
0000
1000
,
0101
0000
0000
0000
0010
0000
0000
0000
1001
0000
0000
0000
0100
0000
0000
0010
,
0100
0000
0000
0001
0000
0000
0100
0000
0000
0010
1000
0001
,
1000
0000
0000
0000
0010
0000
0000
0000
1000
0000
0000
0001
0000
0000
0100
0000
,
2002
0000
0003
3100
,
0022
0000
0000
0000
0000
0000
0000
0000
0033
0000
0000
0000
0001
0000
0000
1000
,
0010
0000
0000
0100
0000
0000
1001
0000
0000
0001
0010
0100
,
1000
0000
0000
0000
0010
0000
0000
0000
1000
0000
0000
0010
0000
0000
0100
0000
,
0201
1000
0310
1000
,
1200
0001
0310
0110
,
1001
0000
0010
0001
0100
0000
1000
0000
,
0110
0000
0000
0000
0001
0000
0000
0000
1000
0000
0000
0000
0100
0000
0000
0001
,
2000
0100
0010
3100
,
0002
0010
0100
0013
,
2002
0000
0000
0000
,
3003
0000
0000
0000
;

//---------------dance-double - ----------------
#NOTES:
     dance-double:
     :
     Hard:
     8:
     0.441,0.494,0.335,0.227,0.232: // measure 1
00000000
00000000
00000000
00000000
,  // measure 2
00000000
00000000
00000000
00000000
,  // measure 3
00000000
00000000
00000000
00000000
,  // measure 4
00000000
00000000
00000000
00000000
,  // measure 5
11000000
00000000
00000000
01000000
10000000
00000000
01100000
00000000
,  // measure 6
00110000
00000000
00011000
00000000
,  // measure 7
00000101
00000000
00000000
00000100
00000001
00000000
00000110
00000000
,  // measure 8
00001010
00000000
00000000
00001000
00010000
00000000
00010000
00100000
,  // measure 9
20000000
01000000
00010000
01000000
,  // measure 10
00100000
30010000
01010000
01001000
,  // measure 11
00011000
00000000
00000000
00010000
01000000
00000000
00100000
00000000
,  // measure 12
00110000
00000000
00000000
00010000
00001000
00000000
00001000
00000010
,  // measure 13
00000002
00000100
00001000
00000100
,  // measure 14
00000010
00001003
00001100
00010100
,  // measure 15
00022000
00000000
00003000
00031000
,  // measure 16
02200000
00000000
00000000
00000000
03300000
00000000
01000000
10000000
,  // measure 17
00100000
00000000
00000000
10000000
01000000
00000000
00000000
00100000
00010000
00000000
00000000
10000000
00100000
00000000
00000000
01000000
,  // measure 18
00001000
00000000
00000000
00010000
00001000
00000000
00000000
00100000
00010000
00000000
00000000
01000000
00001000
00000000
00000000
00010000
,  // measure 19
00000010
00000000
00000000
00001000
00000010
00000000
00000000
00000100
00000001
00000000
00000000
00001000
00000100
00000000
00000000
00000010
,  // measure 20
00000100
00000000
00000000
00000100
00010000
00000000
00000000
00000010
00001000
00000000
00000000
00001000
00000001
00000000
00000000
00000000
,  // measure 21
00000100
00000001
00000100
00000001
00000000
00000000
00001000
00000000
00000000
00000110
00000000
00000000
,  // measure 22
00000001
00001100
00010000
00101000
,  // measure 23
00010000
00000000
00000000
01000000
00000000
00100000
10000000
00010000
10000000
00000000
00000000
00000000
,  // measure 24
20000000
00010000
31000000
10010000
,  // measure 25
00100000
00000000
00010000
01000000
00000000
01000000
00001000
00000000
00001000
00010000
00000000
00010000
,  // measure 26
00000100
00000000
00000100
00001000
00000000
00001000
00000010
00000000
00000010
00000100
00000000
00000000
,  // measure 27
00000002
00000000
00001000
00000003
,  // measure 28
00002000
00000000
00010000
00003000
,  // measure 29
00020000
00000000
10000000
00030000
,  // measure 30
20000000
00000000
00010000
30000000
,  // measure 31
01000000
00000000
00000000
00000000
00100000
00000000
00000000
00000000
01000000
00000000
00000000
00000000
10000000
00000000
00000000
00010000
,  // measure 32
01000000
00000000
00000000
00000000
00100000
00000000
00000000
00000000
10000000
00000000
00000000
00100000
10000000
00000000
00010000
00000000
,  // measure 33
01000000
00000000
00100000
00000000
00000000
00000000
01000000
00000000
00000000
00000000
00001000
00000000
00010000
00001000
00010000
00001000
,  // measure 34
00020000
00000000
00000000
00000000
00030100
00000000
00000000
00000000
00001000
00000000
00000000
00000000
00000010
00000000
00000000
00000100
,  // measure 35
00000010
00000000
00000000
00000000
00000100
00000000
00000000
00000000
00000010
00000000
00000000
00000000
00001000
00000000
00000000
00000010
,  // measure 36
00001000
00000000
00000000
00000000
00000001
00000000
00000000
00000000
00000010
00000000
00000000
00000001
00000010
00000000
00000100
00000000
,  // measure 37
00000000
00001000
00000000
00000010
00000000
00010000
00000000
00000100
,  // measure 38
00010000
00000000
00001000
00000000
01000000
01000000
00010000
00010000
,  // measure 39
00200000
00000000
01300000
00000000
00100000
00100000
00001000
00001000
,  // measure 40
00020000
00000000
00030100
00000000
00001000
00001000
00000010
00000010
,  // measure 41
00000200
00000301
00000101
00001100
,  // measure 42
00000010
00000000
00000000
00000000
00010000
00000000
00000000
00000000
00011000
00000000
00000000
00000000
00001000
00000000
00000000
01000000
,  // measure 43
00010000
00000000
00000000
00100000
00000000
00000000
00010000
00000000
00000000
10000000
00010000
10000000
,  // measure 44
00010000
00000000
00000000
00000000
01000000
00000000
00000000
00000000
00100000
00000000
00000000
10000000
00000000
00000000
00100000
00000000
,  // measure 45
10010000
01010000
10000000
01000000
,  // measure 46
01100000
00000000
00000000
00000000
00010000
00000000
00000000
00000000
00001000
00000000
00000000
00000000
00000010
00000000
00000000
00000100
,  // measure 47
00000010
00000000
00000000
00000001
00000000
00000000
00000100
00000000
00000000
00000001
00001000
00000001
,  // measure 48
00001000
00000000
00000000
00000000
00000010
00000000
00000000
00000000
00000100
00000000
00000000
00000001
00000000
00000000
00000010
00000000
,  // measure 49
00000220
00000000
00000030
00001300
,  // measure 50
00022000
00000000
00000000
00000000
00000000
00000000
00000000
00000000
00033000
00000000
00000000
00000000
00010000
00000000
00000000
00000100
,  // measure 51
00001000
00000000
00000000
00000010
00000000
00000000
00000100
00000000
00000000
00000001
00000010
00000100
,  // measure 52
00001000
00000000
00000000
00000000
00000010
00000000
00000000
00000000
00010000
00000000
00000000
00001000
00000000
00000000
00100000
00000000
,  // measure 53
00011000
00000000
00000000
00000000
,  // measure 54
10010000
00000000
00000000
01100000
,  // measure 55
10010000
00000000
01000000
00010000
01000000
00000000
00001000
00000000
,  // measure 56
00011000
00000000
00000000
00000000
00010000
00000000
00000000
00000000
00000100
00000000
00000000
00000000
00001010
00000000
00000000
00000010
,  // measure 57
00000200
00000001
00001000
00000310
,  // measure 58
00000020
00000000
00000100
00000000
00001030
00000001
00001000
00000100
,  // measure 59
00022000
00000000
00000000
00000000
,  // measure 60
00033000
00000000
00000000
00000000
;
