#TITLE:Wow Wow 70's;
#SUBTITLE:;
#ARTIST:Sampling Masters AYA;
#TITLETRANSLIT:;
#SUBTITLETRANSLIT:;
#ARTISTTRANSLIT:;
#GENRE:;
#CREDIT:;
#MENUCOLOR:;
#METERTYPE:DDR;
#BANNER:Wow Wow 70's-bn.png;
#BACKGROUND:Wow Wow 70's-bg.png;
#LYRICSPATH:;
#CDTITLE:ddrencorecdtitle.png;
#MUSIC:Wow Wow 70's.mp3;
#OFFSET:-0.373;
#SAMPLESTART:47.663;
#SAMPLELENGTH:11.980;
#SELECTABLE:YES;
#LISTSORT:;
#BPMS:0.000=125.990;
#STOPS:;
#BGCHANGES:-2.500=Wow Wow 70's.avi=1.000=0=0=1,
99999=-nosongbg-=1.000=0=0=0 // don't automatically add -songbackground-
;
#ATTACKS:;

//---------------dance-single - ----------------
#NOTES:
     dance-single:
     :
     Beginner:
     1:
     0.097,0.194,0.010,0.020,0.000:
0000
0000
0000
0000
,
0000
0000
0000
0000
,
0000
0000
0000
0000
,
0000
0000
0000
0000
,
1000
0000
0000
0000
,
0001
0000
0000
0000
,
0100
0000
0100
0000
,
0010
0000
0010
0000
,
1000
0000
0000
0000
,
0001
0000
0000
0000
,
0010
0000
0010
0000
,
0100
0000
0100
0000
,
0010
0000
0000
0000
,
0001
0000
0000
0000
,
1000
0000
0000
0000
,
0001
0000
0100
0000
,
0010
0000
0000
0000
,
0100
0000
0000
0000
,
0001
0000
0000
0000
,
1000
0000
0100
0000
,
0010
0000
0000
0000
,
0010
0000
0001
0000
,
0100
0000
0000
0000
,
0010
0000
0000
0000
,
0100
0000
0000
0000
,
0100
0000
0001
0000
,
1000
0000
0000
0000
,
0001
0000
0000
0000
,
1000
1000
1000
0000
,
0001
0000
0100
0000
,
0010
0010
0010
0000
,
2002
0000
3003
0000
,
0001
0000
0000
0000
,
1000
0000
0000
0000
,
0100
0000
0000
0000
,
0010
0000
0001
0001
,
0001
0000
0000
0000
,
0100
0000
0000
0000
,
0010
0000
0000
0000
,
1000
0000
0100
0000
,
1000
0000
0000
0000
,
0001
0000
0000
0000
,
0010
0000
0000
0000
,
0100
0000
1000
1000
,
1000
0000
0000
0000
,
0010
0000
0000
0000
,
0100
0000
0000
0000
,
0001
0000
0100
0100
;

//---------------dance-single - ----------------
#NOTES:
     dance-single:
     :
     Easy:
     3:
     0.174,0.218,0.051,0.071,0.000:
0000
0000
0000
0000
,
0000
0000
0000
0000
,
0000
0000
0000
0000
,
0000
0000
0000
0000
,
1000
0000
0010
0000
,
1000
0000
0001
0000
,
1000
0010
0100
0000
,
0100
0001
0010
0000
,
0001
0000
0100
0000
,
0001
0000
1000
0000
,
0001
0010
0100
0000
,
0100
1000
0020
0000
,
1030
0000
0001
0000
,
1000
0000
0010
1001
,
0100
0100
0000
0010
,
1000
0000
0001
0000
,
0010
0000
0100
1001
,
0010
0000
0001
0000
,
0100
0100
0000
0001
,
0010
0000
0100
0000
,
2000
0000
0000
0000
,
3001
0000
0100
0000
,
0020
0000
0000
0100
,
0130
0000
0001
0000
,
0200
0000
0000
0000
,
0310
0000
1000
0000
,
0002
0000
0000
1000
,
1003
0000
0100
0000
,
0010
0001
1000
0000
,
0010
0000
0100
0000
,
0001
0000
1000
0000
0100
0000
0000
0010
,
0000
0000
0000
1001
0000
1001
0000
0000
,
0001
0100
0010
0000
,
1000
0001
0100
0000
,
0010
0000
0100
0000
,
0001
0000
0010
0010
,
0100
1000
0010
0000
,
0100
0001
1000
0000
,
0001
0001
0000
1000
,
0200
0000
0320
0000
,
0031
0100
0010
0000
,
1000
0001
0100
0000
,
0010
0000
1000
0000
,
0001
0000
0010
0010
,
0001
1000
0010
0000
,
0100
0000
0010
0000
,
1000
1000
0000
0001
,
0000
0010
0000
1001
;

//---------------dance-single - ----------------
#NOTES:
     dance-single:
     :
     Medium:
     5:
     0.286,0.292,0.132,0.081,0.005:
0000
0000
0000
0000
,
0000
0000
0000
0000
,
0000
0000
0000
0000
,
0000
0000
0000
0000
,
1000
0100
0010
0010
,
0001
0000
0100
0000
0010
1000
0001
0000
,
0010
0001
0100
1001
,
0010
1000
0100
0100
,
0010
0001
1000
1000
,
0100
0000
0010
0000
0001
0100
0010
0000
,
1000
0100
0010
1001
,
0010
0000
0001
0000
1000
0100
1000
0100
,
0010
0001
0100
0010
,
1000
0000
0001
0100
0000
0100
0010
0000
,
1000
0100
0010
1001
,
0010
0001
0100
0100
,
0001
1000
0100
0000
0010
0000
1001
0000
,
0100
0010
1000
0100
,
0010
0001
0100
1001
,
0010
0000
0100
0000
0010
1000
0100
0020
,
0000
0001
0000
1000
,
0000
0000
0031
0000
0100
0001
0010
0200
,
0000
0000
1000
0000
0000
1300
0010
0100
,
0000
0001
0000
0010
0000
0001
0100
0020
,
0000
1000
0000
0001
,
0000
0000
1030
0000
0100
1000
0010
0200
,
0000
0000
0001
0000
0000
0301
1000
0002
,
0000
0000
0000
2003
0000
0000
0000
3100
,
0000
1000
0010
0000
0100
0000
0001
0000
,
1000
1000
0001
0001
,
1000
0000
0100
0000
1000
0001
0000
0100
,
0000
0000
0000
1001
0000
1001
0000
0000
,
0001
0100
0010
1000
,
0100
0000
0100
0000
0010
0000
0001
1000
,
0000
0020
0000
0130
,
0000
0010
1001
1001
,
0010
0100
0001
0010
,
0100
0000
0100
0000
0010
0000
0001
1000
,
0000
0010
0000
1010
,
0000
0101
1000
0001
,
0010
0001
0100
0010
,
1000
0000
1000
0000
0001
0000
0100
0010
,
0000
2000
0000
3001
,
0000
0010
1001
1001
,
0100
1000
0010
0100
,
0001
0000
0001
0000
1000
0000
0010
0100
,
0000
0000
0001
0000
1000
0100
0010
0001
,
0000
0000
0000
0000
1000
0000
0000
0000
0001
0000
0000
0000
0100
0000
0000
0100
;

//---------------dance-single - ----------------
#NOTES:
     dance-single:
     :
     Hard:
     6:
     0.375,0.390,0.173,0.173,0.061: // measure 1
0000
0000
0000
0000
,  // measure 2
0000
0000
0000
0000
,  // measure 3
0000
0000
0000
0000
,  // measure 4
0000
0000
0000
0000
,  // measure 5
1000
0000
0010
0000
0100
0000
0000
0000
0010
0000
0000
0010
0000
0000
1000
0000
,  // measure 6
0001
0100
0010
0000
0100
0001
0010
0000
,  // measure 7
0200
0000
0010
0000
0000
0010
0000
0000
0310
0000
0000
0000
1001
0000
0000
0000
,  // measure 8
0200
0000
0010
0000
0000
0010
0000
0000
0310
0000
0000
0000
1000
0000
0000
0000
,  // measure 9
0001
0000
0010
0000
0100
0000
0000
0000
0010
0000
0000
0010
0000
0000
0001
0000
,  // measure 10
1000
0010
0100
0000
0010
1000
0100
0000
,  // measure 11
0020
0000
0100
0000
0000
0100
0000
0000
0130
0000
0000
0000
1001
0000
0000
0000
,  // measure 12
0020
0000
0100
0000
0000
0100
0000
0000
0130
0000
0001
0000
0100
0000
0001
0000
,  // measure 13
1000
0010
0100
0000
0010
0000
1000
0000
,  // measure 14
0001
0000
0010
0100
0000
0010
1001
0000
,  // measure 15
0002
0000
2000
0000
0000
3003
1001
0000
,  // measure 16
0010
1000
0100
0000
0010
0001
0100
0000
,  // measure 17
0010
1000
0010
0100
0001
0000
0011
0000
,  // measure 18
0010
0100
1000
0010
0100
0000
0001
0000
,  // measure 19
2000
0000
0002
0000
0000
3003
1001
0000
,  // measure 20
0010
0001
0100
0000
0010
1000
0100
0020
,  // measure 21
0000
0001
0000
1000
,  // measure 22
0000
0000
0031
0000
0100
0001
0010
0200
,  // measure 23
0000
0000
0001
0000
0000
1300
0010
0100
,  // measure 24
0000
0001
0000
0010
0000
0001
0100
0020
,  // measure 25
0000
1000
0000
0001
,  // measure 26
0000
0000
1030
0000
0100
1000
0010
0200
,  // measure 27
0000
0000
1000
0000
0000
0301
1000
0020
,  // measure 28
0000
0000
0000
0130
0000
0001
1000
0100
,  // measure 29
0000
0010
0100
0000
1001
0000
0100
0000
,  // measure 30
0001
0010
0100
0000
1000
0010
0100
0001
,  // measure 31
0000
0010
0100
0000
1000
0010
0000
0101
,  // measure 32
0000
0000
0000
1001
0000
1001
0000
0000
,  // measure 33
0010
0000
1000
0100
0010
0000
0100
1000
,  // measure 34
0010
0000
0000
0000
0100
0000
0000
0000
0010
0000
0000
1000
0000
0000
0001
0000
,  // measure 35
0000
0000
1001
0000
0010
0001
0100
0010
,  // measure 36
1000
0001
0110
0110
,  // measure 37
0001
0000
1000
0010
0100
0000
0010
1000
,  // measure 38
0100
0000
0000
0000
0010
0000
0000
0000
0100
0000
0000
1000
0000
0000
0001
0000
,  // measure 39
0200
0000
0320
0000
0030
0100
0001
0010
,  // measure 40
0000
0010
0001
0100
0010
1000
0100
0100
,  // measure 41
0010
0000
0001
1000
0100
0100
0010
0001
,  // measure 42
0100
0000
0000
0000
0010
0000
0000
0000
1000
0000
0000
0100
0000
0000
0010
0000
,  // measure 43
0000
0000
1001
0000
0100
1000
0010
0100
,  // measure 44
0001
1000
0110
0110
,  // measure 45
1000
0000
0001
1000
0100
0100
0010
0100
,  // measure 46
1000
0000
0000
0000
0001
0000
0000
0000
1000
0000
0000
0010
0000
0000
0100
0000
,  // measure 47
0002
0000
2003
0000
3100
0010
0001
1000
,  // measure 48
0000
0000
0000
0000
0101
0000
0000
0000
0010
0000
0000
0000
0001
0100
0010
1000
;

//---------------dance-double - ----------------
#NOTES:
     dance-double:
     :
     Easy:
     3:
     0.192,0.218,0.030,0.041,0.000:
00000000
00000000
00000000
00000000
,
00000000
00000000
00000000
00000000
,
00000000
00000000
00000000
00000000
,
00000000
00000000
00000000
00000000
,
00001000
00000100
00000010
00000000
,
00000010
00000001
00000100
00000000
,
00000010
00000000
00000010
00000000
,
00000100
00000000
00000100
00000000
,
00000010
00001000
00000100
00000000
,
00000100
00010000
00001000
00000000
,
00100000
00000000
00100000
00000000
,
01000000
00000000
01000000
00000000
,
10000000
01000000
00100000
00010000
,
01000000
00100000
10000000
00000000
,
00010000
00000000
10000000
00000000
,
01000000
00000000
00100000
00000000
,
00001000
00010000
00001000
01000000
,
00010000
00100000
01000000
00000000
,
00100000
00000000
00001000
00000000
,
00010000
00000000
00000100
00000010
,
00000002
00000000
00001000
00000000
,
00000103
00000000
00000010
00001000
,
00000200
00000000
00000310
00000001
,
00000100
00000000
00000010
00000000
,
00002000
00000000
00000001
00000000
,
00003100
00000000
00000010
00000100
,
00000020
00000000
00001030
00000100
,
00010000
00000000
00001000
00000000
,
01000000
00010000
00100000
00000000
,
01000000
00000000
00100000
00000000
,
00010000
00000000
10000000
00000000
01000000
00000000
00000000
00100000
,
00000000
00000000
00000000
10010000
00000000
10010000
00000000
00000000
,
10000000
01000000
00100000
00010000
,
01000000
00100000
01000000
00010000
,
00100000
00000000
00001000
00000000
,
00010000
00000000
00000100
00000100
,
00001000
00000010
00000100
00000001
,
00000010
00000100
00001000
00000010
,
00010000
00000000
00000100
00000000
,
00000010
00000000
00000001
00000000
,
00001000
00000100
00000010
00000100
,
00001000
00000010
00010000
00001000
,
01000000
00000000
00010000
00000000
,
00100000
00000000
01000000
01000000
,
10000000
00100000
01000000
00010000
,
00100000
01000000
10000000
01000000
,
00100000
00000000
00010000
00000000
,
01000000
00000000
00001000
00011000
;

//---------------dance-double - ----------------
#NOTES:
     dance-double:
     :
     Medium:
     6:
     0.319,0.317,0.132,0.091,0.015:
00000000
00000000
00000000
00000000
,
00000000
00000000
00000000
00000000
,
00000000
00000000
00000000
00000000
,
00000000
00000000
00000000
00000000
,
00100000
00000000
00000000
00000000
00010000
00000000
00000000
00000000
01000000
00000000
00000000
01000000
00000000
00000000
00000000
00000000
,
00100000
00000000
10000000
00000000
00010000
00100000
01000000
00000000
,
00100000
00001000
00010000
00011000
,
00010000
00000010
00000200
00000000
,
00000301
00000000
00000000
00000000
00001000
00000000
00000000
00000000
00000010
00000000
00000000
00000010
00000000
00000000
00000000
00000000
,
00000100
00000000
00000001
00000000
00000010
00000100
00001000
00000000
,
00000010
00010000
00001000
00011000
,
00001000
00000000
01000000
00000000
00010000
00100000
01000000
10000000
,
00010000
01000000
00100000
10000000
,
01000000
00000000
00100000
01000000
00000000
00000000
00110000
00000000
,
00010000
01000000
00001000
00011000
,
00010000
00000000
00000100
00000000
00001000
00000010
00000100
00000000
,
00000001
00000100
00000010
00000000
00001000
00000000
00000001
00000000
,
00000010
00000000
00000100
00001000
00000000
00000000
00000011
00000000
,
00000100
00001000
00000010
00011000
,
00001000
00000000
01000000
00000000
00010000
00100000
01000000
00200000
,
00000000
00010000
00000000
10000000
,
00000000
00000000
00310000
00000000
00001000
00010000
00000010
00000200
,
00000000
00000000
00001000
00000000
00000000
00000301
00001000
00000100
,
00000000
00000010
00000000
00001001
00000000
00000100
00001000
00000020
,
00000000
00001000
00000000
00000001
,
00000000
00000000
00001030
00000000
00000100
00010000
00001000
02000000
,
00000000
00000000
00100000
00000000
00000000
03010000
00100000
00020000
,
00000000
00000000
00000000
20030000
00000000
00000000
00000000
30100000
,
00000000
01000000
00010000
00000000
10010000
00000000
01000000
00000000
,
00100000
00000000
00001000
00000000
00010000
00000100
00001000
00000010
,
00000000
00000010
00000100
00000000
00000001
00000010
00000000
00001100
,
00000000
00000000
00000000
00000110
00000000
00000110
00000000
00000000
,
00000001
00000000
00000100
00000000
00000010
00001000
00000001
00000010
,
00000100
00000100
00000010
00000001
,
00000200
00000010
00000001
00000310
,
00001000
00000100
00000010
00000100
00010000
00000000
00010000
00000000
,
00001000
00000000
01000000
00000000
00010000
00100000
01000000
10000000
,
00100000
00100000
01000000
00010000
,
00100000
00000000
00100000
00000000
00000000
00010000
01000000
00010000
,
00000000
10000000
01000000
10000000
01000000
01000000
00100000
00010000
,
01000000
00000000
00001000
00000000
00100000
00010000
00100000
00001000
,
00010000
00000100
00001000
00000010
,
00000200
00000001
00000010
00000301
,
00001000
00000010
00000100
00000010
00010000
00000000
00010000
00000000
,
00001000
00000000
00100000
00000000
00010000
01000000
00100000
10000000
,
01000000
00100000
00001000
00010000
,
00000100
00000000
00000100
00000000
00000000
00001000
00000001
00001000
,
00000000
00000000
00000000
00000000
00000010
00000000
00000000
00000000
00000100
00000000
00000000
00000000
00001001
00000000
00000000
00000110
;

//---------------dance-double - ----------------
#NOTES:
     dance-double:
     :
     Hard:
     7:
     0.379,0.390,0.173,0.183,0.076:
00000000
00000000
00000000
00000000
,
00000000
00000000
00000000
00000000
,
00000000
00000000
00000000
00000000
,
00000000
00000000
00000000
00000000
,
00000100
00000000
00001000
00000000
00000010
00000000
00000000
00000000
00000100
00000000
00000000
00000100
00000000
00000000
00000010
00000000
,
00001000
00000001
00000010
00000000
00000010
00000100
00001000
00000000
,
00000200
00000000
00001000
00000000
00000000
00001000
00000000
00000000
00001300
00000000
00000000
00000000
00001100
00000000
00000000
00000000
,
00000200
00000000
00010000
00000000
00000000
00010000
00000000
00000000
00010300
00000000
00000000
00000000
00001000
00000000
00000000
00000000
,
00100000
00000000
00010000
00000000
01000000
00000000
00000000
00000000
00100000
00000000
00000000
00100000
00000000
00000000
01000000
00000000
,
00010000
00100000
01000000
00000000
01000000
10000000
00100000
00000000
,
02000000
00000000
00010000
00000000
00000000
00010000
00000000
00000000
03010000
00000000
00000000
00000000
01010000
00000000
00000000
00000000
,
02000000
00000000
00001000
00000000
00000000
00001000
00000000
00000000
03001000
00000000
00010000
00000000
00001000
00000000
00010000
00000000
,
00000100
00001000
00000001
00000000
00000100
00000000
00000010
00000000
,
00000100
00000000
00000010
00001000
00000000
00000010
00001001
00000000
,
00000020
00000000
00000200
00000000
00000000
00000330
00001001
00000000
,
00000001
00000100
00000010
00000000
00001000
00000100
00010000
00000000
,
00001000
01000000
00100000
10000000
00010000
00000000
10010000
00000000
,
00100000
00010000
01000000
00001000
00010000
00000000
00000100
00000000
,
00002000
00000000
00000002
00000000
00000000
00003003
00000110
00000000
,
00000001
00000000
00000010
00000000
00000010
00000001
00000010
00000200
,
00000000
00010000
00000000
00001000
,
00000000
00000000
00000310
00000000
00000001
00000100
00000010
00002000
,
00000000
00000000
00000001
00000000
00000000
00003010
00000100
00000001
,
00000000
00001000
00000000
00000100
00000000
00010000
00001000
02000000
,
00000000
00001000
00000000
00010000
,
00000000
00000000
03100000
00000000
10000000
01000000
00100000
00020000
,
00000000
00000000
10000000
00000000
00000000
00130000
00010000
02000000
,
00000000
00000000
00000000
03002000
00000000
00010000
01000000
01003000
,
00000000
00100000
01000000
00000000
10010000
00000000
01000000
00000000
,
00010000
10000000
00000000
00000000
00100000
00000000
01000000
00010000
00000000
01000000
00010000
00000000
00100000
00000000
00001000
00000000
,
00000000
00010000
00000100
00000000
00001000
00000010
00000000
00000101
,
00000000
00000000
00000000
00001001
00000000
00001001
00000000
00000000
,
00001000
00000000
00000010
00000000
00000100
00000010
00001000
00000001
,
00000010
00000000
00000000
00000000
00000100
00000000
00000000
00000000
00001000
00000000
00000000
00000001
00000000
00000000
00000100
00000000
,
00000000
00000000
00001001
00000000
00000001
00000100
00000010
00001000
,
00000010
00010000
00011000
00101000
,
00001000
00000000
01000000
00000000
00010000
00100000
01000000
10000000
,
00100000
00000000
00000000
00000000
01000000
00000000
00000000
00000000
00010000
00000000
00000000
00100000
00000000
00000000
01000000
00000000
,
00200000
00000000
02300000
00000000
13000000
00010000
01000000
00100000
,
00000000
00100000
10000000
00010000
01000000
00001000
00010000
00010000
,
00000100
00000000
00001000
00000010
00000100
00000100
00000001
00000010
,
00000100
00000000
00000000
00000000
00001000
00000000
00000000
00000000
00000010
00000000
00000000
00000100
00000000
00000000
00000001
00000000
,
00000000
00000000
00001100
00000000
00000010
00000100
00001000
00000010
,
00000100
00000001
00001001
00001010
,
00000010
00000000
00010000
00001000
00100000
00100000
00010000
01000000
,
00100000
00000000
00000000
00000000
10000000
00000000
00000000
00000000
00010000
00000000
00000000
01000000
00000000
00000000
00100000
00000000
,
20000000
00000000
30020000
00000000
10030000
00100000
01000000
00010000
,
00000000
00000000
00000000
00000000
00110000
00000000
00000000
00000000
01000000
00000000
00000000
00000000
10000000
01000000
00100000
00010000
;
