#TITLE:Whispers In The Dark;
#SUBTITLE:;
#ARTIST:Skillet;
#TITLETRANSLIT:;
#SUBTITLETRANSLIT:;
#ARTISTTRANSLIT:;
#GENRE:;
#CREDIT:;
#MENUCOLOR:;
#METERTYPE:DDR;
#BANNER:Whispers in the Dark-bn.png;
#BACKGROUND:Whispers in the Dark-bg.png;
#LYRICSPATH:Whispers in the Dark.lrc;
#CDTITLE:ddrencorecdtitle.png;
#MUSIC:Whispers In The Dark.mp3;
#OFFSET:-0.063;
#SAMPLESTART:52.357;
#SAMPLELENGTH:10.205;
#SELECTABLE:YES;
#LISTSORT:;
#BPMS:0.000=188.034,4.000=188.119,7.000=188.199,8.000=188.484,11.000=188.384,13.000=188.344,14.000=188.444,15.000=188.364,17.000=188.464,19.000=188.704,20.000=188.604,21.000=188.504,23.000=188.584,25.000=188.644,26.000=188.584,27.000=188.424,30.000=188.484,32.000=187.764,35.000=187.844,37.000=187.784,38.000=187.824,40.000=188.044,41.000=187.944,44.000=187.844,46.000=187.904,50.000=187.944,51.000=188.044,57.000=187.944,58.000=187.764,59.000=187.884,61.000=187.904,63.000=187.924,64.000=187.844,68.000=187.904,72.000=187.924,74.000=187.884,75.000=187.944,77.000=187.884,78.000=188.044,79.000=187.904,82.000=187.804,83.000=187.824,85.000=187.864,86.000=187.844,87.000=188.004,91.000=187.984,92.000=188.064,95.000=188.164,99.000=188.224,100.000=188.164,102.000=188.124,110.000=188.144,111.000=188.124,115.000=188.044,117.000=187.904,119.000=188.024,120.000=187.884,122.000=187.764,123.000=187.804,124.000=187.624,125.000=187.824,127.000=187.804,130.000=187.824,132.000=187.804,136.000=188.024,140.000=187.924,141.000=187.984,143.000=188.024,147.000=187.944,152.000=195.044,156.000=191.699,158.000=192.039,159.000=170.719,160.000=183.499,161.000=188.919,168.000=188.399,172.000=188.439,174.000=188.319,177.000=188.519,189.000=185.219,191.000=185.239,193.000=187.439,194.000=189.059,195.000=190.199,196.000=190.419,197.000=190.359,198.000=190.319,199.000=184.879,201.000=185.699,204.000=186.699,205.000=189.539,207.000=187.719,215.000=193.759,216.000=189.359,224.000=187.339,225.000=182.919,226.000=188.739,229.000=188.739,232.000=188.679,237.000=187.679,238.000=184.499,239.000=184.559,240.000=186.379,241.000=185.579,242.000=187.399,249.000=190.438,251.000=189.618,254.000=188.999,255.000=189.199,256.000=187.559,257.000=186.739,260.000=187.759,264.000=186.939,270.000=187.019,273.000=187.639,274.000=187.219,275.000=187.079,276.000=187.019,277.000=188.659,279.000=188.538,287.000=184.299,288.000=186.758,290.000=185.339,295.000=198.598,296.000=185.758,299.000=189.758,301.000=188.738,302.000=189.258,303.000=187.238,306.000=186.038,310.000=190.998,312.000=188.958,313.000=188.118,314.000=188.338,316.000=187.098,318.000=192.558,319.000=191.758,319.500=181.998,321.000=186.098,322.000=192.078,323.000=184.438,324.000=190.258,328.000=176.178,329.000=191.978,331.000=188.138;
#STOPS:;
#BGCHANGES:;
#ATTACKS:;

//---------------dance-single - ----------------
#NOTES:
     dance-single:
     :
     Beginner:
     1:
     0.158,0.232,0.075,0.075,0.000:
0000
0000
0000
0000
,
0000
0000
0000
0000
,
0000
0000
0000
0000
,
0000
0000
0000
0000
,
0100
0000
0000
0000
,
0010
0000
0000
0000
,
0001
0000
0000
0000
,
0100
0000
0000
0000
,
0001
0000
1000
0000
,
0000
0000
1000
0000
,
0000
0000
0001
0000
,
0000
0000
0001
0000
,
0000
0000
1001
0000
,
0000
0000
0110
0000
,
0000
0000
1000
0000
,
0100
0000
0010
0000
,
0000
0000
0100
0000
,
0000
0000
0010
0000
,
0000
0000
0001
0000
,
0000
0000
1000
0000
,
0000
0000
0110
0000
,
0000
0000
1001
0000
,
0000
0000
0001
0000
,
0100
0000
0010
0000
,
2002
0000
0000
0000
,
3003
0000
0000
0000
,
1000
0000
0000
0000
,
0001
0000
1000
0000
,
0100
0000
0000
0000
,
0010
0000
0001
0000
,
1000
0000
0000
0000
,
0100
0000
0000
0000
,
0001
0000
0000
0000
,
0100
0000
0100
0000
,
1000
0000
0000
0000
,
0010
0000
0100
0000
,
0001
0000
0000
0000
,
0010
0000
0001
0000
,
1000
0000
0000
0000
,
0010
0000
0000
0000
,
0001
0000
0000
0000
,
0010
0000
0010
0000
,
1000
0000
0000
0000
,
1000
0000
0000
0000
,
0001
0000
0000
0000
,
0001
0000
0000
0000
,
0010
0000
0100
0000
,
0010
0000
0100
0000
,
1000
0000
0000
0000
,
0001
0000
0001
0000
,
0100
0000
0000
0000
,
0001
0000
0000
0000
,
1000
0000
0000
0000
,
1001
0000
1001
0000
,
0010
0000
0000
0000
,
0100
0000
0000
0000
,
1000
0000
0000
0000
,
0001
0000
0000
0000
,
0100
0000
0000
0000
,
0010
0000
0000
0000
,
1000
0000
0000
0000
,
0001
0000
0000
0000
,
2000
0000
3000
0000
,
0002
0000
0003
0000
,
0100
0000
0100
0000
,
0001
0001
0001
0000
,
1000
0000
0000
0000
,
0010
0000
0100
0000
,
0001
0000
0000
0000
,
0010
0000
0001
0000
,
1000
0000
0000
0000
,
0100
0000
0000
0000
,
0010
0000
0000
0000
,
0001
0000
0001
0000
,
2000
0000
3000
0000
,
0010
0000
1000
0000
,
0002
0000
0003
0000
,
0010
0000
0001
0000
,
0200
0000
0300
0000
,
0010
0000
1000
0000
,
0020
0000
0030
0000
,
1001
0000
0000
0000
,
0001
0001
0000
1000
,
1000
0000
0000
0000
;

//---------------dance-single - ----------------
#NOTES:
     dance-single:
     :
     Easy:
     4:
     0.333,0.387,0.121,0.373,0.000:
0000
0000
0000
0000
,
0000
0000
0000
0000
,
0000
0000
0000
0000
,
0000
0000
0000
0000
,
0020
0000
0031
0000
,
0002
0000
0103
0000
,
0200
0000
0310
1000
,
0020
0000
2030
0000
,
3001
0000
1000
0000
,
0100
1000
0010
0000
,
1000
0000
0001
0000
,
0100
0001
0010
0000
,
0001
0100
0010
1000
,
0000
1000
0010
0100
,
0000
0100
0001
0000
,
1000
0100
0010
0001
,
1000
0000
0001
0000
,
0010
0001
0100
0000
,
0001
0000
1000
0000
,
0010
1000
0100
0000
,
1000
0010
0100
0001
,
0000
0010
0100
1000
,
0000
1000
0010
0000
,
0100
0001
1000
0000
,
2002
0000
0000
0000
,
0000
0000
3003
0000
,
0101
0000
0100
0000
,
0010
1000
0100
0000
,
1100
0000
0100
0000
,
0010
0001
1000
0000
,
2000
0000
3020
0000
,
0230
0000
0302
0000
,
1003
0000
1000
0100
,
0010
0001
1000
0010
,
1010
0000
0010
0000
,
0100
0001
0010
0000
,
0011
0000
0010
0000
,
0100
0010
0001
0000
,
0002
0000
0203
0000
,
0320
0000
2030
0000
,
3001
0000
1000
0010
,
0100
0001
1000
0001
,
0100
0000
0001
0000
,
0100
0100
0010
0000
,
1000
0000
0001
0000
,
0010
0010
0100
0000
,
2000
0000
3002
0000
,
2003
0000
3002
0000
,
0203
0000
0300
0000
,
0010
0000
0010
0000
,
1000
0000
0100
0000
,
1000
1000
0010
0100
,
0002
0000
0003
0000
,
1001
0000
1001
0000
,
0020
0000
1030
0000
,
2000
0000
3100
0000
,
0020
0000
0031
0100
,
0002
0000
2003
0000
,
3002
0000
0013
0000
,
0020
0000
0130
0000
,
0200
0000
1300
0001
,
2000
0000
3002
0000
,
1003
0010
0010
0010
,
0100
0001
0001
0001
,
1000
1000
0001
0001
,
1000
0100
0010
0001
,
0011
0000
0010
0000
,
0100
1000
0010
0000
,
1010
0000
0010
0000
,
0100
0001
1000
0000
,
0002
0000
2003
0000
,
3002
0000
0203
0000
,
0310
0000
1000
0000
,
0010
1000
0001
0000
,
0102
0000
0103
0000
,
0010
1000
0001
0000
,
2100
0000
3100
0000
,
0010
0001
1000
0000
,
1002
0000
1003
0000
,
0010
0001
0100
0000
,
0120
0000
0000
0000
,
0200
0000
0330
0000
,
0001
0001
0000
1000
,
1000
0000
0000
0000
;

//---------------dance-single - ----------------
#NOTES:
     dance-single:
     :
     Medium:
     6:
     0.405,0.503,0.140,0.429,0.000: // measure 1
0000
0000
0000
0000
,  // measure 2
0000
0000
0000
0000
,  // measure 3
0000
0000
0000
0000
,  // measure 4
0000
0000
0000
0000
,  // measure 5
2000
0000
3002
0000
,  // measure 6
0203
0000
0320
0000
,  // measure 7
2030
0000
3001
0010
,  // measure 8
0002
0000
2003
0000
,  // measure 9
3001
0000
0100
0000
0001
0000
0001
1000
,  // measure 10
0000
0100
0000
0100
1000
0000
0001
0000
,  // measure 11
1000
0000
0010
0000
1000
0000
1000
0001
,  // measure 12
0000
0100
0000
0100
0001
0000
1000
0000
,  // measure 13
0000
1000
0100
0001
,  // measure 14
0000
0001
0100
1000
,  // measure 15
0000
0010
0100
0001
,  // measure 16
0010
0100
1000
0001
,  // measure 17
0100
0000
0010
0000
0010
0000
1000
0010
,  // measure 18
0000
0010
0100
0000
0001
0000
1000
0000
,  // measure 19
0100
0000
0010
0000
0010
0000
0001
0100
,  // measure 20
0000
0100
0010
0000
1000
0000
0001
0000
,  // measure 21
0000
0001
0100
1000
,  // measure 22
0000
1000
0100
0001
,  // measure 23
0000
0010
0100
1000
,  // measure 24
0010
0100
0001
0000
,  // measure 25
2002
0000
0000
0000
,  // measure 26
0000
0000
3003
0000
,  // measure 27
1000
0000
1010
0001
,  // measure 28
0100
0001
0010
0100
,  // measure 29
0010
0000
0110
1000
,  // measure 30
0010
1000
0001
0010
,  // measure 31
0002
0000
0203
0000
,  // measure 32
0320
0000
2030
0000
,  // measure 33
3001
0000
0000
0000
0011
0000
0000
1001
,  // measure 34
0000
1100
0000
0011
,  // measure 35
0100
0000
1010
0001
,  // measure 36
0100
0001
0010
0100
,  // measure 37
1000
0000
0110
0001
,  // measure 38
0010
0001
1000
0010
,  // measure 39
2000
0000
3200
0000
,  // measure 40
0320
0000
0032
0000
,  // measure 41
1003
0000
0001
0100
,  // measure 42
0010
1000
0001
0010
,  // measure 43
0100
0000
1100
0000
,  // measure 44
0010
0100
0001
0000
,  // measure 45
0100
0000
0101
0000
,  // measure 46
0001
1000
0010
0010
,  // measure 47
2000
0000
3020
0000
,  // measure 48
0230
0000
0302
0000
,  // measure 49
2000
0000
3003
0000
,  // measure 50
0010
0000
0010
0000
,  // measure 51
1000
0100
1000
0000
0100
0010
0100
0000
,  // measure 52
0010
0001
0010
0000
0001
1000
0001
0000
,  // measure 53
0200
0000
0300
0000
,  // measure 54
1001
0000
1001
0000
,  // measure 55
0002
0000
2003
0000
,  // measure 56
3020
0000
0230
0000
,  // measure 57
0302
0000
1003
0100
,  // measure 58
2000
0000
3020
0000
,  // measure 59
2030
0000
3002
0000
,  // measure 60
0203
0000
0320
0000
,  // measure 61
2030
0000
3001
0010
,  // measure 62
0002
0000
2003
0000
,  // measure 63
3001
0100
0100
0100
,  // measure 64
0010
1000
1000
1000
,  // measure 65
0001
0001
1000
1000
,  // measure 66
0001
0100
0010
0000
1000
0100
0010
0000
,  // measure 67
0001
0000
0101
1000
,  // measure 68
0010
1000
0001
0100
,  // measure 69
0001
0000
1010
0100
,  // measure 70
0001
1000
0010
1000
,  // measure 71
0002
0000
0023
0000
,  // measure 72
0230
0000
2300
0000
,  // measure 73
3001
0000
0010
0001
,  // measure 74
0100
0000
0010
0000
1000
0000
0001
0100
,  // measure 75
0020
0000
1030
0000
,  // measure 76
0001
0000
0010
0000
0100
0000
0010
0001
,  // measure 77
0200
0000
0310
0000
,  // measure 78
1000
0000
0100
0000
0010
0000
0100
1000
,  // measure 79
0002
0000
0103
0000
,  // measure 80
0001
0010
0100
1000
,  // measure 81
0002
0000
0010
0000
,  // measure 82
2000
0000
3003
0000
,  // measure 83
0001
0100
0001
0000
0000
0000
1000
0100
,  // measure 84
1000
0000
0000
0000
;

//---------------dance-single - ----------------
#NOTES:
     dance-single:
     :
     Hard:
     8:
     0.545,0.658,0.438,0.419,0.000:
0000
0000
0000
0000
,
0000
0000
0000
0000
,
0000
0000
0000
0000
,
0000
0000
0000
0000
,
0002
0000
0000
0000
1003
0010
0000
0100
,
0000
0001
0000
0100
0000
0010
1000
0000
,
2000
0000
0000
0000
3001
0100
0000
0010
,
0000
1000
0010
0000
0010
0100
0001
0000
,
1000
0000
0100
0000
0110
0000
0100
0001
,
0000
1000
0000
0010
0100
0000
1000
0000
,
0001
0000
0100
0000
0110
0000
0100
1000
,
0000
0001
0000
0010
0100
0000
0001
0000
,
1000
0001
0011
1100
,
1000
0010
0101
1010
,
0001
0010
1000
1000
,
0100
0001
1000
0200
,
0000
0000
1300
0000
0001
0000
0010
0001
,
0000
0100
0010
1000
0010
0000
0102
0000
,
0000
0000
0013
0000
0001
0000
1000
0010
,
0000
0100
0001
0000
0110
0000
2100
0000
,
0000
3010
0101
1100
,
0001
1000
1010
0011
,
1000
0010
0001
0001
,
0100
1000
0002
0000
,
1003
0100
1000
0000
0010
0100
0000
0001
,
0000
0010
0100
0010
0100
0000
0000
0000
,
2001
0000
0000
3000
0011
0000
0100
1000
,
0010
0100
0001
0010
,
1002
0000
0000
0003
1010
0000
0100
0001
,
0010
0001
0100
0010
,
2000
0000
3002
0000
,
0203
0000
0320
0000
,
0230
0000
0301
0010
,
1000
0000
0100
0000
0001
0000
0100
0010
,
2001
0000
0000
3000
0101
0000
0010
1000
,
0100
0010
1000
0010
,
1002
0000
0000
0003
1100
0000
0010
0001
,
0100
0010
0001
0010
,
2000
0000
3020
0000
,
0230
0000
0302
0000
,
0203
0000
0301
0100
,
1000
0010
0001
0010
,
0001
0100
0001
0010
0100
0010
0001
0100
,
1000
0010
1000
0100
0010
0100
1000
0001
,
1000
0100
1000
0010
0100
0010
1000
0100
,
0001
0010
0001
0100
0010
0100
0001
1000
,
0002
0000
0023
0000
,
0230
0000
2300
0000
,
0002
0000
3003
1000
,
0010
0100
1001
1001
,
1000
0010
0100
0000
1000
0100
0001
0000
,
0001
0010
0100
0000
0001
0100
1000
0000
,
2002
0000
0000
3003
,
1100
0000
0101
0000
,
2000
0000
0000
0000
3001
0100
0000
0010
,
0000
1000
0000
0010
0000
0100
0001
0000
,
0002
0000
0000
0000
1003
0100
0000
0010
,
0000
0010
0001
0000
0001
1000
0010
0000
,
0200
0000
0000
0000
0301
0010
0000
0100
,
0000
0001
0000
0100
0000
1000
0100
0000
,
0200
0000
0000
0000
1300
0010
0000
0100
,
0000
0100
1000
0000
1000
0100
0001
0000
,
2000
0100
0100
3100
,
0002
0000
0010
0000
0010
0000
0010
0003
,
1000
0100
0001
0010
,
1000
0100
0010
0001
0010
0100
1000
0001
,
1002
0000
0000
0003
1010
0000
0100
0001
,
0010
0100
1000
0010
,
2001
0000
0000
3000
0101
0000
0010
1000
,
0100
0010
0001
1000
,
0020
0100
0230
0001
,
0302
1000
2003
0100
,
3200
0000
1300
0010
,
0001
0000
0100
0000
1000
0000
0010
0100
,
0002
0000
1000
0003
,
1010
0101
1100
0011
,
2001
0000
0100
3000
,
1100
0011
1010
0101
,
1002
0000
1000
0003
,
0011
1100
0101
1010
,
1002
0000
0010
0000
,
2000
0000
3003
0000
,
1000
0100
1100
0000
0000
0000
0001
0100
,
0101
0000
0000
0000
;

//---------------dance-double - ----------------
#NOTES:
     dance-double:
     :
     Easy:
     4:
     0.320,0.348,0.112,0.429,0.000:
00000000
00000000
00000000
00000000
,
00000000
00000000
00000000
00000000
,
00000000
00000000
00000000
00000000
,
00000000
00000000
00000000
00000000
,
00000002
00000000
00002003
00000000
,
00003002
00000000
00002003
00000000
,
00003020
00000000
00010030
00001000
,
02000000
00000000
03002000
00000000
,
01003000
00000000
00010000
00000000
,
00100000
00010000
01000000
00000000
,
00100000
00000000
10000000
00000000
,
01000000
10000000
00100000
00000000
,
10000000
00000000
11000000
00000000
,
01000000
00000000
01100000
00000000
,
00100000
00000000
00001000
00000000
,
00010000
00001000
00010000
00000000
,
00000010
00000000
00001000
00000000
,
00000100
00001000
00000010
00000000
,
00000100
00000000
00000001
00000000
,
00000010
00000001
00000100
00000000
,
00000001
00000000
00000101
00000000
,
00000100
00000000
00000110
00000000
,
00000010
00000000
00010000
00000000
,
00001000
00010000
00001000
00000000
,
00022000
00000000
00000000
00000000
,
00000000
00000000
00033000
00000000
,
00001000
00000000
01000000
00000000
,
00010000
00100000
01000000
00000000
,
00100000
00000000
00001000
00000000
,
00010000
00000010
00001000
00000000
,
00000020
00000000
00000230
00000000
,
00000320
00000000
00000230
00000000
,
00000301
00000000
00001000
00000000
,
00000100
00010000
00001000
00000000
,
00010000
00000000
00000010
00000000
,
00001000
00000100
00000010
00000000
,
00000100
00000000
00010000
00000000
,
00001000
01000000
00010000
00000000
,
00200000
00000000
02300000
00000000
,
03200000
00000000
02300000
00000000
,
13000000
00000000
00010000
00000000
,
01000000
00001000
00010000
00000000
,
00001000
00000000
00010100
00000000
,
00001000
00010000
00001000
00000000
,
00010000
00000000
01001000
00000000
,
00010000
00001000
00010000
00000100
,
00002000
00000000
00003020
00000000
,
00000230
00000000
00000302
00000000
,
00002003
00000000
00003000
00000000
,
00000100
00000000
00000100
00000000
,
00000010
00000000
00000001
00000000
,
00001000
00000000
00000100
00000000
,
00020000
00000000
00030000
00000000
,
00011000
00000000
00011000
00000000
,
00002000
00000000
02003000
00000000
,
03020000
00000000
02030000
00000000
,
03200000
00000000
10300000
01000000
,
00200000
00000000
00302000
00000000
,
00023000
00000000
00030200
00000000
,
00002300
00000000
00003200
00000000
,
00000320
00000000
00000031
00000100
,
00000020
00000000
00002030
00000000
,
00003100
00010000
00010000
00010000
,
00001000
00010000
00010000
00010000
,
00001000
00001000
00010000
00010000
,
00001000
01000000
00100000
10000000
,
00010000
00000000
01000000
00000000
,
00010000
01000000
00100000
00000000
,
10000000
00000000
01000000
00000000
,
00100000
00001000
00010000
00000000
,
00000200
00000000
00020300
00000000
,
00030200
00000000
00020300
00000000
,
00031000
00000000
01000000
00000000
,
00100000
10000000
00010000
00000000
,
20010000
00000000
30010000
00000000
,
01000000
00000000
00001000
00000000
,
00021000
00000000
00031000
00000000
,
00010000
00000000
00000100
00000000
,
00002001
00000000
00003001
00000000
,
00000010
00000000
00000100
00000000
,
00020000
00000000
00000000
00000000
,
00002000
00000000
00033000
00000000
,
00001000
00001000
00000000
00010000
,
00010000
00000000
00000000
00000000
;

//---------------dance-double - ----------------
#NOTES:
     dance-double:
     :
     Medium:
     6:
     0.427,0.542,0.149,0.457,0.000:
00000000
00000000
00000000
00000000
,
00000000
00000000
00000000
00000000
,
00000000
00000000
00000000
00000000
,
00000000
00000000
00000000
00000000
,
00002000
00000000
00003020
00000000
,
00020030
00000000
00032000
00000000
,
02003000
00000000
03010000
10000000
,
00020000
00000000
00230000
00000000
,
00301000
00000000
01000000
00000000
00010000
00000000
00100000
01000000
,
00000000
10000000
00000000
10000000
00010000
00000000
00100000
00000000
,
00001000
00000000
00010000
00000000
00000010
00000000
00000100
00000001
,
00000000
00001000
00000000
00001000
00000010
00000000
00000100
00000000
,
00000001
00000010
00000100
00011000
,
00000000
01000000
00100000
10010000
,
00000000
00010000
00100000
00001000
,
00010000
00000010
00000100
00000001
,
00001000
00000000
00000100
00000000
00000010
00000000
00000001
00000100
,
00000000
00000010
00001000
00000000
00000100
00000000
00010000
00000000
,
00001000
00000000
01000000
00000000
00100000
00000000
10000000
01000000
,
00000000
00100000
00010000
00000000
10000000
00000000
00100000
00000000
,
01000000
00010000
00100000
00011000
,
00000000
00000100
00000010
00001001
,
00000000
00000001
00000100
00000010
,
00010000
00001000
01000000
00000000
,
00022000
00000000
00000000
00000000
,
00000000
00000000
00033000
00000000
,
00001000
00000000
00000110
00000001
,
00001000
00000100
00010000
00001000
,
00100000
00000000
00011000
01000000
,
00010000
00100000
01000000
10000000
,
00020000
00000000
00230000
00000000
,
00302000
00000000
00023000
00000000
,
00030200
00000000
00001300
00000010
,
00000100
00000000
00000001
00000000
00000010
00000000
00000100
00000010
,
00000001
00000000
00001100
00010000
,
00001000
01000000
00100000
10000000
,
00010000
00000000
01100000
00010000
,
01000000
00001000
00010000
00000010
,
00000200
00000000
00000302
00000000
,
00002003
00000000
00003200
00000000
,
00000320
00000000
00000031
00001000
,
00000100
00000000
00010000
00000000
00001000
00000000
01000000
00100000
,
10000000
00000000
01000000
00000000
10000000
01000000
10000000
00000000
,
00100000
00000000
01000000
00000000
00010000
01000000
00001000
00000000
,
00010000
00000000
00000010
00000000
00001000
00000100
00001000
00000000
,
00000001
00000100
00000001
00000100
00000010
00001000
00000100
00000010
,
00000200
00000000
00020300
00000000
,
00032000
00000000
00000000
00003000
02000000
00000000
00000000
00000000
,
00200000
00000000
03300000
00000000
,
10000000
00000000
00010000
00000000
,
10000000
01000000
00100000
00001000
,
00010000
00000100
00000010
00000001
,
00002000
00000000
00003000
00000000
,
00000101
00000000
00001100
00000000
,
00000002
00000000
00000203
00000000
,
00000320
00000000
00002030
00000000
,
00003200
00000000
00010300
00001000
,
00200000
00000000
00302000
00000000
,
02003000
00000000
03020000
00000000
,
00230000
00000000
02300000
00000000
,
23000000
00000000
30010000
00100000
,
00002000
00000000
00023000
00000000
,
00030010
00000100
00000100
00000100
,
00000001
00001000
00001000
00001000
,
00000100
00000100
00010000
00010000
,
00001000
00010000
00001000
00010000
00000010
00001000
00000010
00001000
,
00000001
00000000
00001100
00000010
,
00010000
00001000
01000000
00010000
,
00100000
00000000
11000000
00100000
,
00010000
01000000
00001000
00010000
,
00000020
00000000
00000230
00000000
,
00000302
00000000
00002003
00000000
,
00003200
00000000
00000310
00000001
,
00001000
00000100
00010000
00001000
,
02000000
00000000
03100000
00000000
,
10000000
00100000
10010000
01000000
,
00002000
00000000
00013000
00000000
,
00000100
00001000
00000110
00000001
,
00000200
00000000
00000310
00000000
,
00010000
00001000
01010000
00100000
,
20000000
00000000
00100000
00000000
,
00020000
00000000
30030000
00000000
,
10000000
01000000
00100000
00000000
00000000
00000000
01000000
00100000
,
00010000
00000000
00000000
00000000
;

//---------------dance-double - ----------------
#NOTES:
     dance-double:
     :
     Hard:
     8:
     0.531,0.542,0.438,0.382,0.000:
00000000
00000000
00000000
00000000
,
00000000
00000000
00000000
00000000
,
00000000
00000000
00000000
00000000
,
00000000
00000000
00000000
00000000
,
00020000
00000000
00000000
00000000
01030000
00100000
00000000
10000000
,
00000000
01000000
00000000
00100000
00000000
00001000
00010000
00000000
,
00002000
00000000
00000000
00000000
00013000
00000010
00000000
00000100
,
00000000
00000001
00001000
00000000
00000100
00000010
00000001
00000000
,
00001000
00000000
00000100
00000000
00000011
00000000
00000100
00001000
,
00000000
00000010
00000000
00010000
00001000
00000000
01000000
00000000
,
00010000
00000000
00100000
00000000
11000000
00000000
00100000
00010000
,
00000000
01000000
00000000
00001000
00010000
00000000
00000010
00000000
,
00000100
00000001
00000010
00000110
,
00000100
00010000
00001000
01001000
,
01000000
00010000
00100000
01000000
,
00010000
00000010
00000100
00000001
,
00001000
00000000
00000010
00000000
00000101
00000000
00000010
00001000
,
00000000
00000100
00010000
00000000
00011000
00000000
01001000
00000000
,
00010000
00000000
01000000
00000000
10100000
00000000
01000000
00010000
,
00000000
00100000
00001000
00000000
00011000
00000000
00010100
00000000
,
00001000
00000010
00000100
00000101
,
00000001
00001000
00000100
00010100
,
00010000
00001000
00100000
01000000
,
00010000
00000010
00000100
00000000
,
00000001
00000100
00000010
00000000
00000100
00000010
00000000
00010000
,
00000000
00001000
01000000
00001000
00010000
00000000
00000000
00000000
,
00012000
00000000
00000000
00003000
01010000
00000000
00100000
10000000
,
01000000
00100000
01000000
00000000
00010000
00000000
00001000
00000000
,
00000210
00000000
00000000
00000300
00000011
00000000
00000100
00000010
,
00000001
00000100
00000010
00000000
00000100
00000000
00001000
00000000
,
00020000
00000000
00230000
00000000
,
20300000
00000000
32000000
00000000
,
03200000
00000000
00301000
01000000
,
00011000
00000000
00010000
00000000
00000010
00000000
00000100
00000001
,
00002001
00000000
00000000
00003000
00000101
00000000
00000010
00001000
,
00000100
00000010
00000100
00000000
00010000
00000000
00001000
00000000
,
02100000
00000000
00000000
03000000
00110000
00000000
01000000
10000000
,
00100000
01000000
00010000
00000000
01000000
00000000
00001000
00000000
,
00020000
00000000
00230000
00000000
,
20300000
00000000
32000000
00000000
,
03200000
00000000
00301000
00100000
,
00011000
00000000
00010000
00000000
00000010
00000000
00000100
00000001
,
00001000
00000000
00000100
00000000
00000010
00000001
00001000
00000000
,
00000010
00000000
00010000
00000000
00001000
01000000
00100000
10000000
,
01000000
00000000
00100000
00000000
00001000
00010000
00000010
00000000
,
00000100
00000001
00000100
00000010
00001000
00000100
00010000
00000010
,
00000200
00000000
00000302
00000000
,
00002003
00000000
00003200
00000000
,
00020000
00000000
00030300
00000000
,
00010100
00000000
01001000
00000000
,
00010000
00100000
01000000
00000000
10000000
01000000
00010000
00000000
,
00001000
00000010
00000001
00000000
00000010
00000100
00001000
00000000
,
00002002
00000000
00000000
00003003
,
00000101
00000000
00001100
00000000
,
00020000
00000000
00000000
00000000
00031000
01000000
00000000
00010000
,
00000000
00100000
00000000
01000000
00000000
10000000
00010000
00000000
,
00200000
00000000
00000000
00000000
00301000
00010000
00000000
00000010
,
00000000
00000100
00000001
00000000
00001000
00000100
00000010
00000000
,
00000200
00000000
00000000
00000000
00001300
00000010
00000000
00010000
,
00000000
00001000
00000000
01000000
00000000
00010000
00100000
00000000
,
02000000
00000000
00000000
00000000
03100000
00001000
00000000
00010000
,
00000000
00000010
00000100
00000000
00000001
00000010
00000100
00000000
,
00002000
00000010
00000010
00003010
,
00000002
00000100
00000100
00000103
,
00000001
00000010
00000100
00010000
,
00001000
01000000
00010000
01000000
00001000
00100000
01000000
10000000
,
10020000
00000000
00000000
00030000
10100000
00000000
01000000
00010000
,
00100000
01000000
00100000
00000000
00001000
00000000
00010000
00000000
,
00001200
00000000
00000000
00000300
00000011
00000000
00000100
00001000
,
00000010
00000100
00000001
00000000
00000010
00000000
00000100
00000000
,
00002000
00000000
00003002
00000000
,
00000203
00000000
00000320
00000000
,
00020030
00000000
00031000
01000000
,
10010000
00000000
00100000
00000000
00001000
00000000
00010000
00000010
,
00000200
00000000
00000301
00000000
,
00001010
00000101
00001100
00010100
,
00012000
00000000
01003000
00000000
,
01010000
10100000
00110000
00101000
,
00021000
00000000
00030010
00000000
,
00001001
00000110
00001010
00010010
,
00012000
00000000
00100000
00000000
,
00020000
00000000
00033000
00000000
,
01000000
00010000
00100000
00000000
00000000
00000000
00001000
00010000
,
00000010
00000000
00000000
00000000
;
