#TITLE:Whiplash;
#SUBTITLE:;
#ARTIST:Selena Gomez & The Scene;
#TITLETRANSLIT:;
#SUBTITLETRANSLIT:;
#ARTISTTRANSLIT:;
#GENRE:;
#CREDIT:Chaoz;
#MENUCOLOR:;
#METERTYPE:DDR;
#BANNER:Whiplash-bn.png;
#BACKGROUND:Whiplash-bg.png;
#LYRICSPATH:Whiplash.lrc;
#CDTITLE:DDREncore2.png;
#MUSIC:Whiplash.ogg;
#OFFSET:0.027;
#SAMPLESTART:77.618;
#SAMPLELENGTH:14.815;
#SELECTABLE:YES;
#LISTSORT:;
#BPMS:0.000=135.000,168.000=67.500,172.000=135.000;
#STOPS:;
#BGCHANGES:;
#ATTACKS:;

//---------------dance-single - ----------------
#NOTES:
     dance-single:
     :
     Hard:
     8:
     0.581,0.599,0.603,0.358,0.747: // measure 1
0000
0000
0000
0000
,  // measure 2
0000
0000
0000
0000
,  // measure 3
0000
0000
0000
0000
,  // measure 4
0000
0000
0000
0000
,  // measure 5
1001
0000
0001
0010
0000
0001
0100
0000
0010
2000
0000
0000
,  // measure 6
3100
0000
0010
0001
0000
1010
0000
0000
1000
0200
0000
0000
,  // measure 7
1300
0000
0010
0100
0000
0001
0010
0000
0100
2000
0000
0000
,  // measure 8
3010
0000
0100
0001
0000
1100
0000
0000
0010
0001
1000
0010
,  // measure 9
0100
0000
0000
0100
0000
0100
0001
0000
0000
1020
0000
0000
,  // measure 10
0100
0000
0000
1030
0000
0001
0010
0000
0100
1000
0000
1002
,  // measure 11
0000
0010
1000
0100
,  // measure 12
1003
0101
1001
1100
,  // measure 13
0010
0000
0001
1000
0000
0010
0100
0000
0010
2000
0000
0000
,  // measure 14
3100
0010
0001
0010
0000
0000
0100
1000
0001
0100
0010
1000
,  // measure 15
0010
0000
0100
0001
0000
0100
0010
0000
0010
2000
0000
0000
,  // measure 16
3001
0000
0001
0010
0000
0100
1000
0000
0010
0000
0000
2002
,  // measure 17
0000
0000
3003
1001
0000
0000
0001
0010
0001
0000
0000
2020
,  // measure 18
0000
0000
3030
0101
0000
0010
1000
0001
1000
0100
0010
0001
,  // measure 19
0010
0000
0100
1000
0000
0001
0100
0001
1000
0010
0000
0100
,  // measure 20
0001
1100
1001
0101
,  // measure 21
1001
0000
0101
0000
0010
1000
0100
0000
1100
0000
0010
0001
,  // measure 22
1000
0000
0101
0000
0010
1000
0001
0000
1100
0000
0000
1000
,  // measure 23
0101
0000
1001
0000
0001
0100
1000
0000
0101
0000
0001
1000
,  // measure 24
0100
0000
1010
0000
0100
0001
0010
0000
1100
0000
0000
1000
,  // measure 25
0011
0000
1001
0000
0000
0001
0100
0000
0001
0010
0000
0100
,  // measure 26
1100
0000
0011
0000
0000
0001
1000
0000
0010
0100
0001
0010
,  // measure 27
0000
0000
0001
2200
0000
0000
3300
0000
1000
0202
0000
0000
,  // measure 28
0303
0000
0001
2200
0000
0000
3300
0000
1001
0000
0000
0101
,  // measure 29
0000
0000
0010
1000
0000
0011
0000
0000
0100
1000
0000
0001
,  // measure 30
0100
0000
0001
0010
0000
0100
1000
0000
0010
0000
0000
1001
,  // measure 31
0000
0000
0001
0010
0000
0001
0100
0000
0000
1010
0000
0100
,  // measure 32
0001
0000
1000
0100
0000
0010
0001
0000
1000
0000
0000
0101
,  // measure 33
0000
0000
0001
0010
0000
0100
1000
0000
0000
0011
0000
0001
,  // measure 34
0100
0000
0100
1000
0000
1000
0010
0000
0010
0001
0000
0000
,  // measure 35
0012
0103
2100
3010
,  // measure 36
0012
0103
2100
3010
,  // measure 37
0011
0000
0001
1000
0000
1000
0001
0000
0001
0100
0000
0100
,  // measure 38
0010
0000
0010
1000
0000
1000
0100
0000
0100
0002
0000
0000
,  // measure 39
0103
0000
0010
0001
0000
0001
1000
0000
1000
0010
0000
0010
,  // measure 40
0001
0000
0001
0010
0000
0010
0100
0000
0100
1000
0000
1000
,  // measure 41
0200
0000
0000
0301
1000
0200
0000
0000
0300
1100
0000
0010
,  // measure 42
0002
0000
0000
1003
0001
0200
0000
0000
0300
0101
0000
0000
,  // measure 43
2001
0000
0000
0000
0000
0200
0000
0000
0000
0000
0000
0000
0000
0000
0000
0000
0000
0000
3300
0000
1001
0000
0000
0101
,  // measure 44
0000
0000
0001
0010
0000
0202
0000
0000
0303
1001
0000
0010
,  // measure 45
0100
0000
0010
0001
0000
0010
1000
0000
0100
0000
0000
0011
,  // measure 46
0000
0000
0001
0100
0000
1000
0100
0000
0000
0101
0000
0010
,  // measure 47
1000
0000
0001
0010
0000
0001
0100
0000
0000
0010
0000
1001
,  // measure 48
0000
0000
0001
0010
0000
1000
0001
0000
0000
1001
0000
1000
,  // measure 49
0010
0000
0010
0001
0000
0001
0100
0000
0100
1000
0000
0000
,  // measure 50
0102
0013
2010
3100
,  // measure 51
0102
0013
2010
3100
,  // measure 52
0001
0010
1000
0100
,  // measure 53
0001
0010
1000
0200
,  // measure 54
0000
0300
0000
0000
;

//---------------dance-single - ----------------
#NOTES:
     dance-single:
     :
     Medium:
     6:
     0.454,0.463,0.511,0.573,0.189:
0000
0000
0000
0000
,
0000
0000
0000
0000
,
0000
0000
0000
0000
,
0000
0000
0000
0000
,
1000
0000
0000
0001
0000
0001
1000
0000
0000
0200
0000
0000
,
0300
2200
3300
0011
,
1000
0000
0000
0010
0000
0010
0100
0000
0000
0002
0000
0000
,
0003
0022
0033
1100
,
1000
0000
0000
0001
0000
0001
0100
0000
0000
0020
0000
0000
,
0130
0020
1030
0001
,
0010
0012
1000
0100
,
2000
0000
0000
3003
,
0001
0000
0000
0100
0000
0100
0010
0000
0000
1000
0000
0000
,
0001
0021
0031
0021
,
0031
0000
0000
1000
0000
1000
0001
0000
0000
0100
0000
0000
,
0010
2010
3010
2010
,
3001
0011
1000
1010
,
0100
1001
0010
1001
,
0001
0000
0000
0010
0000
0100
1000
0000
0100
0010
0000
0000
,
0001
1002
0100
0013
,
1001
0000
0101
0000
0000
0010
1000
0000
0000
0001
0000
1000
,
0100
0000
0000
0010
0000
0001
1000
0000
0000
0001
0000
0000
,
0101
0000
0101
0000
0000
0001
0010
0000
0000
0100
0000
1000
,
0100
0000
0000
0010
0000
0001
1000
0000
0000
0010
0000
0000
,
1001
0000
1001
0000
0000
0001
0100
0000
0000
0010
0000
0000
,
1100
0000
1100
0000
0000
0010
0001
0000
0000
1000
0000
0000
,
0000
2002
3003
2002
,
3003
0000
0000
2002
0000
0000
3003
0000
1001
0000
0000
0101
,
0000
0101
0010
1000
,
0100
0000
0100
1000
0000
1000
0100
0000
0000
0010
0000
0000
,
2001
0001
3001
0201
,
0310
0000
0010
1000
0000
1000
0010
0000
0000
0100
0000
0000
,
0102
0010
0103
1010
,
1000
0000
1000
0001
0000
0001
1000
0000
1000
0001
0000
0000
,
0012
0103
0102
1003
,
1002
0013
0012
0103
,
0000
0002
0023
0230
,
0302
0203
0320
0032
,
0003
2000
3020
0230
,
2300
3200
0320
2030
,
0002
0000
0000
3000
0000
0020
0000
0000
0000
0003
0000
0000
,
0200
0000
0000
0030
0000
2000
0300
0000
0000
3001
0000
0000
,
2002
0000
0000
0000
0000
0000
0000
0000
0000
0000
3003
0000
,
0000
1001
0001
0100
,
0010
0000
0010
1000
0000
1000
0001
0000
0000
0010
0000
0000
,
0102
0100
1003
0011
,
0100
0000
0100
1000
0000
1000
0001
0000
0000
0010
0000
0000
,
0210
1000
0310
0011
,
0001
0000
0001
1000
0000
1000
0001
0000
0001
1000
0000
0000
,
0102
0013
0012
1003
,
1002
0103
0102
1003
,
0010
1001
0100
1001
,
0010
1001
0100
2002
,
0000
3003
0000
0000
;

//---------------dance-single - ----------------
#NOTES:
     dance-single:
     :
     Easy:
     3:
     0.267,0.300,0.133,0.113,0.000:
0000
0000
0000
0000
,
0000
0000
0000
0000
,
0000
0000
0000
0000
,
0000
0000
0000
0000
,
1001
0000
0001
0000
,
0100
0010
0100
0010
,
1000
0000
0001
0000
,
0010
0100
0010
0100
,
1000
1000
1000
0000
,
0001
0000
0100
0000
,
0001
0010
0100
1000
,
0002
0000
1000
1000
,
1003
0000
0001
0000
,
0100
0010
0100
0010
,
1000
0000
0001
0000
,
0010
0100
0010
0100
,
1000
0001
0010
0001
,
1000
0010
0100
0010
,
1000
0001
1000
0001
,
0000
1000
0100
0010
,
0001
0100
0001
1000
,
0100
0010
0001
0010
,
0110
0000
0100
1000
,
0010
0100
0001
1000
,
1001
0000
0001
0000
,
1001
0000
1000
0000
,
0000
0110
0000
1001
,
0000
0110
0000
2002
,
0000
3003
0001
0010
,
0001
0100
0010
1000
,
1000
0001
1000
0000
,
0010
0100
0010
1000
,
0100
0100
0010
0000
,
0001
0010
0100
1000
,
0001
0100
0010
0100
,
1000
0100
0010
0100
,
0000
0001
0010
0100
,
1000
0100
0010
0001
,
0000
1000
0010
0100
,
0001
0100
0010
1000
,
2000
0000
0002
3003
,
0002
0000
0200
0303
,
0220
0000
0000
0330
,
0000
0010
1000
0001
,
0010
0100
0010
0001
,
0001
0100
0010
0000
,
1000
0001
0010
0100
,
0100
1000
0100
0010
,
0001
1000
0010
0100
,
0001
0010
0100
0010
,
1000
0010
0100
0010
,
0001
1001
1000
1001
,
0001
1001
1000
2002
,
0000
3003
0000
0000
;

//---------------dance-single - ----------------
#NOTES:
     dance-single:
     :
     Beginner:
     2:
     0.197,0.270,0.266,0.000,0.000:
0000
0000
0000
0000
,
0000
0000
0000
0000
,
0000
0000
0000
0000
,
0000
0000
0000
0000
,
1000
1000
1000
0000
,
0001
0000
0100
0000
,
0010
0010
0010
0000
,
1000
0000
0001
0000
,
1001
0000
1001
0000
,
1001
0000
0001
0000
,
0100
0100
0100
0100
,
0100
0000
0000
0000
,
0001
0001
0001
0000
,
0010
0000
0100
0000
,
1000
1000
1000
0000
,
0001
0000
0100
0000
,
0110
0000
0110
0000
,
1001
0000
1001
0000
,
0110
0000
1001
0000
,
0001
0001
0001
0001
,
0001
0000
0010
0000
,
0100
0000
0010
0000
,
1001
0000
1000
0000
,
0010
0000
0100
0000
,
0001
0000
0000
0000
,
1001
0000
0000
0000
,
0000
1001
0000
1001
,
0000
1001
0000
1001
,
0000
0000
0001
0000
,
0100
0100
0100
0000
,
0001
0000
0010
0000
,
0100
0100
0100
0000
,
1000
0000
0001
0000
,
0100
0000
0010
0000
,
1001
0000
1001
0000
,
0110
0000
1001
0000
,
0001
0000
0010
0000
,
0001
0001
0001
0000
,
0100
0000
0010
0000
,
1000
1000
1000
0000
,
1001
0000
1001
0000
,
0100
0000
0010
0000
,
1001
0000
0000
0000
,
0000
0000
0001
0000
,
0010
0010
0010
0000
,
0100
0000
1000
0000
,
0001
0001
0001
0000
,
0100
0100
0100
0000
,
0010
0000
1000
0000
,
1001
0000
1001
0000
,
0110
0000
1001
0000
,
0001
0000
0100
0000
,
0001
1000
0001
1000
;

//---------------dance-double - ----------------
#NOTES:
     dance-double:
     :
     Hard:
     9:
     0.520,0.572,0.552,0.205,0.609:
00000000
00000000
00000000
00000000
,
00000000
00000000
00000000
00000000
,
00000000
00000000
00000000
00000000
,
00000000
00000000
00000000
00000000
,
10000000
00000000
00010000
01000000
00000000
00100000
10000000
00000000
00000000
02000000
00000000
00000000
,
13000000
00000000
00010000
01000000
00000000
00000000
00010000
00000000
00001000
00000010
00000100
00000001
,
00001000
00000000
00000100
00000001
00000000
00000100
00000010
00000000
00000000
00000002
00000000
00000000
,
00000103
00000000
00000010
00001000
00000000
00000000
00010000
00000000
01000000
00100000
10000000
01000000
,
00100000
00000000
00100000
00001000
00000000
00001000
00001000
00000000
00000000
00021000
00000000
00000000
,
00000100
00000000
00000000
00031000
00000000
01000000
10000000
00000000
01000000
00010000
00000000
00200000
,
01000000
00010000
01000000
00001000
,
00310000
00110000
00011000
00001010
,
00011000
00000000
00001000
01000000
00000000
00100000
10000000
00000000
01000000
00010000
00000000
00000000
,
01000000
10000000
01000000
00100000
00010000
01000000
00001000
00010000
00000100
00000010
00000001
00001000
,
00000010
00000000
00000100
00000001
00000000
00000100
00001000
00000000
00000100
00000010
00000000
00000000
,
00001000
00000100
00000010
00000100
00010000
00001000
01000000
00100000
10000000
00100000
01000000
00001000
,
00010000
00001100
00001000
01010000
,
00100000
00011000
00000010
00011000
,
00001000
01000000
00100000
10000000
00000000
01000000
00010000
00001000
00000010
00000001
00000000
00001000
,
00000000
00000101
00010010
01001000
,
10100000
00000000
11000000
00000000
00000000
00100000
00010000
00000000
01000000
00001000
00000000
00010000
,
00000100
00000000
00000010
00000001
00000000
00001000
00000010
00000000
00010000
00000100
00000000
00010000
,
00011000
00000000
01001000
00000000
00000000
00100000
10000000
00000000
00100000
01000000
00000000
00010000
,
00100000
00000000
10000000
00100000
00000000
01000000
00010000
00000000
01000000
00100000
00000000
00001000
,
00101000
00000000
01001000
00000000
00000000
00010000
00000100
00000000
00000010
00000001
00000000
00001000
,
00001010
00000000
00001100
00000000
00000000
00000100
00010000
00000000
00100000
10000000
01000000
00100000
,
00000000
00000000
01000000
00011000
00000000
00000000
00000000
00000000
00000100
00011000
00000000
00000000
,
00000000
00000000
01000000
00011000
00000000
00000000
00000000
00000000
00001100
00000000
00000000
00000022
,
00000000
00000000
00000033
00000011
00000000
00000001
00000100
00000000
00000010
00001000
00000000
00000100
,
00000010
00000000
00000100
00010000
00000000
00000100
00001000
00000000
00100000
00000000
00000000
20020000
,
00000000
00000000
30030000
10010000
00000000
00010000
01000000
00000000
00000000
00011000
00000000
00100000
,
10000000
00000000
00010000
00100000
00000000
01000000
00001000
00000000
00000100
00000000
00000000
00000022
,
00000000
00000000
00000033
00000011
00000000
00000001
00000100
00000000
00000000
00001010
00000000
00001000
,
00000100
00000000
00000100
00000001
00000000
00000001
00000010
00000000
00000010
00001000
00000000
00000000
,
00000001
00011000
10000000
00011000
,
00000001
00011000
10000000
00011000
,
00000000
00000001
00000010
00000100
,
00001000
00010000
00100000
01000000
,
00000000
10000000
00100000
01000000
,
00001000
00100000
01000000
10000000
,
10020000
00000000
00000000
00000000
00000000
02000000
00000000
00000000
00000000
03030000
00000000
00000000
,
00021000
00000000
00000000
00000000
00000000
00000200
00000000
00000000
00000000
00030300
00000000
00000000
,
00012000
00000000
00000000
00000000
00000000
00020000
00000000
00000000
00000000
00000000
00000000
00000000
00000000
00000000
00000000
00000000
00000000
00000000
00033000
00000000
00101000
00000000
00000000
02002000
,
00000000
00000000
03003000
01001000
00000000
00100000
10000000
00000000
00010000
00100000
00000000
00010000
,
01000000
00000000
10000000
01000000
00000000
00100000
00010000
00000000
00100000
10000000
00000000
11000000
,
00000000
00000000
00100000
00001000
00010000
00000010
00000100
00000000
00000000
00000101
00000000
00000010
,
00001000
00000000
00000100
00000001
00000000
00000100
00010000
00000000
00001000
01000000
00000000
10100000
,
00000000
00000000
01000000
00100000
00000000
10000000
01000000
00000000
00000000
00011000
00000000
00000010
,
00000001
00000000
00000001
00000100
00000000
00000100
00001000
00000000
00001000
00000010
00000000
00000000
,
00000001
00011000
10000000
00011000
,
00000001
00011000
10000000
00011000
,
00000000
00000011
00000000
10100000
,
00000000
11000000
00000000
00000202
,
00000000
00000303
00000000
00000000
;

//---------------dance-double - ----------------
#NOTES:
     dance-double:
     :
     Medium:
     7:
     0.406,0.436,0.532,0.184,0.164:
00000000
00000000
00000000
00000000
,
00000000
00000000
00000000
00000000
,
00000000
00000000
00000000
00000000
,
00000000
00000000
00000000
00000000
,
10000000
00000000
01000000
10000000
00000000
00000000
00010000
00000000
00000000
01010000
00000000
00000000
,
00100000
10000000
01000000
00100000
,
00001000
00000000
00000000
00010000
00000000
00010000
00001000
00000000
00000000
00000010
00000000
00000000
,
00000001
00001000
00000001
00000200
,
00000010
00000000
00000000
00000310
00000000
00000010
00001000
00000000
00000000
00000200
00000000
00000000
,
00010300
00000000
00000000
00001000
00000000
00010000
00001000
00000000
00000000
01000000
00000000
00000000
,
00020000
00100000
10000000
01000000
,
10030000
10010000
00110000
00011000
,
00001010
00000000
00000010
00000100
00000000
00000100
00000001
00000000
00000001
00001000
00000000
00000000
,
00000100
00000110
00000100
00010100
,
00010000
00000000
00001000
00010000
00000000
00000000
00001000
00000000
00001000
01000000
00000000
00000000
,
00100000
10100000
10000000
11000000
,
00210000
00301000
00011000
00010010
,
00001020
00000130
00000001
00000011
,
00000100
00010000
00001000
01000000
,
00000000
10100000
10010000
01010000
,
00011000
00000000
00011000
00000000
00000000
00000000
00000100
00000000
00000000
00000010
00000000
00000000
,
00000001
00001000
00000010
00010000
,
00011000
00000000
00011000
00000000
00000000
00000000
01000000
00000000
00000000
00100000
00000000
00000000
,
10000000
00100000
01000000
00010000
,
00110000
00000000
00110000
00000000
00000000
00000000
00001000
00000000
00000000
00010000
00000000
00000000
,
00010010
00000000
00010010
00000000
00000000
00000000
00000100
00000000
00000000
00000001
00000000
00000000
,
00000000
00001001
00000000
00011000
,
00000000
00000000
00000000
10010000
00000000
00000000
00000000
00000000
00011000
00000000
00000000
00022000
,
00000000
00000000
00033000
00011000
00000000
00000000
00001000
00000000
00000000
01000000
00000000
00000000
,
00010000
00100000
00001000
00010000
,
00000010
00000000
00000010
00000100
00000000
00000100
00000010
00000000
00000000
00001001
00000000
00001000
,
00000100
00000100
00010000
00001000
,
00012000
00000000
00000000
01003000
00000000
01000000
00100000
00000000
00000000
10010000
00000000
00000000
,
00010000
00000000
00010000
00100000
00000000
00100000
00010000
00000000
00010000
00100000
00000000
00000000
,
01000000
00011000
00000100
00011000
,
00100000
00011000
00000010
00011000
,
00000000
00001000
01000000
00100000
,
10000000
01000000
00100000
00001000
,
00000000
00000010
00000100
00001000
,
00000001
00000100
00000010
00010000
,
00002000
00000000
00023000
00000000
,
00030200
00000000
00002300
00003010
,
00000102
00000000
00000000
00000000
00000000
00000020
00000000
00000000
00000000
00000000
00000000
00000000
00000000
00000000
00000000
00000000
00000000
00000000
00000000
00000000
00000033
00000000
00000000
00000000
,
00000000
00000000
00000000
00001001
00000000
00000000
00000001
00000000
00000000
00000100
00000000
00000010
,
00010000
00000000
00010000
00001000
00000000
00000000
01000000
00000000
00000000
00100000
00000000
00000000
,
01020000
00000000
00000000
10030000
01000000
00100000
00010000
00000000
00000000
00011000
00000000
00001000
,
01000000
00010000
00100000
00001000
,
00021000
00000000
00000000
00030100
00000000
00000000
00001000
00000000
00000000
00000101
00000000
00000001
,
00001000
00000000
00001000
00000100
00000000
00000100
00001000
00000000
00001000
00000001
00000000
00000000
,
00000100
00011000
01000000
00011000
,
00000010
00011000
00100000
00011000
,
01000000
10100000
10000000
11000000
,
00010000
00101000
00001000
00000022
,
00000000
00000033
00000000
00000000
;

//---------------dance-double - ----------------
#NOTES:
     dance-double:
     :
     Easy:
     5:
     0.317,0.327,0.327,0.205,0.000:
00000000
00000000
00000000
00000000
,
00000000
00000000
00000000
00000000
,
00000000
00000000
00000000
00000000
,
00000000
00000000
00000000
00000000
,
10000000
00010000
10000000
00000000
,
11000000
00000000
00110000
00000000
,
00010000
01000000
00001000
00000000
,
00011000
00000000
00001100
00000000
,
00000010
00000001
00000001
00000001
,
00001000
00000010
00010000
00001000
,
00012000
01000000
00010000
00100000
,
00013000
00001000
01000000
00100000
,
10000000
00010000
00100000
00100000
,
00210000
00300000
00012000
00003000
,
00010000
00000010
00000100
00000010
,
00001010
00000000
00000100
00000100
,
00000100
00000000
00000010
00001000
,
00000100
00000000
00010100
00000000
,
00011000
00000000
01001000
00000000
,
00100000
10000000
01000000
00100000
,
00022000
00033000
00001000
01000000
,
00010000
00100000
01000000
00100000
,
00202000
00303000
00100000
00001000
,
00010000
00000010
00000100
00000001
,
00002002
00003003
00000001
00001000
,
00002200
00003300
00000100
00010000
,
00000000
00011000
00000000
00011000
,
00000000
00011000
00000000
00022000
,
00033000
00001000
01000000
00001000
,
00010000
00100000
01000000
00010000
,
11000000
10000000
10000000
10010000
,
00010000
01000000
00001000
00001000
,
00012000
00010000
00013000
00001000
,
01000000
00001000
00010000
00000100
,
00000010
00000001
00000100
00000001
,
00001000
00000001
00000010
00000001
,
00000000
00000100
00000010
00001000
,
00000100
00010000
00000100
00001000
,
00000000
00010000
00100000
01000000
,
10000000
01000000
00100000
00001000
,
00010000
00000000
00011000
00000000
,
00001000
00000000
01001000
00100000
,
20000000
00020000
00000000
00000000
,
30030000
10010000
00010000
01000000
,
00010000
00100000
00001000
00010000
,
00012000
01000000
00013000
00011000
,
00000100
00001000
00000010
00000100
,
00000102
00000010
00000103
00000010
,
00001000
00000100
00010000
00001000
,
01000000
00100000
10000000
00100000
,
01000000
00100000
10000000
00010000
,
00100000
00110000
00100000
00110000
,
00100000
00101000
00010000
00022000
,
00000000
00033000
00000000
00000000
;
