#TITLE:When You're Gone;
#SUBTITLE:(12'' Club Mix);
#ARTIST:Jackie 'O';
#TITLETRANSLIT:;
#SUBTITLETRANSLIT:;
#ARTISTTRANSLIT:;
#GENRE:;
#CREDIT:;
#MENUCOLOR:;
#METERTYPE:DDR;
#BANNER:When You're Gone (12'' Club Mix)-bn.png;
#BACKGROUND:When You're Gone (12'' Club Mix)-bg.png;
#LYRICSPATH:;
#CDTITLE:ddrencorecdtitle.png;
#MUSIC:When You're Gone (12'' Club Mix).mp3;
#OFFSET:-0.454;
#SAMPLESTART:65.253;
#SAMPLELENGTH:13.700;
#SELECTABLE:YES;
#LISTSORT:;
#BPMS:0.000=133.996;
#STOPS:79.000=1.340
;
#BGCHANGES:;
#ATTACKS:;

//---------------dance-single - ----------------
#NOTES:
     dance-single:
     :
     Hard:
     8:
     0.528,0.573,0.128,0.159,0.327:
0000
0000
0000
0000
,
0000
0000
0000
0000
,
0000
0000
0000
0000
,
0000
0000
0000
0000
0000
0000
0000
0000
0000
0000
0000
0000
0001
0000
0000
1000
,
0000
0000
1000
0000
0010
0000
0000
0100
0000
0000
0001
0000
1000
0000
0000
0010
,
0000
0000
0010
0000
1000
0000
0000
0001
0000
0000
0010
0000
0100
0000
0000
0001
,
0000
0000
0001
0000
0100
0000
0000
1000
0000
0000
0010
0000
0100
0000
0000
0010
,
0000
0000
0010
0000
1000
0000
0001
0000
0001
0000
0010
0000
0100
0000
0000
0010
,
0000
0000
0010
0000
0001
0000
0000
1000
0000
0000
0010
0000
0100
0000
0000
0001
,
0000
0000
0001
0000
1000
0000
0000
0010
0000
0000
0100
0000
0010
0000
0000
0001
,
0000
0000
0001
0000
0010
0000
0000
1000
0000
0000
0100
0000
1000
0000
0000
0010
,
0000
0000
0010
0000
1000
0000
0001
0000
0100
0000
0001
0000
1000
0000
0100
1000
,
0000
0000
0010
0000
0100
0000
0000
0001
0000
0000
1000
0000
0100
0000
1000
0010
,
0000
0000
0001
0000
0010
0000
0000
0100
0000
0000
1000
0000
0010
0000
1000
0001
,
0000
0000
0010
0000
1000
0000
0000
0001
0000
0000
0010
0000
0100
0000
1000
0010
,
0000
0000
0001
0000
1000
0000
0010
0000
0100
0000
0001
0000
1010
0000
0000
0001
,
0000
0000
0010
0000
1001
0000
0000
0100
0000
0000
0001
0000
1100
0000
0000
0010
,
0000
0000
0001
0000
0110
0000
0000
1000
0000
0000
0010
0000
1001
0000
0000
0000
,
0101
0000
1100
0000
0101
0000
1000
0001
,
0100
1000
0100
0001
1000
0100
0020
0000
,
0031
1000
0100
1000
0010
0100
0001
1000
,
0001
0010
0100
1000
0000
0010
0100
0001
,
1000
0000
0000
0001
0000
0000
1000
0000
0010
0000
0100
0000
0001
0000
1000
0000
,
0100
0000
0000
0010
0000
0000
0100
0000
1000
0000
0001
0000
0100
0000
0010
0000
,
0000
0100
0001
1000
0100
0010
0000
0100
,
0000
0010
0001
1000
0000
0010
0100
0001
,
1000
0000
0000
0010
0000
0000
0100
0000
0001
0010
0001
0010
0001
0000
0100
0000
,
0010
0000
0000
1000
0001
0010
0001
0010
0001
0000
0000
0000
1000
0001
1000
0000
,
0010
0100
0001
1000
0000
0100
0010
0001
,
1000
0001
0100
0010
0000
1000
0001
0100
,
0000
0010
0100
0001
1000
0000
0010
0100
,
0001
0000
0000
1000
0000
0000
0001
0000
0100
0000
0010
0000
0100
0000
0001
0000
,
0000
1000
0000
1100
0000
0010
0001
1000
,
0000
0010
0100
0110
0000
1001
0000
0010
,
0000
0100
0001
1000
0100
1000
0001
0100
,
0010
0000
0000
1000
0000
0000
0001
0000
1000
0000
0100
0000
0010
0000
0001
0000
,
1000
0000
0000
0010
0000
0000
0100
0000
0001
0000
0000
1000
0000
0000
0100
0000
,
0010
0000
0000
0100
0000
0000
1000
0000
0001
0000
0100
0000
0010
0000
1000
0000
,
0001
0000
0000
1000
0000
0000
0010
0000
0100
0000
0000
0010
0000
0000
1000
0000
,
0100
0000
0000
0010
0000
0000
0001
0000
0100
0000
0010
0000
0010
0000
1000
0000
,
0001
0000
0000
0100
0000
0000
0010
0000
1000
0000
0000
0001
0000
0000
0010
0000
,
0001
1000
0010
0100
0010
1000
0001
0010
,
0200
0000
1000
0000
0310
0001
0100
0010
,
0000
0100
0010
1000
0000
0001
0010
0100
,
1000
0000
0000
0001
0000
0000
0100
0000
0010
0000
0000
1000
0000
0000
0100
0000
,
1000
0010
0100
0001
1000
0010
0100
0001
,
1000
0000
0000
0100
0000
0000
0001
0000
0100
0000
0000
0010
0000
0000
0001
0000
,
0100
0000
0000
0010
0000
0000
1000
0000
0001
0000
0100
0000
0010
0000
1000
0000
,
0100
0000
0000
1000
0000
0000
0010
0000
0001
0000
0000
0010
0000
0000
0100
0000
,
0001
0000
0000
1000
0000
0000
0100
0000
1000
0000
0001
0000
0010
0000
0100
0000
,
1000
0000
0000
0001
0000
0000
0100
0000
0010
0000
0000
0100
0000
0000
0001
0000
,
1010
0101
1100
0101
,
0001
0000
1000
0000
0100
0010
0000
0000
0001
0000
1000
0000
0010
0100
0000
0000
,
0001
0000
0010
0000
0001
1000
0000
1000
0010
0000
0100
0000
0001
1000
0001
1000
,
0001
0000
0100
0000
0010
1000
0000
0000
0100
0000
0010
0000
0001
0100
0000
0000
,
0001
0000
0010
0000
0100
0010
0000
0010
0001
0000
1000
0000
0010
0100
0010
0100
,
0010
1000
0010
0000
1000
0100
0000
0000
0010
0000
0001
0000
1000
0010
0000
0000
,
0100
0000
0001
0000
1000
0100
0000
0100
0010
0000
0001
0000
1000
0001
1000
0001
,
1000
0000
0001
0100
0000
0100
0001
0000
1000
0000
0001
1000
0000
1000
0001
0000
,
0100
0000
0001
0010
0000
0001
0000
0000
0000
0000
0000
0010
0000
0001
1000
0001
,
0200
0310
2000
3100
,
0020
0031
2000
3010
,
0200
0310
2000
3001
,
0020
0000
0130
0000
0002
0000
1003
0100
,
0020
0031
0200
0310
,
2000
3100
0020
0031
,
0200
0310
0020
0130
,
0002
0000
1003
0000
0200
0000
0310
0001
,
2002
0000
3003
0000
;

//---------------dance-single - ----------------
#NOTES:
     dance-single:
     :
     Easy:
     2:
     0.172,0.273,0.008,0.104,0.000:
0000
0000
0000
0000
,
0000
0000
0000
0000
,
0000
0000
0000
0000
,
0000
0000
0000
0000
,
1000
0000
0010
0000
,
0100
0000
0010
0000
,
1000
0000
0001
0000
,
0010
0001
1000
0000
,
0010
0000
0100
0000
,
0001
0000
1000
0000
,
0100
0000
0010
0000
,
0001
0000
0100
0010
,
1000
0000
0001
0000
,
0010
0000
0001
1000
,
0100
0000
1000
0000
,
0010
0000
0100
0001
,
0000
1000
0000
0010
,
0000
0100
0000
0010
,
0010
0010
0010
1000
,
0001
1000
0001
0200
,
0310
0000
0010
0000
,
1000
0000
1000
0000
,
0001
0000
0010
0000
,
0100
0000
0000
0000
,
1000
0000
0010
0000
,
1000
0000
0001
0000
,
0020
0000
0031
0000
,
0002
0000
0103
0010
,
1000
0000
0010
0000
,
0100
0000
0010
0000
,
1000
0000
0001
0000
,
0010
0000
0000
0000
,
0100
0000
1000
0000
,
0100
0000
0010
0000
,
0001
0000
1000
0000
,
0010
0000
0000
0000
,
0100
0000
0100
0000
,
0100
0000
0010
1000
,
0001
0000
0001
0000
,
0001
0000
0010
0100
,
1000
0000
1000
0000
,
1000
0001
1000
0001
,
0100
0000
0010
0000
,
0100
0000
0001
1000
,
0100
0000
0100
0000
,
0100
0000
1000
0001
,
0010
0000
0010
0000
,
0010
0000
0001
0010
,
0100
0000
0100
0000
,
0100
0000
1000
0001
,
0100
0000
0100
0000
,
0100
0000
0010
1000
,
0002
0000
0000
0000
,
2003
0000
0000
0000
,
3020
0000
0000
0000
,
0230
0000
0000
0000
,
0302
0000
0000
0000
,
0023
0000
0000
0000
,
0230
0000
0000
0000
,
2300
0000
0000
0000
,
3001
0000
1000
0000
,
0010
0000
1000
0000
,
0001
0000
0010
0000
,
0001
0000
0100
0000
,
0010
0000
1000
0000
,
0001
0000
0010
0000
,
0100
0000
0010
0000
,
0001
0000
1000
0001
,
2002
0000
3003
0000
;

//---------------dance-double - ----------------
#NOTES:
     dance-double:
     :
     Hard:
     9:
     0.528,0.573,0.096,0.151,0.347: // measure 1
00000000
00000000
00000000
00000000
,  // measure 2
00000000
00000000
00000000
00000000
,  // measure 3
00000000
00000000
00000000
00000000
,  // measure 4
00000000
00000000
00000000
00000000
00000000
00000000
00000000
00000000
00000000
00000000
00000000
00000000
00000001
00000000
00000000
00000100
,  // measure 5
00000000
00000000
00000010
00000000
00010000
00000000
00000000
00000100
00000000
00000000
00001000
00000000
00000010
00000000
00000000
00001000
,  // measure 6
00000000
00000000
00000100
00000000
00010000
00000000
00000000
00001000
00000000
00000000
01000000
00000000
00010000
00000000
00000000
00100000
,  // measure 7
00000000
00000000
00001000
00000000
00010000
00000000
00000000
00000100
00000000
00000000
00000010
00000000
00000100
00000000
00000000
00001000
,  // measure 8
00000000
00000000
00000010
00000000
00000100
00000000
00000001
00000000
00000001
00000000
00000100
00000000
00000010
00000000
00000000
00010000
,  // measure 9
00000000
00000000
00001000
00000000
01000000
00000000
00000000
00001000
00000000
00000000
00010000
00000000
00000100
00000000
00000000
00010000
,  // measure 10
00000000
00000000
00001000
00000000
00100000
00000000
00000000
00010000
00000000
00000000
01000000
00000000
00100000
00000000
00000000
10000000
,  // measure 11
00000000
00000000
00010000
00000000
00100000
00000000
00000000
00001000
00000000
00000000
00010000
00000000
00000100
00000000
00000000
00001000
,  // measure 12
00000000
00000000
00000010
00000000
00000100
00000000
00000001
00000000
00001000
00000000
00000100
00000000
00000010
00000000
00000001
00001000
,  // measure 13
00000000
00001000
00000001
00000000
00000100
00000000
00000000
00000010
00000000
00000000
00001000
00000000
00000100
00000000
00010000
00001000
,  // measure 14
00000000
00001000
00010000
00000000
00001000
00000000
00000000
00100000
00000000
00000000
00010000
00000000
01000000
00000000
00100000
10000000
,  // measure 15
00000000
10000000
00100000
00000000
01000000
00000000
00000000
00010000
00000000
00000000
10000000
00000000
01000000
00000000
00100000
00010000
,  // measure 16
00000000
00010000
00100000
00000000
00001000
00000000
00010000
00000000
00000100
00000000
00001000
00000000
00000010
00000000
00000000
00000010
,  // measure 17
00000100
00000000
00000000
00000000
00000100
00000000
00000000
00000100
00000001
00000000
00000000
00000000
00001000
00000000
00000000
00001000
,  // measure 18
00000100
00000000
00000000
00000000
00000100
00000000
00000000
00000100
00010000
00000000
00000000
00000000
00001000
00000000
00000000
00000000
,  // measure 19
00101000
00000000
00010000
00000000
00010010
00000000
00001000
00000100
,  // measure 20
00010000
00001000
01000000
00100000
10000000
00010000
02000000
00000000
,  // measure 21
03100000
10000000
00010000
01000000
00001000
00010000
00000100
00000010
,  // measure 22
00000001
00001000
00000010
00010000
00000000
00000010
00000100
00000001
,  // measure 23
00000000
00001000
00000100
00010000
00000010
00000000
00001000
00000100
,  // measure 24
00010000
00000000
00000000
00001000
00000000
00000000
00100000
00000000
00010000
00000000
01000000
00000000
00100000
00000000
10000000
00000000
,  // measure 25
00000000
00010000
01000000
00010000
00100000
00001000
00000000
01000000
,  // measure 26
00000000
00010000
00100000
01000000
00000000
10000000
00010000
01000000
,  // measure 27
00100000
00000000
00000000
10000000
00000000
00000000
00010000
00000000
00100000
00001000
00100000
00001000
00100000
00000000
00001000
00000000
,  // measure 28
00010000
00000000
00000000
00000100
00001000
00000100
00001000
00000100
00010000
00000000
00000000
00000000
00001000
00100000
00001000
00000000
,  // measure 29
00010000
00000100
00000010
00000100
00000000
00000010
00000001
00000100
,  // measure 30
00000000
00000010
00000000
00001001
00000000
00000010
00000100
00000001
,  // measure 31
00000000
00001000
00000100
00010000
00000010
00000000
00000100
00000001
,  // measure 32
00001000
00000000
00000000
00000100
00000000
00000000
00010000
00000000
00001000
00000000
00100000
00000000
00010000
00000000
01010000
00000000
,  // measure 33
00000000
10010000
00000000
11000000
00000000
00100000
00010000
01000000
,  // measure 34
00000000
00100000
10000000
01010000
00000000
01001000
00000000
00011000
,  // measure 35
00000000
00010000
00000100
00000010
00000001
00000010
00000100
00010000
,  // measure 36
00001000
00000000
00010000
00000100
00000000
00010000
00001000
00100000
,  // measure 37
00010000
00000000
00000000
01000000
00000000
00000000
00100000
00000000
10000000
00000000
00000000
00010000
00000000
00000000
00100000
00000000
,  // measure 38
00001000
00000000
00000000
00010000
00000000
00000000
00000100
00000000
00000010
00000000
00000001
00000000
00001000
00000000
00000100
00000000
,  // measure 39
00010000
00000000
00000000
00000100
00000000
00000000
00010000
00000000
00001000
00000000
00000000
00100000
00000000
00000000
00001000
00000000
,  // measure 40
01000000
00000000
00000000
00010000
00000000
00000000
00100000
00000000
00001000
00000000
00011000
00000000
00011000
00000000
00010000
00000000
,  // measure 41
00000100
00000000
00000000
00001000
00000000
00000000
00000100
00000000
00010000
00000000
00000000
00001000
00000000
00000000
01000000
00000000
,  // measure 42
00100000
10000000
00010000
01000000
00001000
00100000
00010000
10000000
,  // measure 43
01000000
00100000
01000000
00100000
00010000
01000000
00001000
00010000
,  // measure 44
00000000
00000100
00001000
00000010
00000000
00000100
00000010
00001000
,  // measure 45
00000100
00000000
00000000
00010000
00000000
00000000
00000010
00000000
00001000
00000000
00000000
00000100
00000000
00000000
00010000
00000000
,  // measure 46
00001000
00000000
00000000
00100000
00000000
00000000
00010000
00000000
01000000
00000000
00010000
00000000
00100000
00000000
01000000
00000000
,  // measure 47
10000000
00000000
00000000
00010000
00000000
00000000
01000000
00000000
00001000
00000000
00000000
00100000
00000000
00000000
00001000
00000000
,  // measure 48
00010000
00000000
00000000
00000100
00000000
00000000
00001000
00000000
00000010
00000000
00010000
00000000
00000100
00000000
00001000
00000000
,  // measure 49
00000010
00000000
00000000
00000100
00000000
00000000
00000010
00000000
00001000
00000000
00000000
00000100
00000000
00000000
00010000
00000000
,  // measure 50
00000010
00000000
00000000
00000100
00000000
00000000
00000001
00000000
00001000
00000000
00000100
00000000
00010000
00000000
00001000
00000000
,  // measure 51
00100000
00000000
00000000
00001000
00000000
00000000
00010000
00000000
00001000
00000000
00000000
00010000
00000000
00000000
00000100
00000000
,  // measure 52
00000010
00000001
00001000
00000100
00010000
00001000
01000000
00100000
,  // measure 53
10000000
00000000
00010000
01000000
00000000
00000000
00100000
00000000
01000000
00000000
00010000
00100000
00000000
00000000
00001000
00000000
,  // measure 54
00010000
00000000
00001000
01000000
00000000
00010000
00000000
00100000
01000000
00000000
10000000
00000000
00010000
01000000
00010000
01000000
,  // measure 55
00100000
00000000
10000000
00010000
00000000
00000000
00100000
00000000
00001000
00000000
00010000
00000100
00000000
00000000
00001000
00000000
,  // measure 56
00000010
00000000
00000100
00000001
00000000
00001000
00000000
00000010
00000100
00000000
00000010
00000000
00001000
00000001
00001000
00000001
,  // measure 57
00000100
00000010
00001000
00000000
00000100
00010000
00000000
00000000
00000100
00000000
00001000
00000000
00000010
00010000
00000000
00000000
,  // measure 58
00001000
00000000
00100000
00000000
00010000
01000000
00000000
00100000
10000000
00000000
00010000
00000000
00100000
01000000
00100000
01000000
,  // measure 59
10000000
00000000
00010000
10000000
00000000
10000000
01000000
00000000
00100000
00000000
00010000
01000000
00000000
01000000
00001000
00000000
,  // measure 60
00010000
00000000
00000100
00000010
00000000
00000001
00000000
00000000
00000000
00000000
00000000
00000100
00000000
00000010
00001000
00000100
,  // measure 61
00000020
00000031
00002000
00003100
,  // measure 62
00020000
00031000
02000000
03100000
,  // measure 63
20000000
30010000
00200000
00301000
,  // measure 64
00020000
00000000
00030100
00000000
00000020
00000000
00000031
00000100
,  // measure 65
00002000
00003100
00000020
00010030
,  // measure 66
00002000
01003000
00200000
10300000
,  // measure 67
02000000
03100000
00020000
01030000
,  // measure 68
00002000
00000000
00013000
00000000
00000200
00000000
00000310
00000001
,  // measure 69
00002002
00000000
00003003
00000000
;

//---------------dance-single - ----------------
#NOTES:
     dance-single:
     :
     Medium:
     6:
     0.386,0.464,0.112,0.143,0.000:
0000
0000
0000
0000
,
0000
0000
0000
0000
,
0000
0000
0000
0000
,
0000
0000
0000
0001
,
1000
0000
0010
0100
,
0001
0000
0010
0100
,
0010
0000
0001
1000
,
0010
0000
0100
0001
0001
0000
1000
0000
,
0100
0000
0010
0001
,
1000
0000
0010
0100
,
0010
0000
1000
0001
,
0100
0000
0010
1000
0001
1000
0010
0000
,
1000
0001
0100
0010
,
1000
0001
0010
0001
,
0100
0010
1000
0001
,
0010
0000
0100
1000
0001
0000
0011
0000
,
0000
1001
0000
1100
,
0000
0110
0000
0101
,
1001
0000
1010
0000
1001
0000
0001
1000
,
0001
1000
0010
0100
0010
0100
0002
0000
,
1003
0001
0100
0010
,
1000
0001
1000
0100
0000
0000
1000
0000
,
0001
0000
1000
0010
0100
0000
0010
1000
,
0001
0000
1000
0000
0001
0100
0001
1000
,
0000
0001
0010
0000
0100
0000
1000
0001
,
0000
0100
0010
1000
0000
0001
0010
0001
,
1000
0010
0100
0110
,
0010
0000
1000
0001
1000
0000
0000
0000
,
0100
0000
0010
0000
0001
0000
0100
0010
,
1000
0000
0001
0000
0010
0000
0100
1000
,
0000
0001
1000
0010
0100
0000
0010
1000
,
0010
0000
0100
0000
0001
1000
0001
1000
,
0000
0010
0000
1000
0000
0001
0010
0001
,
0000
1000
0010
0100
0000
0001
0000
1000
,
0001
0000
0010
0100
1000
0001
1000
0010
,
0100
0001
1000
0001
,
1010
0000
0010
0000
0100
0000
0001
1000
,
0100
0000
0010
0000
0001
0000
1000
0100
,
0010
0000
0100
0000
1000
0000
0010
0100
,
0001
0000
1000
0000
0001
1000
0100
1000
,
0001
0000
0100
0000
0010
0000
0100
0001
,
0100
0000
0010
0000
1000
0001
1000
0100
,
0010
0000
0001
0000
1000
0010
1000
0010
,
0000
0100
0001
0100
0000
0010
1000
0001
,
0010
0000
0001
0000
1000
0000
0010
0100
,
0001
0000
1000
0000
0100
0010
0001
1000
,
0001
0000
0100
0000
0010
0000
0100
0001
,
1000
0000
0100
0000
0010
0001
0010
0100
,
1000
0000
0010
0000
0100
0000
0001
1000
,
0100
0000
0010
0001
1000
0001
0100
0010
,
1000
0001
0100
0010
,
1010
1100
1010
1001
,
0001
0100
0010
1000
,
0001
0000
0010
0000
0001
1000
0001
0100
,
0001
1000
0010
0100
,
0001
0000
1000
0000
0100
1000
0100
0010
,
0001
0100
0010
0100
,
0001
0000
1000
0000
0010
0100
0010
1000
,
0100
0010
0001
1000
,
0001
0000
0100
0000
0010
1000
0010
0100
,
0002
1003
2000
3100
,
0200
0310
0020
0031
,
0200
0310
0020
1030
,
2000
0000
3100
0000
0200
0000
0310
0001
,
2000
3001
0002
0103
,
0200
0310
0020
1030
,
0200
0310
0020
0031
,
0002
0000
1003
0000
2000
0000
3010
0100
,
0002
0000
0003
0000
;

//---------------dance-single - ----------------
#NOTES:
     dance-single:
     :
     Beginner:
     1:
     0.122,0.163,0.008,0.000,0.000:
0000
0000
0000
0000
,
0000
0000
0000
0000
,
0000
0000
0000
0000
,
0000
0000
0000
1000
,
0000
0000
0000
0100
,
0000
0000
0000
1000
,
0000
0000
0000
0001
,
0000
0000
0000
0010
,
0000
0000
0000
0001
,
0000
0000
0000
0100
,
0000
0000
0000
0010
,
0000
0000
0000
1000
,
0000
1000
0000
0001
,
0000
0001
0000
0100
,
0000
0100
0000
0010
,
0000
0010
0000
1000
,
0000
0001
0000
1000
,
0000
0001
0000
0100
,
0000
0100
0000
0100
,
0000
0100
0000
0010
,
0010
0000
1000
0000
,
0010
0000
0100
0000
,
0001
0000
1000
0000
,
0100
0000
0000
0000
,
0100
0000
0010
0000
,
0100
0000
1000
0000
,
0001
0000
0000
0000
,
0000
0000
0000
0000
,
1000
0000
0001
0000
,
0100
0000
0010
0000
,
1000
0000
0100
0000
,
1000
0000
0000
0000
,
0001
0000
0100
0000
,
0010
0000
0001
0000
,
1000
0000
0001
0000
,
1000
0000
0000
0000
,
0010
0000
0010
0000
,
1000
0000
1000
0000
,
0001
0000
0001
0000
,
0010
0000
0010
0000
,
0001
0000
0001
0000
,
1000
0000
1000
0000
,
0010
0000
0000
0000
,
0100
0000
0000
0000
,
0010
0000
0010
0000
,
1000
0000
1000
0000
,
0001
0000
0001
0000
,
0010
0000
0010
0000
,
0001
0000
0001
0000
,
1000
0000
1000
0000
,
0010
0000
0010
0000
,
0100
0000
0100
0000
,
0010
0000
0000
0000
,
1000
0000
0000
0000
,
0001
0000
0000
0000
,
0010
0000
0000
0000
,
0100
0000
0000
0000
,
0010
0000
0000
0000
,
0001
0000
0000
0000
,
1000
0000
0000
0000
,
0001
0000
1000
0000
,
0001
0000
1000
0000
,
0010
0000
0100
0000
,
0010
0000
0100
0000
,
0001
0000
1000
0000
,
0001
0000
1000
0000
,
0100
0000
0010
0000
,
0100
0000
0010
0000
,
1001
0000
0000
0000
;

//---------------dance-double - ----------------
#NOTES:
     dance-double:
     :
     Easy:
     5:
     0.294,0.382,0.104,0.096,0.000:
00000000
00000000
00000000
00000000
,
00000000
00000000
00000000
00000000
,
00000000
00000000
00000000
00000000
,
00000000
00000000
00000000
00010000
,
00001000
00100000
00010000
00100000
,
00001000
00010000
00000100
00001000
,
00000010
00001000
00000100
00010000
,
00001000
01000000
00100000
10000000
,
00010000
01000000
00001000
01000000
,
00010000
10000000
01000000
00100000
,
00010000
01000000
00001000
00010000
,
00000100
00001000
00000010
00000100
,
00000001
00001000
00010100
00000100
,
00001000
00000010
00001001
00001000
,
00000100
00010000
00101000
00001000
,
00010000
00010100
00011000
00101000
,
00100000
00110000
01000000
10100000
,
00010000
01001000
00010000
00011000
,
00010100
00011000
00101000
00001000
,
00010000
00000100
00000010
00000002
,
00000103
00000010
00000100
00000001
,
00001000
00000100
00010000
00000000
,
00001000
00100000
00010000
01000000
,
00100000
00000000
10000000
00000000
,
00010000
01000000
00100000
10000000
,
00010000
00100000
01000000
00100000
,
00010000
01000000
02000000
00001000
,
03001000
00020000
00000100
00030100
,
00001000
00000010
00000100
00000001
,
00001000
00000100
00000010
00000000
,
00000001
00000100
00000010
00001000
,
00000100
00000000
00010000
00000000
,
00001000
00100000
00001000
00010000
,
00000100
00000010
00000001
00001000
,
00000100
00010000
00001000
01000000
,
00100000
00000000
10000000
00010000
,
01000000
00000000
00100000
00000000
,
10000000
00000000
00010000
01000000
,
00001000
00000000
00010000
00000000
,
00000100
00000000
00001000
00000010
,
00000100
00000000
00000001
00000000
,
00001000
00000100
00000010
00000001
,
00001000
00000000
00000100
00000000
,
00010000
00001000
00100000
00001000
,
00010000
00000000
00001000
00000000
,
01000000
00000000
00100000
10000000
,
00010000
00000000
00100000
00000000
,
01000000
00000000
00100000
00001000
,
00010000
00000000
00000100
00000000
,
00001000
00000010
00000100
00000001
,
00001000
00000000
00000100
00000000
,
00000010
00000001
00000010
00000100
,
00002000
00000010
00000010
00003010
,
00000020
00010000
00010000
00010030
,
00002000
00100000
00100000
00103000
,
00020000
10000000
10000000
10030000
,
00200000
01000000
01000000
01300000
,
00020000
00100000
00100000
00130000
,
00002000
00010000
00010000
00013000
,
00000200
00001000
00001000
00001300
,
00000010
00000100
00000010
00001000
,
00000100
00010000
00000100
00001000
,
00000010
00000100
00000001
00001000
,
00000010
00000000
00000100
00000000
00000010
00000000
00001000
00000100
,
00010000
00001000
00100000
00010000
,
01000000
00010000
00100000
00001000
,
00010000
00000100
00010000
00001000
,
01000000
00000000
00100000
00000000
10000000
00000000
00010000
00100000
,
02000000
00000000
03000000
00000000
;

//---------------dance-double - ----------------
#NOTES:
     dance-double:
     :
     Medium:
     7:
     0.444,0.464,0.143,0.112,0.128:
00000000
00000000
00000000
00000000
,
00000000
00000000
00000000
00000000
,
00000000
00000000
00000000
00000000
,
00000000
00000000
00000000
10000000
,
00010000
00000000
00000000
00000000
01000000
00000000
00000000
00010000
00000000
00000000
00100000
00000000
00010000
00000000
00000000
00000000
,
00100000
00000000
00000000
00000000
00001000
00000000
00000000
00010000
00000000
00000000
00000100
00000000
00001000
00000000
00000000
00000000
,
00000100
00000000
00000000
00000000
00000010
00000000
00000000
00000001
00000000
00000000
00001000
00000000
00000100
00000000
00000000
00000000
,
00010000
00000000
00001000
00100000
00001000
00010000
00000100
00000000
,
00001000
00000000
00000000
00000000
00000010
00000000
00000000
00000100
00000000
00000000
00000010
00000000
00001000
00000000
00000000
00000000
,
00000100
00000000
00000000
00000000
00010000
00000000
00000000
00001000
00000000
00000000
00100000
00000000
00010000
00000000
00000000
00000000
,
01000000
00000000
00000000
00000000
00100000
00000000
00000000
10000000
00000000
00000000
00100000
00000000
01000000
00000000
00000000
00000000
,
00010000
00000000
10000000
00100000
01000000
00010000
10000000
00000000
,
01000000
00000000
00000000
00000000
00100000
00000000
00000000
00010000
00000000
00000000
01000000
00000000
00001000
00000000
00000000
00000000
,
00010000
00000000
00000000
00000000
00000100
00000000
00000000
00000010
00000000
00000000
00000001
00000000
00001000
00000000
00000000
00000000
,
00000010
00000000
00000000
00000000
00000100
00000000
00000000
00000010
00000000
00000000
00001000
00000000
00000100
00000000
00000000
00000000
,
00010000
00000000
00001000
00100000
00010000
00000000
01100000
00000000
,
10000000
01010000
00100000
00011000
,
00000100
00001010
00000001
00001010
,
00001001
00000000
00000110
00000000
00010010
00000000
00010000
00001000
,
01000000
00100000
10000000
00010000
01000000
00001000
00020000
00000000
,
00031000
00100000
00001000
00000000
00010000
00000100
00010000
00000000
,
00001000
00010000
00000100
00000010
00000000
00000000
00000101
00000000
,
00000100
00000010
00001000
00000001
00000100
00000000
00000010
00001000
,
00000100
00000000
00000000
00010000
00000000
00000000
00000100
00000000
00000000
00000000
00000010
00000000
00000100
00000000
00001000
00000000
,
00000000
00000010
00000100
00000000
00000010
00001000
00000000
00000100
,
00000000
00010000
00001000
00100000
00000000
00010000
01000000
00100000
,
10000000
00000000
00000000
00010000
00000000
00000000
10000000
00000000
00100000
00000000
00100000
00000000
00100000
00000000
01000000
00000000
,
00010000
00000000
00000000
00100000
00000000
00000000
00001000
00000000
00001000
00000000
00000000
00000000
00010000
00000000
00000100
00000000
,
00000010
00000001
00000000
00000100
00000000
00000010
00001000
00000010
,
00000000
00000100
00000000
00001001
00000000
00000010
00010000
00001000
,
00000000
00100000
00010000
01000000
00100000
00000000
10000000
00010000
,
01000000
00000000
00000000
00001000
00000000
00000000
00100000
00000000
00000000
00000000
00010000
00000000
01000000
00000000
00100000
00000000
,
00000000
10100000
00000000
00110000
00000000
00010000
01000000
00001000
,
00000000
00110000
00000000
00001100
00000000
00011000
00000000
00010000
,
00000000
00000100
00000010
00000001
00000010
00000100
00001000
00000010
,
00000100
00000000
00001001
00000000
00000010
00000100
00000001
00001000
,
00000100
00000000
00000000
00000000
00010000
00000000
00000000
00000000
00001000
00000000
00000000
00100000
00000000
00000000
00010000
00000000
,
01000000
00000000
00001000
00000000
00010000
00000100
00001000
00000100
,
00010000
00000000
00000000
00000000
00001000
00000000
00000000
00000000
00100000
00000000
00000000
00010000
00000000
00000000
01000000
00000000
,
00100000
00000000
10010000
00000000
00100000
01000000
00010000
01000000
,
00100000
00000000
00000000
00000000
10000000
00000000
00000000
00000000
00010000
00000000
00000000
01000000
00000000
00000000
00001000
00000000
,
00010000
00000100
00010000
00001000
00010000
00000100
00000010
00000001
,
00000100
00000010
00000100
00000010
00000100
00000001
00001000
00000001
,
00000100
00000010
00001000
00000001
00000000
00000100
00000010
00001000
,
00000100
00000000
00000000
00000000
00010000
00000000
00000000
00000000
00001000
00000000
00000000
00100000
00000000
00000000
00010000
00000000
,
01000000
00000000
00100000
00000000
01000000
00010000
10000000
01000000
,
00100000
00000000
00000000
00000000
00010000
00000000
00000000
00000000
01000000
00000000
00000000
00001000
00000000
00000000
00010000
00000000
,
00001000
00000000
00100000
00001000
00000000
00010000
00000100
00001000
,
00000010
00000000
00000000
00000000
00000100
00000000
00000000
00000000
00000010
00000000
00000000
00001000
00000000
00000000
00000100
00000000
,
00010000
00000000
00001000
00100000
00010000
00100000
00001000
00010000
,
00000100
00000000
00000000
00000000
00000010
00000000
00000000
00000000
00000001
00000000
00000000
00001000
00000000
00000000
00000010
00000000
,
00000100
00000000
00001001
00000000
00000010
00000010
00000100
00000100
,
00000010
00000000
00000000
00000010
00000000
00000000
00001000
00000000
00000100
00000000
00000000
00000100
00000000
00000000
00010000
00000000
,
00001000
00000000
00000000
00001000
00000000
00000000
00100000
00000000
00010000
00000000
01000000
00000000
00010000
00000000
00100000
00000000
,
01000000
00000000
00000000
01000000
00000000
00000000
10000000
00000000
00100000
00000000
00000000
00100000
00000000
00000000
01000000
00000000
,
00010000
00000000
00000000
00010000
00000000
00000000
00100000
00000000
00001000
00000000
00010000
00000000
00000100
00000000
00001000
00000000
,
00000100
00000000
00000000
00000100
00000000
00000000
00010000
00000000
00001000
00000000
00000000
00001000
00000000
00000000
00100000
00000000
,
00010000
00000000
00000000
00010000
00000000
00000000
01000000
00000000
00100000
00000000
10000000
00000000
00010000
00000000
01000000
00000000
,
00100000
00000000
00000000
00100000
00000000
00000000
10000000
00000000
00010000
00000000
00000000
00010000
00000000
00000000
01000000
00000000
,
00001000
00000000
00000000
00001000
00000000
00000000
00010000
00000000
00000100
00000000
00000010
00000000
00000100
00000000
00001000
00000000
,
00000020
00000130
00000020
00001030
,
00000020
00000031
00000010
00001000
,
00000200
00010300
00000200
00001300
,
00000200
00000000
00000310
00000000
00000001
00000000
00001000
00000001
,
00002000
00003100
00002000
00003010
,
00002000
00003001
00001000
00000100
,
00020000
00031000
00020000
00030100
,
00020000
00000000
00031000
00000000
00100000
00000000
00010000
01000000
,
00200000
00000000
00300000
00000000
;
