#TITLE:When You Say Nothing At All;
#SUBTITLE:;
#ARTIST:Kathy Phillips;
#TITLETRANSLIT:;
#SUBTITLETRANSLIT:;
#ARTISTTRANSLIT:;
#GENRE:;
#CREDIT:;
#MENUCOLOR:;
#METERTYPE:DDR;
#BANNER:When You Say Nothing At All-bn.png;
#BACKGROUND:When You Say Nothing At All-bg.png;
#LYRICSPATH:Lyrics.lrc;
#CDTITLE:ddrencorecdtitle.png;
#MUSIC:When You Say Nothing At All.mp3;
#OFFSET:-0.001;
#SAMPLESTART:38.889;
#SAMPLELENGTH:14.444;
#SELECTABLE:YES;
#LISTSORT:;
#BPMS:0.000=135.001,160.000=67.501,182.000=135.001;
#STOPS:;
#BGCHANGES:;
#ATTACKS:;

//---------------dance-single - ----------------
#NOTES:
     dance-single:
     :
     Beginner:
     1:
     0.093,0.124,0.071,0.000,0.000:
0000
0000
0000
0000
,
0000
0000
0000
0000
,
0000
0000
0000
0000
,
0000
0000
0000
0000
,
0001
0000
0000
0000
,
1000
0000
0000
0000
,
1000
0000
0000
0000
,
0001
0000
0000
0000
,
1001
0000
0000
0000
,
1000
0000
0000
0000
,
0100
0000
0000
0000
,
1000
0000
0000
0000
,
1000
0000
0000
0000
,
0001
0000
0000
0000
,
0100
0000
0000
0000
,
0001
0000
0000
0000
,
0001
0000
0000
0000
,
1001
0000
0000
0000
,
0100
0000
0000
0000
,
0010
0000
0000
0000
,
0100
0000
0000
0000
,
1001
0000
0000
0000
,
0001
0000
0001
0000
,
1000
0000
0010
0000
,
1000
0000
1000
0000
,
0001
0000
0100
0000
,
0010
0000
0010
0000
,
0010
0000
0100
0000
,
0001
0000
0000
0000
,
1000
0000
0001
0000
,
0100
0000
0000
0000
,
1001
0000
0000
0000
,
1000
0000
0000
0000
,
0001
0000
0000
0000
,
0001
0000
0000
0000
,
1000
0000
0000
0000
,
0010
0000
0000
0000
,
0100
0000
0000
0000
,
0100
0000
0000
0000
,
0010
0000
0000
0000
,
1001
0000
0000
0000
,
0000
0000
0000
0000
,
0110
0000
0000
0000
,
0000
0000
0000
0000
,
1001
0000
0000
0000
,
0001
0000
1000
0000
,
1000
0000
0001
0000
,
0100
0000
0001
0000
,
0001
0000
1000
0000
,
0010
0000
0100
0000
,
0100
0000
0100
0000
,
0010
0000
1000
0000
,
0000
0000
0001
0000
,
1000
0000
0100
0000
,
0000
0000
0010
0000
,
0000
0000
1001
0000
;

//---------------dance-single - ----------------
#NOTES:
     dance-single:
     :
     Easy:
     2:
     0.138,0.175,0.134,0.018,0.000:
0000
0000
0000
0000
,
0000
0000
0000
0000
,
0000
0000
0000
0000
,
0000
0000
0000
0000
,
0001
0000
0000
0000
,
0001
0000
0000
0000
,
1000
0000
0000
0000
,
1000
0000
0000
0000
,
1001
0000
0000
0000
,
0001
0000
0100
0000
,
0001
0000
0010
0000
,
0100
0000
0100
0000
,
0010
0000
0010
0000
,
0001
0000
1000
0000
,
0001
0000
0100
0000
,
0010
0000
0010
0000
,
0100
0000
0100
0000
,
1001
0000
0000
0000
,
0110
0000
0000
0000
,
0001
0000
0001
0000
,
1000
0000
1000
0000
,
1001
0000
0000
0000
,
0001
0100
0001
0000
,
1000
0000
1000
0000
,
0001
0010
0001
0000
,
0100
0000
0100
0000
,
0010
0000
1000
0000
,
0001
0000
0100
0000
,
0010
0000
0000
0000
,
1001
0000
0110
0000
,
0100
0000
0100
0000
,
1001
0000
0000
0000
,
1000
0000
0100
0000
,
1000
0000
1000
0000
,
0001
0000
0100
0000
,
0001
0000
0001
0000
,
1001
0000
1000
0000
,
0100
0000
0010
0000
,
0001
0000
0001
0000
,
0100
0000
0010
0000
,
1001
0000
0000
0000
,
1000
0000
0000
0000
,
0101
0000
0000
0000
,
1000
0000
0000
0000
,
1100
0000
0000
0000
,
1001
0000
1000
0100
,
1000
0000
0001
0000
,
0001
0000
1000
0010
,
1000
0000
0100
0000
,
0100
0000
0010
0000
,
0001
0000
0100
0000
,
0010
0000
1000
0000
,
0000
0000
1001
0000
,
0110
0000
0100
0000
,
0100
0000
0010
0000
,
0000
0000
2002
0000
,
3003
0000
0000
0000
;

//---------------dance-single - ----------------
#NOTES:
     dance-single:
     :
     Medium:
     5:
     0.245,0.300,0.143,0.071,0.000:
0000
0000
0000
0000
,
0000
0000
0000
0000
,
0000
0000
0000
0000
,
0000
0000
0000
0000
,
1000
0000
0010
0000
,
0100
0000
0001
0000
,
0001
0000
0100
0000
,
0010
0000
1000
0000
,
2002
0000
3003
0000
,
1000
0000
1100
0000
,
0001
0000
0101
0000
,
0100
0000
0000
0000
0010
0000
0000
0100
,
0010
0000
1000
0000
,
0001
0000
0011
0000
,
1000
0000
1010
0000
,
0100
0000
0010
0000
,
0001
1000
0000
0010
0000
0000
0000
0000
,
1000
0100
0010
0000
,
0100
0010
0001
0000
,
0010
0001
0100
0010
,
1000
0001
2000
0000
,
0002
0000
0000
3003
,
0001
0100
0010
1000
,
0100
0010
0100
0010
0000
0001
0000
0000
,
1000
0010
0100
0001
,
0010
0100
0010
0100
0000
1000
0000
0000
,
0001
0000
0100
0010
0000
1000
0001
0100
,
0000
0010
0000
0000
1000
0000
0100
0000
,
0010
0000
0001
0000
,
1001
0000
0110
0000
,
1000
0001
1000
0001
,
0220
0000
0330
0000
,
0001
0000
0100
0000
0001
0000
1000
0100
,
1000
0000
0010
0000
1000
0000
0001
0010
,
0001
0000
0100
0000
0010
0000
1000
0001
,
1000
0010
0100
0100
,
1001
0000
0001
0000
0010
0000
0100
1000
,
0100
0000
0010
0000
0001
0000
0100
0001
,
0100
0000
0010
0000
1000
0000
0010
1000
,
0010
0100
0001
0001
,
1001
0000
0100
0000
,
0010
0000
1000
0000
,
0101
0000
0010
0000
,
0100
0000
1000
0000
,
1010
0000
0100
0000
,
0001
0100
0001
0100
0010
0000
1000
0000
,
0100
0000
0001
0000
0100
1000
0100
1000
,
0000
0010
0000
0000
0100
0000
0001
0000
,
0010
0000
1000
0000
0010
0001
0010
0001
,
0000
0100
0000
0000
0001
1000
0001
1000
,
0000
0010
0100
0001
0000
1000
0000
0000
,
0100
0010
0001
0000
,
1000
0000
0110
0000
,
1001
0000
0000
0000
0001
0100
0010
1000
,
0000
0001
0110
0000
,
0000
0000
2002
0000
,
3003
0000
0000
0000
;

//---------------dance-single - ----------------
#NOTES:
     dance-single:
     :
     Hard:
     7:
     0.399,0.475,0.125,0.098,0.147: // measure 1
0000
0000
0000
0000
,  // measure 2
0000
0000
0000
0000
,  // measure 3
0000
0000
0000
0000
,  // measure 4
0000
0000
0000
0000
,  // measure 5
1000
0000
0000
0100
0000
0000
1000
0000
0000
0010
0000
0000
0100
0000
0001
0000
,  // measure 6
1000
0000
0000
0001
0000
0000
0010
0000
0000
0001
0000
0000
0100
0000
0010
0000
,  // measure 7
1000
0000
0000
0010
0000
0000
1000
0000
0000
0001
0000
0000
0100
0000
0010
0000
,  // measure 8
1000
0000
0000
0100
0000
0000
0010
0000
0000
0001
0000
0000
1000
0000
0001
0000
,  // measure 9
0200
0000
0000
0300
,  // measure 10
0010
0000
1000
0100
0010
0000
0001
0000
,  // measure 11
1000
0000
0001
0100
0010
0000
1000
0000
,  // measure 12
0001
0000
0100
0010
1000
0000
0001
1000
,  // measure 13
0020
0000
0230
0000
,  // measure 14
0301
0000
0010
0001
0100
0000
0010
0000
,  // measure 15
1000
0000
0100
1000
0010
0100
0001
0000
,  // measure 16
1000
0000
0010
1000
0001
0000
0010
0000
,  // measure 17
0100
0010
0000
1001
0000
0000
0110
0000
,  // measure 18
0001
0010
0001
0100
0010
1000
0001
0010
,  // measure 19
0100
1000
0010
0100
0001
0000
0001
0000
,  // measure 20
1000
0010
1000
0100
0000
0100
0010
0001
,  // measure 21
0000
0000
0001
0000
0100
0000
0010
0000
1000
0100
1000
0000
0001
0100
0001
0000
,  // measure 22
0010
0010
0100
0100
0020
0000
0000
0000
,  // measure 23
0031
0100
0010
1000
0100
0001
0100
1000
,  // measure 24
0010
0000
0100
0000
0001
0000
1000
0000
0000
0000
0110
0000
0000
0000
0100
0001
,  // measure 25
1000
0100
0010
0001
0100
1000
0100
0001
,  // measure 26
0010
0100
1000
0010
0000
1001
0000
0000
,  // measure 27
1000
0010
1000
0001
0000
0001
0010
0100
,  // measure 28
0000
0010
0100
0000
1000
0010
0100
0001
,  // measure 29
1000
0010
0100
0100
,  // measure 30
0102
0000
0000
0003
2100
0000
0000
3000
,  // measure 31
0001
0100
1000
0000
1000
0100
0001
0000
,  // measure 32
2002
0000
0000
3003
,  // measure 33
0001
0000
0000
0010
0000
0000
0001
0000
0000
0100
0000
0000
0010
0000
1000
0000
,  // measure 34
0001
0000
0000
1000
0000
0000
0100
0000
0000
1000
0000
0000
0010
0000
0100
0000
,  // measure 35
0001
0000
0000
0100
0000
0000
0001
0000
0000
1000
0000
0000
0010
0000
0100
0000
,  // measure 36
0001
0000
0000
0010
0000
0000
0100
0000
0000
1000
0000
0000
0001
0000
1000
0001
,  // measure 37
1000
0000
0000
0100
0000
0000
0010
0000
0000
0100
0000
0000
1000
0000
0001
0000
,  // measure 38
0100
0000
0000
0010
0000
0000
1000
0000
0000
0010
0000
0000
0100
0000
0001
0000
,  // measure 39
0010
0000
0000
0100
0000
0000
1000
0000
0000
0100
0000
0000
0010
0000
0001
0000
,  // measure 40
1000
0000
0000
0010
0000
0000
0100
0000
0000
0001
0000
0000
1000
0000
0001
0000
,  // measure 41
0100
0010
0100
0001
,  // measure 42
1000
0010
1000
0100
,  // measure 43
1001
0000
0100
0001
0010
0000
0100
0000
,  // measure 44
0010
0000
0001
1000
0010
0000
0100
0000
,  // measure 45
0120
0100
0100
0130
,  // measure 46
0001
0000
0000
0000
1000
0000
0000
0000
0001
0000
1000
0000
0001
1000
0001
1000
0001
0000
0000
0000
0100
0000
0000
0000
0010
0000
0000
0000
1000
0000
0000
0000
,  // measure 47
0100
0001
0100
1000
0010
0100
0001
1000
,  // measure 48
0000
0000
0110
0000
0000
0000
0100
0001
1000
0000
0010
0000
0100
0000
0001
0000
,  // measure 49
0010
1000
0010
0001
0100
0010
1000
0100
,  // measure 50
0000
1001
0000
0000
0001
0100
0001
1000
,  // measure 51
0000
1000
0010
0100
0000
0010
0100
0000
,  // measure 52
0001
0010
0100
1000
0001
0000
0100
0000
,  // measure 53
0010
0010
1001
0000
,  // measure 54
0110
0000
0000
0000
1000
0100
0010
0001
,  // measure 55
0010
0100
1000
0010
0100
0000
0000
0000
,  // measure 56
0000
0000
0220
0000
,  // measure 57
0330
0000
0000
0000
;

//---------------dance-double - ----------------
#NOTES:
     dance-double:
     :
     Easy:
     2:
     0.136,0.175,0.089,0.018,0.000:
00000000
00000000
00000000
00000000
,
00000000
00000000
00000000
00000000
,
00000000
00000000
00000000
00000000
,
00000000
00000000
00000000
00000000
,
00100000
00000000
00000000
00000000
,
10000000
00000000
00000000
00000000
,
00010000
00000000
00000000
00000000
,
01000000
00000000
00000000
00000000
,
00011000
00000000
00000000
00000000
,
00010000
00000000
00000100
00000000
,
00000010
00000000
00000001
00000000
,
00000100
00000000
00000100
00000000
,
00000010
00000000
00000010
00000000
,
00001000
00000000
00000100
00000000
,
00010000
00000000
00001000
00000000
,
01000000
00000000
01000000
00000000
,
00100000
00000000
00100000
00000000
,
10010000
00000000
00000000
00000000
,
01100000
00000000
00000000
00000000
,
10000000
00000000
01000000
00000000
,
00100000
00000000
00010000
00000000
,
10010000
00000000
00000000
00000000
,
10000000
01000000
00100000
00000000
,
00100000
00000000
00100000
00000000
,
00010000
01000000
00001000
00000000
,
00001000
00000000
00001000
00000000
,
00010000
00000000
00000010
00000000
,
00000100
00000000
00000001
00000010
,
00000100
00000000
00000000
00000000
,
00000010
00000000
00000010
00000000
,
00000001
00000100
00000010
00001000
,
00001001
00000000
00000000
00000000
,
00000001
00000000
00000100
00000000
,
00000010
00000000
00001000
00000000
,
00000100
00000000
00010000
00000000
,
00001000
00000000
01000000
00000000
,
10010000
00000000
01000000
00000000
,
00100000
00000000
00010000
00000000
,
01000000
00000000
00001000
00000000
,
00010000
00000000
00000100
00000000
,
00001001
00000000
00000000
00000000
,
00000001
00000000
00000000
00000000
,
00001001
00000000
00000000
00000000
,
00000100
00000000
00000000
00000000
,
00011000
00000000
00000000
00000000
,
01000000
00100000
10000000
00010000
,
01000000
00000000
01000000
00000000
,
01000000
00000000
00010000
00100000
,
00001000
00000000
00001000
00000000
,
00001000
00000000
00010000
00000000
,
00000010
00000000
00001000
00000000
,
00000100
00000010
00000001
00000000
,
00000000
00000000
00001000
00000000
,
00000010
00000000
00010000
00000000
,
00000000
00000000
00001000
00000000
,
00000000
00000000
00022000
00000000
,
00033000
00000000
00000000
00000000
;

//---------------dance-double - ----------------
#NOTES:
     dance-double:
     :
     Medium:
     4:
     0.205,0.275,0.107,0.054,0.000:
00000000
00000000
00000000
00000000
,
00000000
00000000
00000000
00000000
,
00000000
00000000
00000000
00000000
,
00000000
00000000
00000000
00000000
,
10000000
00000000
01000000
00000000
,
00100000
00000000
00001000
00000000
,
00010000
00000000
00000100
00000000
,
00000010
00000000
00000001
00000000
,
00002002
00000000
00003003
00000000
,
00000001
00000100
00000010
00000000
,
00000010
00001000
00000100
00000000
,
00010000
00000000
00000000
00000000
00001000
00000000
00000000
01000000
,
00010000
00000000
10000000
00000000
,
01000000
10000000
00100000
00000000
,
01000000
00010000
00100000
00000000
,
00001000
00000000
00010000
00000000
,
00000010
00000100
00000000
00000001
00000000
00000000
00000000
00000000
,
00001000
00000010
00000100
00000000
,
00000010
00000100
00000001
00000000
,
00000100
00000001
00000010
00000100
,
00001000
00000010
00020000
00000000
,
00002000
00000000
00000000
00033000
,
00001000
01000000
00010000
00100000
,
01000000
00000000
10000000
00010000
00000000
01000000
00000000
00000000
,
00100000
10000000
00010000
01000000
,
00010000
00000000
00100000
00001000
00000000
00010000
00000000
00000000
,
00000100
00001000
00000100
00001000
00000000
00000100
00000010
00000001
,
00000000
00001000
00000000
00000000
00000010
00000000
00000100
00000000
,
00000001
00000000
00001000
00000000
,
00000110
00000000
00001001
00000000
,
00001000
00000010
00010000
00001000
,
00011000
00000000
00000000
00000000
,
00001000
00000000
01000000
00000000
,
00100000
00000000
10000000
00000000
,
01000000
00000000
00100000
00000000
,
00010000
00000000
01000000
00000000
,
10010000
00000000
01000000
00000000
,
00001000
00000000
00010000
00000000
,
00000010
00000000
00000100
00000000
,
00000001
00000000
00000010
00000000
,
00001001
00000000
00001000
00000000
,
00000010
00000000
00000100
00000000
,
00001001
00000000
00000010
00000000
,
00010000
00000000
00001000
00000000
,
00011000
00000000
00100000
00000000
,
00010000
10000000
00010000
10000000
01000000
00000000
00100000
00000000
,
00010000
00000000
01000000
00000000
00001000
00010000
00001000
00010000
,
00000000
00000010
00000000
00000000
00000100
00000000
00000001
00000000
,
00000010
00000000
00000100
00000000
00001000
00000001
00001000
00000001
,
00000000
00000100
00000000
00000000
00000010
00000000
00000000
00000000
,
00000010
00000000
00010000
00000000
,
00001000
01000000
00100000
00000000
,
10000000
00000000
10010000
00000000
,
01100000
00000000
10000000
01000000
,
00100000
00001000
00011000
00000000
,
00000000
00000000
00002002
00000000
,
00003003
00000000
00000000
00000000
;

//---------------dance-double - ----------------
#NOTES:
     dance-double:
     :
     Hard:
     7:
     0.409,0.475,0.205,0.089,0.187:
00000000
00000000
00000000
00000000
,
00000000
00000000
00000000
00000000
,
00000000
00000000
00000000
00000000
,
00000000
00000000
00000000
00000000
,
00000100
00000000
00000000
00001000
00000000
00000000
00000010
00000000
00000000
00000100
00000000
00000000
00000001
00000000
00001000
00000000
,
00000010
00000000
00000000
00000100
00000000
00000000
00000001
00000000
00000000
00001000
00000000
00000000
00000010
00000000
00010000
00000000
,
00001000
00000000
00000000
00100000
00000000
00000000
00001000
00000000
00000000
01000000
00000000
00000000
00010000
00000000
00100000
00000000
,
01000000
00000000
00000000
10000000
00000000
00000000
00100000
00000000
00000000
01000000
00000000
00010000
10000000
00000000
00100000
00000000
,
02000000
00000000
00000000
00000000
,
03100000
10000000
00010000
00100000
00000000
00100000
01000000
00010000
,
00000000
00010000
01000000
10000000
00000000
10000000
00010000
00100000
,
01000000
00000000
00000000
00000000
00000000
00000000
00000000
00000000
00101000
00000000
00000000
00000000
00000000
00000000
00010000
00001000
,
00020000
00000000
00000000
00000200
00030000
00000000
00000000
00000300
,
00001000
00000001
00000100
00000010
00000000
00000010
00000100
00001000
,
00000000
00000000
00000000
00000000
00001000
00000000
00000100
00000001
00000100
00000000
00000001
00000000
00000010
00000000
00000100
00000000
,
00001000
00000000
00010100
00000000
,
00010000
00001000
00000000
01010000
00000000
00000000
10010000
00000000
,
10000000
00100000
01000000
00010000
00000000
00010000
10000000
01000000
,
00000000
01000000
00100000
00001000
00000000
00000000
00011000
00000000
,
00010200
00000300
00000120
00000030
,
00000012
00000000
00000000
00000000
00000003
00000000
00001000
00000000
00000001
00000100
00000001
00000000
00001000
00000010
00001000
00000000
,
00000100
00000100
00000100
00000100
00000200
00000000
00000000
00000000
,
00001300
00000100
00000010
00000001
00000010
00000100
00001000
00000010
,
00010000
00000000
00001000
00000000
01000000
00000000
00010000
00000000
00000000
00000000
10100000
00000000
00000000
00000000
00100000
10000000
,
00010000
00100000
01000000
10000000
01000000
00100000
00010000
01000000
,
00001000
00010000
00000010
00001000
00000000
00000101
00000000
00000000
,
00001000
00001000
00000001
00000100
00000000
00000100
00000010
00000100
,
00000000
00001001
00000000
00000000
00000001
00000010
00000100
00001000
,
00000010
00010000
00001000
01000000
,
10100000
00000000
01010000
00000000
,
00010000
00100000
00001000
00010000
00000010
00001000
00000100
00010000
,
00011000
00000000
00000000
00000000
,
00100000
00000000
00000000
01000000
00000000
00000000
10000000
00000000
00000000
00010000
00000000
00000000
01000000
00000000
00100000
00000000
,
10000000
00000000
00000000
00010000
00000000
00000000
00100000
00000000
00000000
00001000
00000000
00000000
00010000
00000000
00000010
00000000
,
00001000
00000000
00000000
00000100
00000000
00000000
00010000
00000000
00000000
00001000
00000000
00000000
01000000
00000000
00100000
00000000
,
10000000
00000000
00000000
00010000
00000000
00000000
00100000
00000000
00000000
00001000
00000000
00010000
00001000
00000000
00001000
00010000
,
00000100
00000000
00000000
00001000
00000000
00000000
00000010
00000000
00000000
00000100
00000000
00000000
00000001
00000000
00001000
00000000
,
00000010
00000000
00000000
00010000
00000000
00000000
00000100
00000000
00000000
00001000
00000000
00000000
00000010
00000000
00010000
00000000
,
00001000
00000000
00000000
01000000
00000000
00000000
00010000
00000000
00000000
00100000
00000000
00000000
01000000
00000000
10000000
00000000
,
00010000
00000000
00000000
01000000
00000000
00000000
00100000
00000000
00000000
10000000
00000000
00010000
01000000
00000000
00001000
00000000
,
00010000
00000000
00001000
00100000
01000000
00000000
10000000
00000000
,
00010000
00000000
01000000
00001000
00010000
00000000
00000010
00000000
,
00001001
00000000
00000000
00000100
00000000
00000000
00000010
00000000
00010000
00000000
00000000
00001000
00000000
00000000
01000000
00000000
,
00010000
00000000
00000000
00100000
00000000
00000000
01000000
00000000
00100000
00000000
00000000
00010000
00000000
00000000
10000000
00000000
,
01200000
01000000
01000000
01300000
,
00010000
00000000
00000000
00000000
01000000
00000000
00000000
00000000
00001000
00000000
00010000
00000000
00001000
00010000
00001000
00010000
00001000
00000000
00000000
00000000
01000000
00000000
00000000
00000000
00010000
00000000
00000000
00000000
00100000
00000000
00000000
00000000
,
01000000
10000000
01000000
00100000
00001000
00010000
00000010
00001000
,
00000000
00000000
00000101
00000000
00000000
00000000
00000100
00000001
00001000
00000000
00000100
00000000
00000010
00000000
00000001
00000000
,
00000010
00000100
00001000
00000010
00010000
00001000
01000000
00010000
,
00000000
10100000
00000000
00100000
01000000
00010000
10000000
01000000
,
00000000
01000000
00100000
01000000
00000000
10010000
00000000
00000000
,
00100000
00010000
01000000
00001000
00010000
00000000
00000100
00000000
,
00000010
00000001
00001100
00000000
,
00001001
00000000
00000000
00000000
00000010
00000100
00000001
00001000
,
00000010
00010000
00001000
00100000
11000000
00000000
00000000
00000000
,
00000000
00000000
00022000
00000000
,
00033000
00000000
00000000
00000000
;
