#TITLE:Whataya Want From Me;
#SUBTITLE:;
#ARTIST:Adam Lambert;
#TITLETRANSLIT:;
#SUBTITLETRANSLIT:;
#ARTISTTRANSLIT:;
#GENRE:;
#CREDIT:;
#MENUCOLOR:;
#METERTYPE:DDR;
#BANNER:Whataya Want From Me-bn.png;
#BACKGROUND:Whataya Want From Me-bg.png;
#LYRICSPATH:Whataya Want From Me.lrc;
#CDTITLE:DDREncore2.png;
#MUSIC:Whataya Want From Me.mp3;
#OFFSET:0.003;
#SAMPLESTART:71.613;
#SAMPLELENGTH:11.860;
#SELECTABLE:YES;
#LISTSORT:;
#BPMS:0.000=93.000,80.000=186.000,232.000=93.000;
#STOPS:;
#BGCHANGES:;
#ATTACKS:;

//---------------dance-single - ----------------
#NOTES:
     dance-single:
     :
     Beginner:
     1:
     0.094,0.110,0.000,0.054,0.000:
0000
0000
0000
0000
,
0000
0000
0000
0000
,
0000
0000
0000
0000
,
0000
0000
0000
0000
,
0001
0000
0000
0001
,
0001
0000
0000
2000
,
0000
3000
0000
0002
,
0000
0003
0000
0000
,
1000
0000
0000
1000
,
1000
0000
0000
0002
,
0000
0003
0000
2000
,
0000
3000
0000
0000
,
0001
0000
0000
0000
,
1000
0000
0000
0000
,
0010
0000
0000
0000
,
0010
0000
0000
0000
,
0100
0000
0000
0100
,
0100
0000
0000
0020
,
0000
0030
0000
0200
,
0000
0300
0000
0000
,
0001
0000
0000
0000
,
0001
0000
0000
0000
,
0001
0000
0000
0000
,
0100
0000
0000
0000
,
1000
0000
0000
0000
,
1000
0000
0000
0000
,
1000
0000
0000
0000
,
0001
0000
0000
0000
,
1000
0000
0000
0000
,
1000
0000
0000
0000
,
1000
0000
0000
0000
,
0100
0000
0000
0000
,
0001
0000
0000
0000
,
0001
0000
0000
0000
,
0001
0000
0000
0000
,
1000
0000
0010
0000
,
0100
0000
0000
0000
,
0000
0000
0010
0000
,
0100
0000
0000
0000
,
0000
0000
0010
0000
,
0100
0000
0000
0000
,
0001
0000
0000
0000
,
1000
0000
0000
0000
,
0100
0000
0010
0000
,
0100
0000
0000
0000
,
0010
0000
0001
0000
,
0010
0000
0000
0000
,
0001
0000
1000
0000
,
0001
0000
0000
0000
,
0000
0000
0000
0000
,
0001
0000
0000
0000
,
0100
0000
0010
0000
,
0100
0000
0000
0000
,
0010
0000
1000
0000
,
0010
0000
0000
0000
,
0100
0000
0000
0000
,
0001
0000
0000
0000
,
1000
0000
0000
0000
,
0010
0000
0000
0010
,
0010
0000
0000
1000
,
0000
0000
0000
0001
;

//---------------dance-single - ----------------
#NOTES:
     dance-single:
     :
     Easy:
     2:
     0.132,0.165,0.018,0.091,0.000:
0000
0000
0000
0000
,
0000
0000
0000
0000
,
0000
0000
0000
0000
,
0000
0000
0000
0000
,
1000
0000
0000
0010
,
0001
0000
0000
0200
,
0010
0300
0000
0200
,
0010
0300
0000
0000
,
0001
0000
0000
0100
,
1000
0000
0000
0020
,
0100
0030
0000
0020
,
0100
0030
0000
0000
,
1000
0000
0100
0000
,
0010
0010
0010
0000
,
0001
0000
0100
0000
,
0010
0010
0010
0000
,
1000
0000
0000
0100
,
0001
0000
0000
0020
,
0100
0030
0000
0200
,
0010
0300
0000
0000
,
0001
0000
0000
0000
,
0100
0000
0000
0000
,
0010
0000
0000
0000
,
1000
0000
0100
0000
,
1000
0000
0000
0000
,
0010
0000
0000
0000
,
0100
0000
0000
0000
,
0001
0001
0000
1000
,
1000
0000
0000
0000
,
0010
0000
0000
0000
,
0100
0000
0000
0000
,
0001
0000
0010
0000
,
0001
0000
0000
0000
,
0100
0000
0000
0000
,
0010
0000
0000
0000
,
0000
0000
2000
0000
,
0001
0000
3000
0000
,
0000
0000
0002
0000
,
1000
0000
0003
0000
,
0000
0000
2000
0000
,
0001
0000
3002
0000
,
1000
0000
0003
0000
,
0001
0000
0000
0000
,
0100
0000
0001
0001
,
0000
0000
0100
0000
,
0010
0000
1000
1000
,
0000
0000
0100
0000
,
1000
0000
0001
0001
,
0000
0000
0010
0000
,
0000
0000
0100
0000
,
1000
0000
0000
0000
,
0010
0000
1000
1000
,
0000
0000
0100
0000
,
0010
0000
0001
0001
,
0000
0000
0100
0000
,
0000
0000
0001
1000
,
0000
0000
0100
0000
,
0000
0000
0100
0000
,
1000
0000
0000
0010
,
0001
0000
0000
1001
,
0000
0000
0000
1001
;

//---------------dance-single - ----------------
#NOTES:
     dance-single:
     :
     Medium:
     5:
     0.263,0.360,0.027,0.163,0.000:
0000
0000
0000
0000
,
0000
0000
0000
0000
,
0000
0000
0000
0000
,
0000
0000
0000
1001
,
0010
0001
0000
0100
,
0010
0000
1000
0000
0000
0000
1000
0100
,
0010
0001
0100
0000
0000
0000
0001
0100
,
0010
1000
0100
0000
0000
0000
1000
0000
,
0100
1000
0000
0010
,
0100
0000
0001
0000
0000
0000
0001
0100
,
0010
1000
0100
0000
0000
0000
1000
0010
,
0100
0001
0010
0000
0000
0000
0001
0000
,
0100
0000
0010
1000
0010
0000
0100
0000
,
0001
0000
1000
0100
1000
0000
0010
0000
,
0100
0001
0010
0001
0100
0000
0010
0000
,
0010
1000
0100
1000
0010
0000
0100
0000
,
0001
0010
0000
0100
,
1000
0000
0010
0000
0000
0000
1000
0010
,
0001
0010
1000
0000
0000
0000
0001
0010
,
1000
0010
0001
0000
1000
0000
0001
0000
,
1001
0000
0100
0000
,
0010
0000
1000
0100
,
0010
0000
0100
0010
,
0100
1000
0010
0100
,
0001
0000
0010
0000
,
0010
0000
0001
0100
,
0010
0000
1000
0010
,
0100
0000
0001
0000
0000
0000
0001
1000
,
0001
0000
0100
0000
,
0010
0000
1000
0001
,
0010
0000
0100
0010
,
0001
0100
0010
1000
,
0100
0000
1000
0001
,
0100
0001
1000
0100
,
0010
0000
0010
0001
,
0100
0000
0000
0000
0001
0000
0000
0100
,
0000
0000
0010
0000
0010
0000
0000
0100
,
0000
0000
0001
0000
1000
0000
0000
0100
,
0000
0010
0000
0110
,
0000
0000
0000
0000
0001
0000
0000
1000
,
0000
0000
0010
0000
0010
0000
0000
1000
,
0000
0001
0000
0010
0000
0000
0000
0000
,
2000
0000
3010
0000
,
0002
0000
0203
0020
,
0300
0030
0100
0000
,
2000
0000
3200
0020
,
0300
0030
0100
0000
,
0002
0000
2003
0020
,
3000
0000
0030
0000
1000
0000
0000
1000
,
0000
0010
0000
0000
1000
0000
0000
0000
,
0002
0000
0103
0000
,
0020
0000
0230
0002
,
0300
0003
0010
0000
,
0020
0000
0230
2000
,
0300
3000
0010
0000
,
0100
0000
0001
1000
,
0001
0100
0000
0001
0000
1000
0000
0200
,
0000
0000
0300
0000
,
1000
0000
0000
0010
,
0100
0000
0000
0000
0000
0000
0001
0010
,
0100
1000
0000
0000
0000
0000
1000
0100
,
0010
0001
0000
0000
0000
0000
0000
0000
;

//---------------dance-single - ----------------
#NOTES:
     dance-single:
     :
     Hard:
     8:
     0.428,0.526,0.100,0.190,0.222: // measure 1
0000
0000
0000
0000
,  // measure 2
0000
0000
0000
0000
,  // measure 3
0000
0000
0000
0000
,  // measure 4
0000
0000
0000
1001
,  // measure 5
0100
0000
0000
0000
0010
0000
0000
1000
0000
1000
0010
0000
0100
0000
0000
0000
,  // measure 6
0010
0000
0000
0000
1000
0000
0000
0100
0000
0100
1000
0000
0001
0100
0001
0100
,  // measure 7
0000
0100
0001
0000
1000
0000
0000
0100
0000
0001
0100
0000
1000
0100
1000
0100
,  // measure 8
0000
0100
1000
0000
0001
0000
0000
0100
0000
1000
0100
0000
0001
0000
0000
1000
,  // measure 9
0100
0000
0000
0000
0010
0000
0000
0001
0000
0001
0100
0000
0010
0000
0000
0000
,  // measure 10
0100
0000
0000
0000
0001
0000
0000
0010
0000
0010
0001
0000
1000
0010
1000
0010
,  // measure 11
0000
0010
1000
0000
0001
0000
0000
0010
0000
1000
0010
0000
0001
0010
0001
0010
,  // measure 12
0000
0010
0001
0000
1000
0000
0000
0010
0000
0001
0010
0000
2000
0000
0000
0000
,  // measure 13
3001
0010
0001
0100
0010
1000
0100
0010
,  // measure 14
0100
1000
0001
0010
0100
0000
2100
0000
,  // measure 15
3001
0100
1000
0100
0001
0000
0102
0000
,  // measure 16
1003
0100
0001
0100
1000
0000
0010
0000
,  // measure 17
1001
0000
0000
0000
0100
0000
0000
0010
0000
0010
0001
0000
0100
0000
0000
0000
,  // measure 18
1001
0000
0000
0000
0010
0000
0000
0100
0000
0100
1000
0000
0010
0100
0010
0100
,  // measure 19
0000
0100
0001
0000
0010
0000
0000
0100
0000
1000
0001
0000
0100
0010
0100
0010
,  // measure 20
0000
0010
1000
0000
0000
0000
0000
0000
0001
0100
0000
0000
0001
1000
0000
0000
,  // measure 21
1001
0000
0100
0000
1000
0000
1000
0100
,  // measure 22
0010
0001
0100
0001
,  // measure 23
0001
0100
0010
0000
1000
0000
0010
1000
,  // measure 24
0001
0010
1000
0100
,  // measure 25
1001
0000
0010
0000
0001
0000
0001
0010
,  // measure 26
0100
1000
0010
1000
,  // measure 27
1000
0010
0100
0000
0001
0000
0100
0001
,  // measure 28
1000
0000
0100
0000
0001
0000
0010
0001
,  // measure 29
1001
0000
0100
0000
0001
0000
0100
0001
,  // measure 30
1000
0010
0100
0001
,  // measure 31
0010
0000
0001
0010
0100
0000
0100
1000
,  // measure 32
0010
0001
0100
1000
,  // measure 33
1001
0000
0010
1000
0001
0000
0010
0000
,  // measure 34
0001
0100
0010
1000
,  // measure 35
0002
0000
0013
0200
,  // measure 36
0010
0000
0300
0000
0001
0100
0001
0100
,  // measure 37
0000
0100
0001
0000
1000
0100
1000
0100
,  // measure 38
0000
0100
1000
0000
0001
0010
0100
1000
,  // measure 39
0000
0001
2000
0000
0000
0000
3002
0000
,  // measure 40
0000
0000
0003
0000
1000
0100
1000
0100
,  // measure 41
0000
0100
1000
0000
0001
0100
0001
0100
,  // measure 42
0000
0100
0000
0010
1000
0010
0100
0001
,  // measure 43
2000
0000
3010
1000
,  // measure 44
0002
0000
0013
0200
,  // measure 45
0010
0000
0300
0001
0010
0000
0000
0010
,  // measure 46
0002
0000
0103
0020
,  // measure 47
1000
0000
0030
1000
0100
0000
0000
0100
,  // measure 48
2000
0000
3001
0200
,  // measure 49
0010
0000
0300
0000
0101
0000
0000
0010
,  // measure 50
0000
1000
0000
0000
0100
1000
0010
0000
,  // measure 51
2000
0000
3100
1000
,  // measure 52
0002
0000
0103
0020
,  // measure 53
0100
0000
0030
0001
0100
0000
0000
0100
,  // measure 54
0002
0000
0000
0000
1003
0000
0010
1000
,  // measure 55
0020
0000
0130
0000
,  // measure 56
0002
0000
1003
0200
,  // measure 57
0010
0300
0011
0000
,  // measure 58
0010
1000
0001
0000
1000
0010
0100
0001
,  // measure 59
0010
0000
0000
0001
,  // measure 60
1000
0000
0000
0000
0000
0000
0000
0000
0000
0000
0000
0000
1000
0010
1000
0010
,  // measure 61
0000
0010
0100
0000
0000
0000
0000
0000
0000
0000
0000
0000
0001
0010
0001
0010
,  // measure 62
0000
0010
0100
0000
0000
0000
0000
0000
0000
0000
0000
0000
0000
0000
0000
0000
;

//---------------dance-double - ----------------
#NOTES:
     dance-double:
     :
     Easy:
     3:
     0.206,0.248,0.145,0.172,0.000:
00000000
00000000
00000000
00000000
,
00000000
00000000
00000000
00000000
,
00000000
00000000
00000000
00000000
,
00000000
00000000
00000000
10010000
,
00100000
01000000
00000000
00100000
,
00010000
01000000
00000000
00012000
,
00010000
00003000
00000000
00021000
,
00001000
00030000
00000000
00000000
,
00000010
00000100
00000000
00000010
,
00001000
00000100
00000000
00021000
,
00001000
00030000
00000000
00012000
,
00010000
00003000
00000000
00000000
,
00001000
00000000
00000010
00000000
,
00001000
00000000
00010000
00000000
,
00100000
00010000
00001000
00000000
,
00000010
00001000
00010000
00000000
,
00100000
00000000
00000000
01000000
,
00010000
00100000
00000000
00012000
,
00010000
00003000
00000000
00021000
,
00001000
00030000
00000000
00000000
,
00000100
00000000
00000010
00000000
,
00000001
00000000
00000010
00000001
,
00000010
00000000
00000001
00000000
,
00001000
00000001
00001000
00000000
,
00000010
00000000
00001000
00000000
,
00000100
00000000
00001000
00000100
,
00001000
00000000
00000000
00000100
,
00010000
00001000
00000000
00001000
,
00010000
00000000
00001000
00000000
,
01000000
00000000
00010000
01000000
,
00000000
00000000
01000000
00010000
,
10000000
00010000
10000000
00010000
,
01000000
00000000
00001000
00000000
,
00001000
00010000
00001000
00000000
,
00001000
00000000
00000000
00000000
,
00000010
00000000
00002001
00000000
,
00003100
00000000
00001200
00000000
,
00010300
00000000
00021000
00000000
,
00031000
00010000
00000000
00100000
,
10000000
00000000
10020000
00000000
,
00130000
00000000
00201000
00000000
,
00301000
00000000
00011000
00000000
,
00002000
00000000
00003000
00000000
,
00100000
00000000
01000000
00020000
,
00000000
00030000
00100000
00000000
,
00001000
00000000
00000010
00000200
,
00000000
00000300
00001000
00000000
,
00000010
00000000
00000100
00000002
,
00000000
00000003
00000001
00000000
,
00000100
00000000
00000010
00000000
,
00020000
00000000
00030000
00000000
,
00010000
00000000
00000010
00002000
,
00000000
00003000
00000100
00000000
,
00010000
00000000
01000000
00200000
,
00000000
00300000
00010000
00000000
,
01000000
00000000
00100000
20000000
,
00000000
30000000
00010000
00000000
,
10000000
00000000
10000000
00000000
,
10010000
00000000
00000000
00100000
,
01000000
00000000
00000000
00011000
,
00000000
00000000
00000000
00011000
;

//---------------dance-double - ----------------
#NOTES:
     dance-double:
     :
     Medium:
     5:
     0.278,0.305,0.082,0.254,0.036:
00000000
00000000
00000000
00000000
,
00000000
00000000
00000000
00000000
,
00000000
00000000
00000000
00000000
,
00000000
00000000
00000000
00001001
,
00000100
00000010
00000000
00000010
,
00000001
00000000
00000000
00000000
00001000
00000000
00000000
00000000
00000000
00000000
00000000
00000000
00000010
00000000
00000000
00010000
,
00000000
00000000
00000200
00000000
00000000
00000000
00000000
00000000
00000300
00000000
00000000
00000000
00010000
00000000
00000000
00001000
,
00000000
02000000
00000000
00000000
03000000
00000000
00100000
00000000
,
01000000
00100000
00000000
00100000
,
10000000
00000000
00000000
00000000
00010000
00000000
00000000
00000000
00000000
00000000
00000000
00000000
00100000
00000000
00000000
00001000
,
00000000
00000000
02000000
00000000
00000000
00000000
00000000
00000000
03000000
00000000
00000000
00000000
00001000
00000000
00000000
00010000
,
00000000
00000200
00000000
00000000
00000300
00000000
00001000
00000000
,
00000001
00000100
00000010
00010000
,
00000010
00001000
00000100
00010000
,
00001000
00000000
00100000
00001000
00010000
00000000
00001000
00000000
,
00010000
00000000
00000010
00010000
00001000
00000000
00010000
00000000
,
00000100
00000010
00000000
00000010
,
00000001
00000000
00000000
00000000
00001000
00000000
00000000
00000000
00000000
00000000
00000000
00000000
00000100
00000000
00000000
00010000
,
00000000
00000000
00000020
00000000
00000000
00000000
00000000
00000000
00000030
00000000
00000000
00000000
00010000
00000000
00000000
00001000
,
00000000
00200000
00000000
00000000
00300000
00000000
00000000
00000000
,
00011000
00000000
01000000
00000000
,
10000000
00000000
00010000
01000000
,
00100000
00000000
00000000
10000000
01000000
00000000
00100000
00000000
,
00001000
00010000
00000100
00010000
,
00001000
00000000
00000010
00000000
,
00000001
00000000
00001000
00000010
,
00000100
00000000
00000000
00000000
00000001
00000000
00000100
00000010
,
00000100
00000000
00000020
00000000
00000000
00000000
00001030
00000001
,
00001000
00000000
00000100
00000000
,
00010000
00000000
00001000
00100000
,
01000000
00000000
00100000
00001000
,
00010000
00000010
00000100
00000001
,
00001000
00000000
00000001
00000010
,
00000100
00010000
00001000
00100000
,
01000000
00000000
00000000
10010000
,
10010000
00000000
00000000
00000000
10000000
00000000
10000000
00010000
,
00000000
00010000
01000000
00000000
01000000
00000000
01000000
00010000
,
00000000
00010000
00100000
00000000
00100000
00000000
00100000
00001000
,
00000000
00001000
00020000
00000000
00000000
00000000
00032000
00000000
,
00000000
00000000
00003000
00000000
00010000
00000000
00010000
00000100
,
00000000
00000100
00001000
00000000
00001000
00000000
00001000
00000010
,
00000000
00000010
00000000
00000100
00000000
00000000
00000000
00000000
,
00000002
00000000
00000013
00000000
,
00000200
00000000
00000320
00000002
,
00000030
00000003
00001001
00000000
,
00000020
00000000
00002030
00000200
,
00003000
00000300
00011000
00000000
,
00002000
00000000
02003000
00020000
,
03000000
00000000
00030000
00000000
00100000
00000000
00100000
00010000
,
00000000
00010000
00000000
10000000
00000000
00100000
00000000
00100000
,
20000000
00000000
31000000
00000000
,
00200000
00000000
02300000
20000000
,
03000000
30000000
10010000
00000000
,
02000000
00000000
03020000
00200000
,
00030000
00300000
00011000
00000000
,
00010000
00000000
00000020
00002000
,
00000030
00003000
00001001
00000000
,
00001000
00000001
00001000
00000000
00000001
00000100
00000001
00000100
,
00000010
00000000
00000000
00001000
,
00000100
00000000
00000000
00000000
00000000
00000000
00000000
00000000
00000000
00000000
00000000
00000000
00010000
00000000
00000000
00000100
,
00000000
00000000
00010000
00000000
00000000
00000000
00000000
00000000
00000000
00000000
00000000
00000000
00001000
00000000
00000000
01000000
,
00000000
00001000
00000000
00000000
00000000
00000000
00000000
00000000
;

//---------------dance-double - ----------------
#NOTES:
     dance-double:
     :
     Hard:
     8:
     0.428,0.471,0.082,0.236,0.186:
00000000
00000000
00000000
00000000
,
00000000
00000000
00000000
00000000
,
00000000
00000000
00000000
00000000
,
00000000
00000000
00000000
00011000
,
01000000
00000000
00000000
00000000
00100000
00000000
00000000
00001000
00000000
00001000
00010000
00000000
00001000
00000000
00000000
00000000
,
00000100
00000000
00000000
00000000
00000010
00000000
00000000
00010000
00000000
00010000
00001000
00000000
00000010
00000000
00000010
00000001
,
00000000
00000001
00000100
00000000
00000000
00000000
00000000
00001000
00000000
00001000
00010000
00000000
01000000
00000000
01000000
10000000
,
00000000
10000000
00100000
00000000
00010000
00000000
00000000
00001000
00000000
00010000
01000000
00000000
00010000
00000000
00000000
00001000
,
00000100
00000000
00000000
00000000
00000010
00000000
00000000
00010000
00000000
00010000
00001000
00000000
00010000
00000000
00000000
00000000
,
00100000
00000000
00000000
00000000
01000000
00000000
00000000
00001000
00000000
00001000
00010000
00000000
00100000
00000000
00100000
10000000
,
00000000
10000000
01000000
00000000
00000000
00000000
00000000
00010000
00000000
00010000
00001000
00000000
00000100
00000000
00000100
00000001
,
00000000
00000001
00000010
00000000
00001000
00000000
00000000
00010000
00000000
00001000
00000100
00000000
00002000
00000000
00000000
00000000
,
00013000
01000000
00100000
00001000
00100000
01000000
00010000
00001000
,
00000100
00000010
00010000
00000010
00001000
00000000
00000102
00000000
,
00000013
00000100
00010000
01000000
00100000
00000000
21000000
00000000
,
30100000
01000000
00001000
00000100
00000010
00000000
00010000
00000000
,
00001100
00000000
00000000
00000000
00000010
00000000
00000000
00001000
00000000
00001000
00010000
00000000
00001000
00000000
00000000
00000000
,
01010000
00000000
00000000
00000000
00100000
00000000
00000000
00010000
00000000
00010000
00001000
00000000
00000010
00000000
00000010
00000100
,
00000000
00000100
00001000
00000000
00000010
00000000
00000000
00010000
00000000
00001000
00010000
00000000
00100000
00000000
00100000
01000000
,
00000000
01000000
00010000
00000000
00100000
00000000
00000000
00000000
00010000
10000000
00000000
00000000
00010000
01000000
00000000
00000000
,
00100000
00000000
01000000
00000000
00010000
00000000
00100000
01000000
,
00000000
01000000
10000000
00000000
01000000
00000000
00100000
00000000
,
00001000
00000000
00000010
00000000
00000100
00000000
00001000
00000010
,
00000000
00000010
00000100
00000000
00000001
00000000
00000010
00000001
,
00000010
00000000
00000100
00000000
00001000
00000000
00000010
00000100
,
00000000
00000100
00000001
00000000
00000100
00000000
00000010
00000000
,
00010000
00000000
00100000
00000000
01000000
00000000
00010000
00100000
,
01000000
00000000
10000000
00000000
00100000
00000000
01000000
00010000
,
00100000
00000000
01000000
00000000
00010000
00000000
00001000
00000010
,
00000000
00000010
00000001
00000000
00001000
00000000
00000001
00000000
,
00000101
00000000
00000001
00000010
00000100
00000000
00000100
00001000
,
00000010
00000100
00001000
00010000
,
11000000
00000000
10000000
00000000
00100000
00000000
01000000
00010000
,
10000000
01000000
00100000
00001000
,
00020000
00000000
00031000
01000000
,
00020000
00000000
00000000
00000000
10030000
00100000
10000000
00100000
,
00000000
00100000
01000000
00000000
01000000
00010000
01000000
00010000
,
00000000
00010000
00100000
00000000
00100000
01000000
00100000
01000000
,
00000000
00100000
00002000
00000000
00000000
00000000
00003200
00000000
,
00000000
00000000
00000300
00000000
00000001
00000010
00000001
00000010
,
00000000
00000010
00000100
00000000
00000100
00001000
00000100
00001000
,
00000000
00000010
00000000
00000100
00000001
00000010
00000001
00000010
,
00000200
00000000
00000000
00001300
00000100
00000000
00000000
00000100
,
00000020
00000000
00000000
00000030
00000002
00000000
00000203
00000000
,
00001000
00000300
00000000
00000100
00000010
00000000
00000000
00000010
,
00020000
00000000
00000000
00030000
00002000
00000000
00203000
00000000
,
01000000
00300000
00000000
00100000
00010000
00000000
00000000
00010000
,
02000000
00000000
00000000
03000000
00002000
00000000
00023000
00000000
,
00100000
00030000
00000000
00000000
10100000
00000000
00010000
00100000
,
00000000
01000000
00000000
00100000
00000000
00010000
00000000
01000000
,
00200000
00000000
00000000
10300000
01000000
00000000
00000000
01000000
,
00200000
00000000
00000000
00300000
00020000
00000000
02030000
00000000
,
10000000
03000000
00000000
01000000
00010000
00000000
00000000
00010000
,
00200000
00000000
00000000
00000000
00301000
00000000
00001000
00010000
,
00002000
00000000
00000000
00003010
00000001
00000000
00000000
00000001
,
00000200
00000000
00000000
00000300
00000020
00000000
00002030
00000000
,
00003001
00000100
00000000
00000010
00000000
00000100
00000000
00000001
,
00001000
00000000
00001001
00000000
00000010
00000001
00000100
00000010
,
00001000
00000000
00000000
00000100
,
00010000
00000000
00000000
00000000
00000000
00000000
00000000
00000000
00000000
00000000
00000000
00000000
00100000
00000000
00100000
10000000
,
00000000
10000000
01000000
00000000
00000000
00000000
00000000
00000000
00000000
00000000
00000000
00000000
00000010
00000000
00000010
00000001
,
00000000
00000001
00000100
00000000
00000000
00000000
00000000
00000000
00000000
00000000
00000000
00000000
00000000
00000000
00000000
00000000
;
