#TITLE:What A Feeling;
#SUBTITLE:;
#ARTIST:DJ BoBo ft. Irene Cara;
#TITLETRANSLIT:;
#SUBTITLETRANSLIT:;
#ARTISTTRANSLIT:;
#GENRE:;
#CREDIT:;
#MENUCOLOR:;
#METERTYPE:DDR;
#BANNER:What A Feeling.png;
#BACKGROUND:What A Feeling-bg.png;
#LYRICSPATH:;
#CDTITLE:ddrencorecdtitle.png;
#MUSIC:What A Feeling.mp3;
#OFFSET:-0.938;
#SAMPLESTART:29.760;
#SAMPLELENGTH:15.460;
#SELECTABLE:YES;
#LISTSORT:;
#BPMS:0.000=65.000,16.000=130.000,80.000=65.000,112.000=130.000,115.000=65.000,116.500=130.000,119.500=65.000,121.000=130.000;
#STOPS:112.000=0.462
,114.500=0.462
,116.500=0.462
,119.000=0.462
;
#BGCHANGES:;
#ATTACKS:;

//---------------dance-single - ----------------
#NOTES:
     dance-single:
     :
     Beginner:
     1:
     0.066,0.117,0.037,0.000,0.000:
0000
0000
0000
0000
,
0000
0000
0000
0000
,
0000
0000
0000
0000
,
0000
0000
0000
0000
,
0010
0000
0000
0000
,
1000
0000
0000
0000
,
0001
0000
0000
0000
,
0100
0000
0000
0000
,
0010
0000
0000
0000
,
0100
0000
0000
0000
,
0001
0000
0000
0000
,
1001
0000
0000
0000
,
0001
0001
0000
0000
,
0000
0000
0000
0000
,
1000
1000
0000
0000
,
0000
0000
0000
0000
,
0001
0000
1000
0000
,
0001
0000
1000
0000
,
0100
0000
0000
0000
,
0010
0000
0000
0000
,
0100
0000
0000
0000
,
1000
0000
0000
0000
,
0010
0000
0000
0000
,
0100
0000
0000
0000
,
0001
0000
0001
0000
,
1000
0000
1000
0000
,
0001
0000
1000
0000
,
0001
0000
1000
0000
,
1001
0000
0000
0000
,
0000
1001
0000
0000
0000
0000
0000
0000
,
0000
0001
0000
0000
,
0000
0010
0000
0000
,
0000
0100
0000
0000
,
0000
1000
0000
0001
,
0000
0100
0000
0000
,
0000
0000
0000
0000
,
0010
0010
0000
0000
,
0000
0000
0000
0000
,
0000
1000
0000
0000
,
0000
0100
0000
0000
,
0000
0010
0000
0000
,
0000
0001
0000
1000
,
0000
1001
0000
0000
;

//---------------dance-single - ----------------
#NOTES:
     dance-single:
     :
     Easy:
     3:
     0.160,0.200,0.074,0.074,0.000:
0000
0000
0000
0000
,
0000
0000
0000
0000
,
1000
0001
0100
0001
,
1000
0000
1001
0000
,
0010
0000
0000
0100
,
0010
0000
1000
0001
,
0010
0000
0000
0100
,
0010
0000
0001
1000
,
0010
0000
0010
0100
,
0001
0000
1000
0000
,
0001
0000
0010
0001
,
2002
0000
0000
3003
,
1000
0000
0010
1000
,
0010
0100
0000
0100
,
0001
0000
0010
0001
,
0010
0100
0000
0100
,
1000
0000
0001
0000
,
1000
0000
0001
0000
,
0100
0000
0000
0000
,
1001
0000
0000
0000
,
0002
0000
0103
0000
,
0200
0000
0301
0000
,
2000
0000
3010
0000
,
0020
0000
1030
0000
,
0001
0100
0010
0010
,
0100
0001
0010
0100
,
1000
0010
0100
0100
,
0010
1000
0001
0010
,
1001
0000
1000
0000
0000
0010
0000
0000
,
0000
0110
0000
0100
0000
0000
0001
0000
,
0000
1000
0000
0100
,
1000
0010
0000
0010
,
0100
0001
0000
1000
,
0000
0001
0100
0010
,
1000
0001
0001
0000
,
0100
0010
0000
0010
,
0000
1000
1000
0000
,
0010
0100
0000
0100
,
0000
1001
0000
0010
,
0000
1000
0000
0100
,
1000
0001
0000
0100
,
0000
1001
0000
0010
,
0000
2002
0000
0000
,
0000
3003
0000
0000
;

//---------------dance-single - ----------------
#NOTES:
     dance-single:
     :
     Medium:
     6:
     0.270,0.260,0.213,0.167,0.009:
0000
0000
0000
0000
,
0000
0000
0000
0000
,
0001
1000
0010
1000
,
0001
0000
0000
0000
2002
0000
0000
3003
,
1000
0000
0010
0000
1000
0000
0100
0010
,
0100
0000
0010
0000
0001
0000
0100
0010
,
0100
0000
0001
0000
1000
0000
0001
1000
,
0001
0000
0010
0000
0100
0000
1000
0010
,
0100
0000
0000
0000
0100
0000
0001
0010
,
0100
0000
0100
1000
,
0001
0000
0100
0010
,
2002
0000
0000
3003
,
1000
0000
1100
0000
0100
1000
0000
0001
,
0000
0100
0001
0000
1000
0000
1000
0000
,
0001
0000
0101
0000
0100
0000
0001
1000
,
0000
0010
1000
0000
0001
0000
0100
0000
,
0210
0000
0000
0001
0300
0000
0010
0000
,
0120
0000
0000
1000
0030
0000
0100
0000
,
0001
1000
0010
0100
,
1001
0000
0000
0110
0000
0000
1001
0000
0000
0000
0000
0000
0010
0000
0000
0000
,
0020
0000
0000
0001
0032
0000
0000
1000
,
2003
0000
0000
0010
3020
0000
0000
1000
,
2030
0000
0000
0100
3200
0000
0000
0010
,
0320
0000
0000
0001
0032
0000
0000
0000
,
1003
0000
0001
0000
0100
0001
1000
0001
,
0100
0000
0010
0000
1000
0010
0100
0010
,
1000
0001
0010
0001
,
0100
0000
0010
0000
1000
0100
0010
0000
,
1001
0000
0100
0100
0000
0010
0000
0000
,
0000
1001
0000
0010
0010
0000
0100
0000
,
0000
0000
2001
0000
0000
0010
3000
0000
,
0001
0000
1002
0000
0000
0100
0003
0000
,
1000
0010
0100
0001
,
0010
0011
0110
0011
,
1001
0000
0110
0000
0010
0000
1000
0100
,
0000
0010
0000
0100
1000
0000
0001
0000
,
1000
0110
0010
0001
,
0100
0010
0000
0100
0001
0000
1000
0000
,
0001
0000
0010
0001
0000
0010
0000
0100
,
1000
0100
0000
1000
0000
0001
1000
0000
,
0010
0100
0000
0010
,
0100
0000
0000
0000
1001
0000
0000
0110
0000
0000
1001
0000
0000
0000
0000
0000
,
0100
2002
0000
0000
,
0000
3003
0000
0000
;

//---------------dance-single - ----------------
#NOTES:
     dance-single:
     :
     Hard:
     8:
     0.382,0.480,0.370,0.148,0.227: // measure 1
0000
0000
0000
0000
,  // measure 2
0000
0000
0000
0000
,  // measure 3
0010
0000
0000
0010
0000
0000
0000
0000
0100
0000
0000
0100
0000
0000
0000
0000
,  // measure 4
0001
0000
1000
0000
2002
0000
0000
3003
,  // measure 5
0010
0000
0000
0001
0000
0000
0100
0000
0000
0000
0010
0000
0000
0000
1000
0000
,  // measure 6
0001
0000
0000
0001
0000
0000
0100
0000
0000
0000
0010
0000
0100
0000
0001
0000
,  // measure 7
1000
0000
0000
0001
0000
0000
0010
0000
0000
0000
0100
0000
0000
0000
1000
0000
,  // measure 8
0001
0000
0000
0001
0000
0000
0100
0000
0010
0000
0000
0000
0011
0000
0001
0000
,  // measure 9
1000
0000
0100
0000
0010
0000
1010
1000
,  // measure 10
0001
0010
0100
0101
,  // measure 11
1100
0000
0000
0010
0000
0000
0001
0000
0000
0000
0100
0000
0010
0000
0000
0000
,  // measure 12
2002
0000
0000
3003
,  // measure 13
1000
0000
0000
0000
0101
0000
0000
0010
0100
0000
0001
0000
1000
0000
0100
0000
,  // measure 14
0010
0100
0100
0000
0001
1000
0010
1000
,  // measure 15
0001
0000
0000
0000
1100
0000
0000
0010
0100
0000
1000
0000
0001
0000
0100
0000
,  // measure 16
0010
0100
0100
0000
1000
0001
0100
1001
,  // measure 17
0000
0001
0010
1000
0000
0010
0001
0100
,  // measure 18
0000
1000
0100
0001
0000
0010
0100
1000
,  // measure 19
0001
0000
1000
0001
0000
0100
0010
0000
,  // measure 20
1100
0000
0000
0110
0000
0000
0011
0000
0000
0000
1001
0000
0000
0000
0010
0000
,  // measure 21
2000
0000
0000
0000
0000
0000
3001
0200
0000
0000
0000
0000
0000
0310
1000
0002
,  // measure 22
0000
0000
0000
0000
0000
0003
0010
0200
0000
0000
0000
0000
0000
1300
0010
2000
,  // measure 23
0000
0000
0000
0000
0000
3001
0100
0002
0000
0000
0000
0000
0000
0103
0010
0200
,  // measure 24
0000
0000
0000
0000
0000
0310
1000
0020
0000
0000
0000
0000
0000
0000
1030
0000
,  // measure 25
0001
0000
0000
0001
0000
0000
0001
0000
0000
0000
1000
0000
0000
0000
0010
0000
1000
0000
0000
1000
0000
0000
1000
0000
0000
0000
0001
0000
0000
0000
1000
0000
,  // measure 26
0100
0000
0000
0100
0000
0000
0100
0000
0000
0000
1000
0000
0000
0000
0001
0000
0010
0000
0000
0010
0000
0000
0010
0000
0000
0000
0001
0000
0000
0000
0100
0000
,  // measure 27
0010
0000
1001
0000
0100
0001
0010
0000
0100
1000
0001
0000
1000
0010
0100
0000
,  // measure 28
0001
0011
1000
1010
2002
0000
0000
3003
,  // measure 29
1001
0000
1100
1100
0000
1001
0100
0001
,  // measure 30
0010
1001
0000
0101
0101
0000
1001
0100
,  // measure 31
1000
0010
0000
0100
0000
0000
0010
0000
0000
0000
0011
0000
0000
0000
0100
0000
,  // measure 32
1000
0010
0000
0100
0000
1100
0000
0010
,  // measure 33
0001
0000
1000
0000
0010
0000
0000
0100
0000
0000
0001
0000
0000
0000
1000
0000
,  // measure 34
0010
0100
0101
0000
1001
0000
1010
0000
,  // measure 35
1001
0000
0000
0000
0110
0000
0000
1000
0010
0000
0100
0000
0000
0000
0001
0000
,  // measure 36
0000
0000
0010
0000
0001
0000
0000
1000
0000
0000
0010
0000
0100
0000
0000
0000
,  // measure 37
0110
0000
0000
0000
1001
0000
0000
0010
0001
0000
0100
0000
0000
0000
0010
0000
,  // measure 38
0000
0000
1000
0000
0100
0000
0000
0010
0000
0000
0001
0000
1000
0000
0010
0000
,  // measure 39
0100
1001
0000
1000
0010
0001
0000
0010
,  // measure 40
1000
0100
0000
0001
0100
1000
0000
0010
,  // measure 41
0100
0001
1000
0000
0001
1000
0000
0010
,  // measure 42
0100
0000
0000
0000
0101
0000
0000
1001
0000
0000
1100
0000
0000
0000
0010
0000
,  // measure 43
1001
0220
0000
0000
,  // measure 44
0000
0330
0000
0000
;

//---------------dance-double - ----------------
#NOTES:
     dance-double:
     :
     Easy:
     2:
     0.118,0.140,0.019,0.074,0.000:
00000000
00000000
00000000
00000000
,
00000000
00000000
00000000
00000000
,
00000000
00000000
00000000
00000000
,
00000000
00000000
00000000
00000000
,
00000001
00000000
00000000
00000010
,
00000001
00000000
00000000
00001000
,
00000010
00000000
00000000
00010000
,
00001000
00000000
00000000
01000000
,
00100000
00000000
00000000
10000000
,
00010000
00000000
00000000
00100000
,
00001000
00000000
00000000
00000000
,
00022000
00000000
00000000
00033000
,
00010000
00000000
00001000
00000000
,
01000000
00000000
00010000
00100000
,
00010000
00000000
01000000
00000000
,
00001000
00000000
00010000
00001000
,
00010000
00000000
00000100
00000000
,
00000010
00000000
00000001
00000000
,
00000100
00000000
00000000
00000000
,
00000001
00000000
00001000
00000000
,
00000002
00000000
00000103
00000000
,
00000020
00000000
00010030
00000000
,
00002000
00000000
01003000
00000000
,
00200000
00000000
10300000
00000000
,
00010000
00000000
00010000
00000000
,
10000000
00000000
10000000
00000000
,
01000000
00000000
00010000
00000000
,
00001000
00000000
00000010
00000000
,
00000001
00000000
00000001
00000000
00000000
00000001
00000000
00000000
,
00000000
00001000
00000000
00001000
00000000
00000000
00001000
00000000
,
00000000
00000010
00000000
00000100
,
00000000
00000001
00000000
00001000
,
00000000
00000100
00000000
00000000
,
00000000
00010000
00010000
00001000
,
00001000
01000000
00000000
00100000
,
10000000
00100000
00000000
01000000
,
00000000
00001000
00000000
00010000
,
00000100
00010000
00000000
00000010
,
00000000
00000100
00000000
00000000
,
00000000
00000001
00000000
00000000
,
00000000
00000010
00000000
00000001
,
00000000
00001000
00000000
00000100
,
00000000
00022000
00000000
00000000
,
00000000
00033000
00000000
00000000
;

//---------------dance-double - ----------------
#NOTES:
     dance-double:
     :
     Medium:
     5:
     0.235,0.240,0.083,0.130,0.009:
00000000
00000000
00000000
00000000
,
00000000
00000000
00000000
00000000
,
10000000
00010000
01000000
00010000
,
00100000
00000000
00000000
00000000
00022000
00000000
00000000
00033000
,
00001000
00000000
00010000
00000000
,
00000010
00000100
00000001
00001000
,
00000010
00000000
00000100
00000000
,
00000010
00000100
00000001
00001000
,
00000010
00000000
00000000
00000000
00010000
00000000
00001000
00010000
,
00001000
00000000
00000000
00000000
00100000
00000000
00010000
10000000
,
00010000
01000000
00001000
00010000
,
00022000
00000000
00000000
00033000
,
00010000
00000000
00000100
00000000
00000010
00000100
00000000
00000010
,
00000000
00000100
00001000
00000000
00000001
00000000
00000100
00000000
,
00000010
00000000
00010000
00000000
00001000
00000000
00010000
00001000
,
00000000
00010000
00001000
00000000
01000000
00000000
00100000
00000000
,
10000000
00000000
10000000
01000000
00000000
01000000
00100000
00000000
,
00010000
00000000
00010000
01000000
00000000
01000000
00100000
00000000
,
10000000
00000000
00010000
00000000
,
01000000
00000000
00000000
01000000
00000000
00000000
01000000
00000000
00000000
00000000
00010000
00000000
00000000
00000000
10000000
00000000
,
02000000
00000000
00000000
00100000
03200000
00000000
00000000
00001000
,
00302000
00000000
00000000
00010000
00023000
00000000
00000000
00000000
,
00032000
00000000
00000000
01000000
02003000
00000000
00000000
00100000
,
03200000
00000000
00000000
10000000
20300000
00000000
00000000
00000000
,
30010000
01000000
00001000
00010000
,
00001000
00100000
01000000
10000000
,
10010000
00100000
00001000
00010000
,
00001100
00001000
00000010
00000100
,
00001001
00000000
00000100
00000100
00000000
00000010
00000000
00000000
,
00000000
00001001
00000000
00000010
00000010
00000000
00000100
00000000
,
00000000
00000000
00000001
00000000
00000001
00000100
00000000
00000100
,
00000010
00000000
00001000
00000000
00001000
00000100
00000000
00000100
,
00000010
00000001
00000000
00001000
,
00000000
00000010
00010000
00001000
,
00100000
00001000
00011000
00001000
,
01000000
00010000
00000000
00010000
01000000
00000000
00001000
00000000
,
00010000
00000010
00011000
00010000
,
00000100
00001000
00000000
00001000
00000100
00000000
00000010
00000001
,
00000000
00000100
00000000
00000010
00000000
00001000
00000000
00000010
,
00000000
00010000
00000000
00001000
00000000
01000000
00010000
00000000
,
10000000
00100000
00000000
01000000
,
00000000
00000000
00000000
00000000
00100000
00000000
00000000
00100000
00000000
00000000
00100000
00000000
00000000
00000000
01000000
00000000
,
00010000
20020000
00000000
00000000
,
00000000
30030000
00000000
00000000
;

//---------------dance-double - ----------------
#NOTES:
     dance-double:
     :
     Hard:
     7:
     0.338,0.440,0.241,0.130,0.111:
00000000
00000000
00000000
00000000
,
00000000
00000000
00000000
00000000
,
00010000
00000000
00100000
00001000
00100000
00000000
00001000
00010000
,
00001000
00000000
00000010
00000000
00002002
00000000
00000000
00003003
,
00000001
00000000
00000100
00000000
00001000
00000000
00010000
00100000
,
10000000
00000000
01000000
00000000
00100000
00000000
00010000
01000000
,
00001000
00000000
00000010
00000000
00000100
00000000
00001000
00000001
,
00000100
00000000
00001000
00000000
00010000
00000000
00001000
00000100
,
00000001
00000000
00000010
00000000
00000100
00000000
00010000
00001000
,
00000010
00000000
00000100
00000000
00010000
00000000
00001000
01000000
,
00100000
00010000
00100000
10000000
,
20020000
00000000
00000000
30030000
,
10000000
00000000
00000000
00000000
01010000
00000000
00000000
00100000
01000000
00000000
00010000
00000000
10000000
00000000
00010000
00000000
,
00000000
00100000
00001000
00000000
00010000
00000000
00000010
00000000
,
00001000
00000000
00000000
00000000
00001100
00000000
00000000
00000010
00000100
00000000
00001000
00000000
00000001
00000000
00001000
00000000
,
00000000
00000010
00010000
00000000
00001000
01000000
00000000
00010000
,
10000000
00000000
00000000
01000000
10000000
00000000
00010000
00000000
00000000
00000000
00100000
00000000
00001000
00000000
01000000
00000000
,
00010000
00000000
00000000
00100000
00010000
00000000
01000000
00000000
00000000
00000000
00001000
00000000
00010000
00000000
00000010
00000000
,
00001000
00000000
00000100
00000010
00000000
00000001
00001000
00000000
,
00000101
00000000
00000000
00001001
00000000
00000000
00001100
00000000
00000000
00000000
00000110
00000000
00000000
00000000
00000001
00000000
,
00000200
00000000
00000000
00000000
00000000
00000000
00000010
00000020
00000300
00000000
00000000
00000000
00000000
00001000
00001000
00002000
,
00000030
00000000
00000000
00000000
00000000
00000000
00000001
00000002
00003000
00000000
00000000
00000000
00000000
00000100
00000100
00000200
,
00000003
00000000
00000000
00000000
00000000
00001000
00001000
00002000
00000300
00000000
00000000
00000000
00000000
00010000
00010000
00020000
,
00003000
00000000
00000000
00000000
00000000
00100000
00100000
00200000
00030000
00000000
00000000
00000000
00000000
00000000
00000000
00000000
,
10300000
01000000
10000000
01000000
00100000
00010000
00100000
00010000
,
00001000
00000100
00001000
00000100
00000010
00000001
00000010
00000001
,
00001001
00000000
00000100
00000000
00001000
00000010
00000100
00000000
00000001
00000010
00000100
00000000
00001000
00000001
00001000
00000000
,
00000010
00000000
00010000
00000000
00001000
00010000
00000100
00000000
00010000
00000000
01000000
00000000
10000000
00000000
00000000
00000000
,
10010000
00000000
01010000
01001000
00000000
00011000
00000000
00000000
,
00000000
00001001
00000000
00001010
00010010
00000000
00011000
00000000
,
00000000
00000000
00000100
00000010
00000000
00000001
00000000
00000100
,
00000010
00001000
00000000
00000001
00000000
00000100
00000001
00000000
,
00000010
00000100
00001000
00000000
00000010
00000000
00010000
00000000
,
00001000
00011000
01001000
00011000
,
00010100
00000000
00000000
00000000
00001000
00000000
00000000
01000000
00000000
00000000
00010000
00000000
00100000
00000000
01000000
00000000
,
00000000
10000000
00000000
00010000
01000000
00010000
00100000
00000000
,
00001000
00000000
00000000
00000000
00010000
00000000
00000000
00000010
00000000
00000000
00000100
00000000
00000001
00000000
00000000
00000000
,
00001000
00000100
00000000
00000010
00000100
00000000
00001000
00000001
,
00000000
00001001
00000000
00000100
00000000
00000010
00000000
00010000
,
00001000
01000000
00000000
00100000
00000000
10000000
00000000
00010000
,
01000000
00000000
00100000
00000000
10000000
01000000
00000000
00100000
,
00010000
00000000
00000000
00000000
01010000
00000000
00000000
01001000
00000000
00000000
00011000
00000000
00000000
00000000
00000100
00000000
,
00001000
00000010
00002002
00000000
00000000
00000000
00000000
00000000
,
00000000
00003003
00000000
00000000
;
