#TITLE:We Could Be The Same;
#SUBTITLE:;
#ARTIST:maNga;
#TITLETRANSLIT:;
#SUBTITLETRANSLIT:;
#ARTISTTRANSLIT:;
#GENRE:;
#CREDIT:;
#MENUCOLOR:;
#METERTYPE:DDR;
#BANNER:We Could Be The Same-bn.png;
#BACKGROUND:We Could Be The Same-bg.png;
#LYRICSPATH:;
#CDTITLE:ddrencorecdtitle.png;
#MUSIC:We Could Be The Same.mp3;
#OFFSET:-7.198;
#SAMPLESTART:36.070;
#SAMPLELENGTH:14.430;
#SELECTABLE:YES;
#LISTSORT:;
#BPMS:0.000=133.000;
#STOPS:;
#BGCHANGES:;
#ATTACKS:;

//---------------dance-single - ----------------
#NOTES:
     dance-single:
     :
     Hard:
     7:
     0.437,0.470,0.227,0.089,0.020: // measure 1
1000
0100
1000
0000
0001
0000
1000
0100
,  // measure 2
0000
0010
0001
0000
1000
0000
0001
1000
,  // measure 3
0000
0001
0100
0001
0100
0000
0010
1000
,  // measure 4
0000
0001
1000
0000
0001
1000
0100
0010
,  // measure 5
0000
0010
0100
0000
0010
0001
1000
0001
,  // measure 6
0000
0001
0010
0000
0001
1000
0100
1000
,  // measure 7
0000
0010
0100
0010
1000
1000
1000
0100
,  // measure 8
0000
0010
0001
1000
0100
0100
0100
1000
,  // measure 9
0001
0000
1000
0001
1000
0000
0010
0000
,  // measure 10
0200
0000
0010
0000
,  // measure 11
0301
0000
1000
0000
0010
1000
0100
1000
,  // measure 12
0002
0000
1000
0100
,  // measure 13
0013
0000
0001
0000
1000
0000
0001
0100
,  // measure 14
0020
0000
0100
0000
,  // measure 15
1030
0000
1000
1000
0100
0010
0001
1000
,  // measure 16
0100
0000
1100
0011
,  // measure 17
1001
0000
1000
0000
0001
0000
1000
0001
,  // measure 18
0100
0000
0001
0000
1000
0001
1000
0100
,  // measure 19
0010
0001
1000
0000
0010
0000
0100
0001
,  // measure 20
1000
0010
0101
0011
,  // measure 21
0110
0000
0010
0000
0001
1000
0001
0000
,  // measure 22
1000
0000
0010
0000
0100
0000
0001
1000
,  // measure 23
0001
1000
0001
0000
0100
0001
0100
0000
,  // measure 24
1010
0110
0101
0011
,  // measure 25
2002
0000
0000
0000
,  // measure 26
0000
0000
3003
0000
,  // measure 27
1000
0100
0010
0001
1000
0010
0100
0001
,  // measure 28
0100
0000
0001
0000
1000
0001
0100
0000
,  // measure 29
0010
0100
0010
1000
0001
1000
0010
0100
,  // measure 30
0001
1000
0100
0010
0001
0001
0001
0000
,  // measure 31
1000
0010
0100
0001
1000
0010
0100
0001
,  // measure 32
2001
0001
0100
0200
,  // measure 33
3300
0000
0000
0000
0000
0000
0000
0000
0000
0000
0000
0000
0001
1000
0001
1000
,  // measure 34
0001
1000
0100
0010
0100
0000
1000
0000
,  // measure 35
1001
0000
0001
0000
1000
0010
0100
0010
,  // measure 36
2000
0010
0002
3003
,  // measure 37
0001
1000
0100
1000
0100
0000
1100
0000
,  // measure 38
0011
0000
0010
0001
0100
0000
0010
1000
,  // measure 39
0001
0100
0001
0000
0010
0100
0010
0000
,  // measure 40
0001
0010
0100
1000
0010
0100
0001
1000
,  // measure 41
0001
0100
0010
0100
0001
0100
0001
0100
,  // measure 42
0010
0010
1000
1000
0001
0001
1000
1000
,  // measure 43
1001
0000
0001
0100
0001
1000
0100
1000
,  // measure 44
0010
0000
0100
0001
0100
0000
0001
0000
,  // measure 45
1001
0000
1000
0100
0010
0100
1000
0010
,  // measure 46
0100
0000
0010
0100
0001
0000
0011
0000
,  // measure 47
1001
0000
1000
0100
0001
0100
1000
0010
,  // measure 48
0100
0000
0010
1000
0001
0100
0001
0000
,  // measure 49
1001
0000
1000
0100
0010
0100
1000
0001
,  // measure 50
0011
0000
0000
0000
1100
0000
0000
0000
1001
0000
0000
0000
0001
1000
0001
1000
,  // measure 51
0001
0000
0000
0000
;

//---------------dance-single - ----------------
#NOTES:
     dance-single:
     :
     Medium:
     6:
     0.363,0.396,0.227,0.079,0.000:
1002
0000
0010
0000
,
0100
0000
1000
0103
,
1000
0001
0000
0001
1000
0000
0100
0000
,
0010
0001
0000
0001
1000
0000
1000
0001
,
0100
0000
0000
0100
0010
0000
1000
0000
,
0100
0000
0000
0010
0001
0000
1000
0000
,
0010
0000
0000
0100
0001
0000
1000
0000
,
0001
0000
1000
0000
0001
1000
0001
0000
,
1000
0001
0000
1000
0001
0000
1000
0000
,
0010
0100
0001
1000
,
0001
1000
0001
0000
1000
0010
1000
0000
,
0001
1000
0100
0010
,
0100
0010
0100
0000
1000
0001
1000
0000
,
0001
0100
0010
1000
,
0001
1000
0001
0000
1000
0000
0001
0010
,
0002
0000
0010
1003
,
1001
0001
0100
0010
,
1000
0001
0000
0001
1000
0000
0001
0000
,
0100
0010
0100
0000
0010
0000
1000
0000
,
1100
0011
1001
0000
,
1000
0000
0001
1000
0001
0000
0010
0000
,
0100
1000
0100
0000
0010
0000
0001
1000
,
0001
1000
0001
0000
0100
0001
0100
0000
,
1010
0101
0011
1100
,
2002
0000
0000
0000
,
0000
0000
3003
0000
,
1000
0000
0001
0000
1000
0001
1000
0000
,
0001
0000
0100
0000
0010
0100
0010
0000
,
0100
0000
0001
0000
1000
0100
0010
0000
,
0001
0000
1000
0000
0001
0100
0001
0000
,
1000
0001
1000
0001
1000
0001
1000
0000
,
2002
0000
0000
0000
,
3003
0000
0000
0000
,
1000
0100
0010
0001
0010
0000
0001
0000
,
1000
0010
1000
0000
0001
0000
1000
0000
,
1100
0011
2002
3003
,
1000
0010
0000
1000
0010
0000
0100
0000
,
0001
0100
0001
1000
0001
0000
1000
0000
,
0100
0010
0100
0000
0010
0001
0010
0000
,
0001
1000
0010
0100
,
0001
1000
0001
0010
,
0011
1100
1010
0101
,
1001
0000
0001
0100
0001
0000
1000
0010
,
1000
0000
0001
0010
0001
0000
1000
0000
,
0001
0000
1000
0010
1000
0000
0010
0100
,
0010
0000
0100
0001
0100
0000
0001
0000
,
1001
0000
1000
0010
1000
0000
0001
0010
,
0001
0000
0100
0010
0100
0000
0010
0000
,
1010
0000
1000
0001
1000
0000
0001
0000
,
0011
0000
1001
0000
1000
0010
1000
0001
,
0100
0000
0000
0000
;

//---------------dance-single - ----------------
#NOTES:
     dance-single:
     :
     Beginner:
     1:
     0.116,0.148,0.079,0.000,0.000:
1001
0000
0000
0000
,
0000
0000
0000
0000
,
1000
0000
0000
0000
,
0001
0000
0000
0000
,
0100
0000
0000
0000
,
0010
0000
0000
0000
,
1000
0000
0000
0000
,
0100
0000
0100
0000
,
0010
0000
1000
0000
,
0001
0000
0000
0000
,
0100
0000
0010
0000
,
1000
0000
0000
0000
,
0001
0000
1000
0000
,
0010
0000
0000
0000
,
1000
0000
0001
0000
,
0100
0000
0010
0000
,
0110
0000
0000
0000
,
0100
0000
0001
0000
,
1000
0000
0001
0000
,
1000
0000
0001
0000
,
1001
0000
0000
0000
,
0100
0000
0010
0000
,
0100
0000
0000
0000
,
0001
0000
1000
0000
,
1001
0000
0000
0000
,
0000
0000
0000
0000
,
1000
0000
0100
0000
,
0010
0000
0001
0000
,
1000
0000
0010
0000
,
0100
0000
0001
0000
,
1000
0000
0001
0000
,
1001
0000
0000
0000
,
0000
0000
0000
0000
,
1001
0000
1000
0000
,
0010
0000
0000
0000
,
0100
0000
0001
0000
,
0100
0000
0000
0000
,
0001
0000
1000
0000
,
0001
0000
0000
0000
,
1000
0000
0100
0000
,
0010
0000
0001
0000
,
1000
0000
0001
0000
,
1001
0000
0000
0000
,
1000
0000
0010
0000
,
1000
0000
0000
0000
,
0001
0000
0100
0000
,
0001
0000
0000
0000
,
1000
0000
0001
0000
,
1000
0000
0000
0000
,
0010
0000
0100
0000
,
0110
0000
0000
0000
;

//---------------dance-single - ----------------
#NOTES:
     dance-single:
     :
     Easy:
     4:
     0.235,0.247,0.069,0.079,0.000:
1001
0000
0000
0000
,
0000
0000
0000
0000
,
1000
0001
1000
0000
,
0100
0000
0010
0000
,
0001
0100
0010
0000
,
1000
0010
0100
0000
,
0010
1000
0001
0000
,
0001
1000
0010
1000
,
1001
0000
0001
0100
,
0002
0000
1003
0000
,
1000
0000
0100
0010
,
0200
0000
1300
0001
,
1000
0001
1000
0100
,
2000
0000
3001
0000
,
0001
1000
0100
0010
,
0002
0000
1003
0000
,
1000
0100
0010
0001
,
0100
0010
0100
0000
,
0010
1000
0010
0000
,
0100
0001
0100
0000
,
0001
1000
0100
0010
,
0001
1000
0100
0000
,
1000
0001
1000
0000
,
0010
0100
0010
1000
,
2002
0000
0000
0000
,
0000
0000
3003
0000
,
1000
0001
1000
0001
,
0100
0001
0010
0000
,
0001
1000
0001
1000
,
0100
0010
0100
1000
,
0001
1000
0001
1000
,
2002
0000
0000
0000
,
3003
0000
0000
0000
,
1001
0001
0100
0010
,
1000
0001
0000
1000
,
0001
1000
0100
0010
,
0001
0000
0010
0001
,
0100
0010
1000
0001
,
0100
0100
0000
0000
,
0010
1000
0001
1000
,
0100
0010
0100
0010
,
0001
1000
0010
0100
,
0110
0000
0010
1000
,
0100
1000
0100
0010
,
0001
0000
1000
0001
,
1000
0010
0100
0001
,
0100
0000
0010
1000
,
0100
0010
0001
0010
,
0001
0000
1000
0001
,
1000
0100
0010
0001
,
1001
0000
0000
0000
;

//---------------dance-double - ----------------
#NOTES:
     dance-double:
     :
     Hard:
     7:
     0.455,0.445,0.218,0.109,0.020:
00010000
00000000
01000000
00000000
00010000
00000000
10000000
01000000
,
00000000
00000000
00100000
00000000
00010000
00000000
00100000
00001000
,
00000000
00001000
00010000
00000000
00000100
00000000
00000010
00000001
,
00000000
00001000
00000010
00001000
00000100
00000000
00000100
00010000
,
00000000
00001000
01000000
00000000
00100000
10000000
01000000
01000000
,
00000000
00100000
00010000
00000000
00100000
00001000
00010000
00010000
,
00000000
00001000
00010000
00000000
00010000
00000100
00000010
00000010
,
00000000
00000100
00000010
00000001
00001000
00001000
00000001
00000100
,
00000002
00000000
00000000
00000100
00000100
00000000
00000010
00000000
,
00001003
00000000
00000010
00001000
00000010
00000000
00001000
00000000
,
00000200
00000000
00000000
00010000
00010000
00000000
00001000
00000000
,
00010300
00000000
00000100
00010000
00001000
00000000
01000000
00000000
,
00100000
10000000
00100000
10000000
01000000
00100000
00010000
00100000
,
00020000
00000000
00000000
01000000
02000000
00000000
03030000
00000000
,
01000000
00010000
01000000
00010000
00100000
00001000
00100000
00001000
,
00011000
00000000
00000000
00000000
00010000
00000100
00010000
00000100
,
00001100
00000000
00000000
00001000
00000001
00000000
00000100
00000000
,
00000010
00001000
00000100
00001000
00000010
00000000
00001000
00000100
,
00010000
00001000
00010000
00000000
00001000
01000000
00001000
00000000
,
10100000
00000000
01010000
00000000
10010000
00000000
10000000
01000000
,
10000000
00000000
00000000
10000000
00100000
00000000
01000000
00000000
,
00010000
00100000
00010000
00100000
00000000
00001000
00010000
00001000
,
00010000
00000100
00000010
00000000
00000010
00000100
00010000
00000000
,
00011000
00010100
00000110
00000011
,
00002002
00000000
00000000
00003000
,
00000200
00000000
00000000
00000303
,
00000001
00001000
00000010
00001000
00000100
00001000
00000100
00000000
,
00010000
00001000
01000000
00100000
10000000
10000000
10000000
00000000
,
00010000
10000000
01000000
00100000
00010000
00100000
00001000
00010000
,
00001000
00010000
00000100
00000010
00000001
00000100
00000010
00001000
,
00000001
00001000
00000001
00001000
00000010
00000100
00000010
00000100
,
00000201
00000010
00001000
00000020
,
00000330
00000000
00000000
00000000
00000000
00000000
00000000
00000000
00000000
00000000
00000000
00000000
00000001
00001000
00000001
00001000
,
00000001
00001000
00000010
00001000
00000100
00000000
00010000
00000100
,
00010000
00001000
00010000
00000000
00001000
01000000
00001000
00000000
,
01010000
10100000
20020000
30030000
,
10000000
01000000
00100000
00010000
00100000
00000000
00010000
00000000
,
01000000
00010000
00000000
00010000
01000000
00001000
00010000
00010000
,
00001000
00010000
00001000
00000000
00010000
00000100
00010000
00000000
,
00001000
00010000
00000100
00010000
00001000
00100000
00001000
00010000
,
00001000
00100000
00010000
00100000
00010000
01000000
00010000
10000000
,
00010000
00010000
10000000
10000000
01000000
01000000
00100000
00100000
,
00110000
00000000
00100000
00001000
00010000
00001000
00010000
00000100
,
00001000
00000000
00000001
00000010
00000001
00001000
00000010
00000000
,
00000110
00000000
00000010
00001000
00000100
00001000
00000100
00010000
,
00001000
00000000
00001000
01000000
00010000
00000000
01010000
00000000
,
10100000
00000000
10000000
01000000
00100000
01000000
10000000
00100000
,
01000000
00000000
00010000
00100000
00010000
00000000
00110000
00000000
,
00101000
00000000
00010000
00001000
00010000
00000100
00001000
00000100
,
00000010
00000000
00000000
00000000
00000110
00000000
00000000
00000000
00001001
00000000
00000000
00000000
00000001
00001000
00000001
00001000
,
00000001
00000000
00000000
00000000
;

//---------------dance-double - ----------------
#NOTES:
     dance-double:
     :
     Medium:
     6:
     0.360,0.396,0.198,0.040,0.000:
00011000
00000000
00001000
00100000
,
00001000
00100000
00010000
01000000
,
00010000
00000000
00000000
00000000
10000000
00000000
00100000
10000000
,
00000000
10000000
00010000
00000000
10000000
00000000
00010000
10000000
,
00000000
10000000
01000000
00000000
00100000
00000000
00010000
01000000
,
00000000
01000000
00010000
00000000
10000000
00000000
01000000
00100000
,
00000000
00100000
00010000
00000000
00100000
00000000
00001000
00010000
,
00000000
00010000
00000100
00000000
00001000
00000100
00001000
00000001
,
00000100
00000000
00000000
00000100
00000001
00000000
00001000
00000000
,
00000010
00001000
00001100
00000000
,
00000100
00010000
00000000
00010000
00001000
00000000
01000000
00010000
,
01000000
00000000
00000000
00100000
10000000
00000000
00010000
00000000
,
10010000
00000000
00000000
10000000
01000000
00000000
00100000
00010000
,
00100000
00001000
00000000
00100000
00001000
00000000
00000000
00000000
,
00010000
00000100
00010000
00000000
00000100
00001000
00000100
00000000
,
00001000
00000000
00000001
00000000
00000100
00000001
00000100
00000001
,
00001000
00000000
00000000
00000000
00000001
00000000
00000100
00000001
,
00000100
00000000
00000010
00001000
00000010
00000000
00001000
00000000
,
00000100
00010000
00000100
00000000
00010000
00000000
00001000
01000000
,
00001000
01000000
00100000
10000000
,
10010000
00000000
00000000
10000000
01000000
00000000
00100000
00000000
,
00010000
00100000
00010000
00100000
00001000
00000000
00010000
00000000
,
00000100
00001000
00000100
00000000
00000010
00000001
00000010
00000000
,
00000011
00001100
00001010
00000101
,
00002002
00000000
00000000
00000000
,
00000000
00000000
00000000
00003003
,
00000010
00001000
00000100
00000000
00000010
00000001
00000100
00000000
,
00000010
00000000
00001000
00000000
00000100
00010000
00000100
00000000
,
00010000
00001000
01000000
00000000
00010000
10000000
01000000
00000000
,
00100000
00000000
00010000
00000000
10000000
01000000
00100000
00010000
,
00100000
00001000
00010000
00000100
,
00000220
00000000
00000000
00000000
,
00000330
00000000
00000000
00000000
,
00000100
00000001
00000100
00000001
00000100
00000000
00000010
00000000
,
00001000
00000100
00001000
00000000
00000100
00010000
00000100
00000000
,
00010000
00001000
01000000
00010000
,
01010000
00000000
00000000
00100000
10000000
00000000
01000000
00000000
,
00100000
00010000
00100000
00010000
00100000
00000000
00010000
00000000
,
00100000
00001000
00100000
00000000
00010000
00000100
00010000
00000000
,
00001000
00000010
00000100
00000010
,
00001000
00000100
00010000
00001000
,
00101000
00110000
01100000
10010000
,
01100000
00000000
00100000
10000000
01000000
00000000
00100000
00010000
,
00100000
00000000
01000000
10000000
01000000
10000000
00010000
00000000
,
01010000
00000000
00100000
00010000
01000000
00000000
00100000
10000000
,
01000000
00100000
00001000
00010000
,
00011000
00000000
00010000
00000100
00001000
00000000
00000100
00000010
,
00000001
00000000
00000001
00000000
00001000
00000001
00000100
00000000
,
00000110
00000000
00000010
00001000
00000100
00000000
00010000
00001000
,
00010000
00001000
00010000
00000100
,
00010100
00000000
00000000
00000000
;

//---------------dance-double - ----------------
#NOTES:
     dance-double:
     :
     Easy:
     4:
     0.218,0.247,0.079,0.040,0.000:
01100000
00000000
00000000
00000000
,
00000000
00000000
00000000
00000000
,
00100000
00000000
10000000
00000000
,
01000000
00000000
00100000
00010000
,
00100000
00000000
00001000
00000000
,
00010000
00000000
00000100
00000010
,
00000100
00000000
00000010
00000000
,
00000001
00000000
00001000
00000001
,
00001000
00000000
00000010
00001000
,
00000100
00000000
00001000
00000000
,
00000100
00000000
00010000
00000100
,
00010000
00000000
00001000
00000000
,
00010000
00000000
00001000
01000000
,
00010000
00000000
10000000
00000000
,
00100000
00000000
10000000
00010000
,
01000000
00000000
00000000
00000000
,
01100000
00000000
00100000
10000000
,
01000000
10000000
00010000
00000000
,
00100000
00010000
00100000
00000000
,
00001000
00010000
00001000
00000000
,
00010000
00000100
00001000
00000100
,
00000010
00000001
00000100
00000000
,
00000010
00001000
00000010
00000000
,
00000100
00000001
00001000
00000001
,
00002002
00000000
00000000
00000000
,
00003003
00000000
00000000
00000000
,
00001000
00000010
00001000
00000100
,
00010000
00000000
00000100
00000000
,
00010000
00001000
01000000
00001000
,
01000000
00010000
10000000
00010000
,
01000000
01000000
00010000
00010000
,
20020000
00000000
00000000
00000000
,
30030000
00000000
00000000
00000000
,
10010000
00000000
10000000
01000000
,
00100000
01000000
00100000
00010000
,
01000000
00010000
01000000
00000000
,
00010000
00100000
00001000
00010000
,
00001000
00010000
00000100
00000000
,
00010000
00001000
01000000
00000000
,
00010000
00010000
00100000
00100000
,
01000000
01000000
10000000
10000000
,
00010000
00010000
10000000
00010000
,
10010000
00000000
10000000
00010000
,
01000000
00010000
00100000
00001000
,
00011000
00000000
00010000
00000100
,
00001000
00000100
00000010
00000100
,
00000010
00000001
00000010
00000000
,
00001000
00000001
00001000
00000010
,
00000100
00000000
00000010
00001000
,
00000100
00001000
00000100
00010000
,
00011000
00000000
00000000
00000000
;
