#TITLE:Walking On Sunshine;
#SUBTITLE:;
#ARTIST:Flip & Fill;
#TITLETRANSLIT:;
#SUBTITLETRANSLIT:;
#ARTISTTRANSLIT:;
#GENRE:;
#CREDIT:;
#MENUCOLOR:;
#METERTYPE:DDR;
#BANNER:Walking On Sunshine-bn.png;
#BACKGROUND:Walking On Sunshine-bg.png;
#LYRICSPATH:;
#CDTITLE:ddrencorecdtitle.png;
#MUSIC:Walkin on Sunshine.mp3;
#OFFSET:-0.662;
#SAMPLESTART:27.956;
#SAMPLELENGTH:12.562;
#SELECTABLE:YES;
#LISTSORT:;
#BPMS:0.000=138.542;
#STOPS:;
#BGCHANGES:;
#ATTACKS:;

//---------------dance-single - ----------------
#NOTES:
     dance-single:
     :
     Easy:
     3:
     0.234,0.252,0.027,0.196,0.000:
0000
0000
0000
0000
,
0000
0000
0000
0000
,
0000
0000
0000
0000
,
0000
0000
0000
0000
,
1000
0000
0000
0000
,
0010
0000
0100
0000
,
0010
0000
0000
0000
,
2002
0000
0000
3003
,
0001
0100
0001
0010
,
0100
0000
0010
0000
,
0001
1000
0001
0100
,
0010
0000
0100
0000
,
0010
1000
0001
0100
,
0001
0000
1000
0000
,
0100
0010
0001
1000
,
0001
0000
0100
0000
,
0010
0010
0100
0100
,
0001
0000
1000
0100
,
2000
0000
3002
0000
,
1003
0001
0100
0000
,
0100
0100
0010
0010
,
1000
0000
0001
0010
,
0002
0000
2003
0000
,
3010
0100
0010
1000
,
0001
0001
0010
0010
,
0100
0000
0010
0001
,
0020
0000
0230
0000
,
1300
0001
1000
0010
,
0100
0000
0001
0000
,
1000
0010
0100
0001
,
1000
0000
0001
0000
,
1000
0001
1000
0010
,
0200
0000
0310
0000
,
0020
0000
1030
0001
,
0020
0000
0031
0000
,
0200
0000
0310
1000
,
0002
0000
0013
0100
,
2000
0000
3010
0100
,
0020
0000
0230
0000
,
0301
1000
0001
1000
,
0100
0000
0100
0000
,
0100
0000
1000
0001
,
0200
0000
0320
0000
,
0130
0001
1000
0100
,
0010
0000
0010
0000
,
0010
0000
0001
1000
,
0200
0000
2300
0000
,
3001
0000
0010
0000
,
0001
0000
1000
0000
,
0010
1000
0001
1000
,
0001
0000
0010
0000
,
0100
1000
0001
1000
,
0001
0000
0100
0000
,
0001
0010
0100
0010
,
0100
0000
1000
0000
,
2002
0000
0000
3003
,
0001
0000
1000
0000
,
0010
0000
0100
0001
,
0010
0000
0001
0000
,
1000
0000
0010
0100
,
0010
0000
1000
0000
,
0001
0000
0010
0001
,
1000
0000
0000
0000
,
1001
0000
0000
0000
;

//---------------dance-single - ----------------
#NOTES:
     dance-single:
     :
     Medium:
     5:
     0.338,0.365,0.205,0.169,0.000: // measure 1
0000
0000
0000
0000
,  // measure 2
0000
0000
0000
0000
,  // measure 3
0000
0000
0000
0000
,  // measure 4
0000
0000
0000
0000
,  // measure 5
1000
0001
0000
0000
0100
0000
0000
0000
,  // measure 6
0001
1000
0001
1000
0000
0000
0000
0000
,  // measure 7
0010
0100
0000
0000
0010
0000
0100
0000
,  // measure 8
2002
0000
0000
3003
,  // measure 9
0010
1000
0001
0010
,  // measure 10
0001
0000
1000
0000
0001
1000
0100
0000
,  // measure 11
1000
0001
0010
0001
,  // measure 12
0100
0000
0010
0000
1000
0001
0010
0000
,  // measure 13
0001
0100
0010
1000
,  // measure 14
0001
0000
0010
0000
0001
0100
0010
0000
,  // measure 15
0100
0010
1000
0001
,  // measure 16
2002
0000
0000
3003
,  // measure 17
1010
0011
1010
0011
,  // measure 18
1000
0000
0000
0000
0100
0010
0100
0000
,  // measure 19
0020
0000
0000
0032
0000
0000
0003
0000
,  // measure 20
0000
1001
0000
1001
0000
0000
0010
0000
,  // measure 21
0001
0000
1000
0000
0001
0100
0000
0000
,  // measure 22
0100
0000
0010
0000
1000
0001
1000
0000
,  // measure 23
0002
0000
0000
0203
0000
0000
0300
0000
,  // measure 24
0010
0010
0100
0100
,  // measure 25
0010
1000
0010
0000
1000
0001
0000
0000
,  // measure 26
0100
0000
0010
0000
1000
0001
1000
0000
,  // measure 27
0020
0000
0000
2030
0000
0000
3000
0000
,  // measure 28
0001
1000
0010
0100
,  // measure 29
1001
0000
0000
0100
0010
0000
0000
0000
,  // measure 30
0001
0000
1000
0100
1000
0000
0001
0000
,  // measure 31
1001
0000
0000
0010
0100
0000
0000
0000
,  // measure 32
0001
1000
0010
0100
,  // measure 33
0100
0000
0010
0000
1000
0001
1000
0001
,  // measure 34
0100
0000
0100
0000
0010
1000
0010
0000
,  // measure 35
1000
0000
0001
0000
0010
0001
0010
0001
,  // measure 36
0100
0000
0100
0000
0010
1000
0010
0000
,  // measure 37
1001
1000
0010
0100
,  // measure 38
1001
0001
0010
0100
,  // measure 39
1100
0000
0011
0000
,  // measure 40
1100
1010
1001
0101
,  // measure 41
0001
0100
0001
0000
1000
0100
1000
0000
,  // measure 42
0001
0000
0010
0000
0001
1000
0001
0000
,  // measure 43
0200
0000
0000
0320
0000
0000
0030
0000
,  // measure 44
1000
0001
0100
0010
,  // measure 45
1000
0100
1000
0000
0001
0100
0001
0000
,  // measure 46
1000
0000
0010
0000
0100
0010
0100
0000
,  // measure 47
0020
0000
0000
0230
0000
0000
0300
0000
,  // measure 48
0010
1000
0001
0010
,  // measure 49
1001
0000
0000
0010
0100
0000
0000
0000
,  // measure 50
0010
1000
0001
0010
,  // measure 51
1100
0000
0000
0001
1000
0000
0000
0000
,  // measure 52
0010
0100
0001
1000
,  // measure 53
0101
0000
0000
0010
0100
0000
0000
0000
,  // measure 54
0010
1000
0001
1000
,  // measure 55
0110
0000
0000
1000
0001
0000
0000
0000
,  // measure 56
2002
0000
0000
3003
,  // measure 57
1000
0001
0000
0000
0200
0000
0000
0010
,  // measure 58
0010
0310
0000
0000
1000
0000
0000
0000
,  // measure 59
0001
1000
0000
0000
0020
0000
0000
0100
,  // measure 60
0100
0130
0000
0000
1000
0000
0000
0000
,  // measure 61
0001
0010
0000
0000
0200
0000
0000
1000
,  // measure 62
1000
1300
0000
0000
0001
0000
0000
0000
,  // measure 63
0100
0010
0000
0000
0000
0000
0000
1000
,  // measure 64
0001
0100
0000
0000
0000
0000
0000
0000
;

//---------------dance-single - ----------------
#NOTES:
     dance-single:
     :
     Hard:
     7:
     0.456,0.449,0.178,0.214,0.120:
0000
0000
0000
0000
,
0000
0000
0000
0000
,
0000
0000
0000
0000
,
0000
0000
0000
0000
,
0001
1000
0000
0000
0010
0000
0100
0010
,
0100
0001
1000
0100
0000
0000
1000
0000
,
0010
0100
0000
0000
0001
0000
1000
0001
,
0200
0001
0001
0001
0300
0000
1001
0000
,
1000
0000
0010
0000
0100
0000
0001
0000
1000
0000
0000
0100
0000
0000
1000
0000
,
0000
0101
0000
0010
0000
1000
0000
0001
,
0010
0000
0000
0001
0000
0000
0100
0000
0000
0010
0000
0000
1000
0000
0000
0100
,
0000
1000
0000
0010
0100
0000
1001
0000
,
1000
0000
0001
0000
0100
0000
0010
0000
1000
0000
0000
0001
0000
0000
0010
0000
,
0000
1001
0000
0010
0000
0100
0000
0010
,
0001
0000
1000
0000
0010
0000
0100
0000
0001
0000
0000
1000
0000
0000
0010
0000
,
0200
0010
0310
1001
,
0011
1010
0011
1010
,
0001
0000
0110
0000
0001
1000
0010
0100
,
0002
0000
0100
0203
0000
0000
0310
0000
,
1000
0101
0000
0110
0000
0010
1000
0000
,
0001
1000
0100
1000
0010
0100
0000
0001
,
0000
1000
0100
0000
0010
0001
0100
0000
,
0020
0000
1000
2030
0000
0000
3001
0000
,
1000
1000
0010
0110
,
0100
0010
1000
0001
0010
0100
0000
0010
,
0000
0001
1000
0000
0010
0100
0001
0000
,
2000
0000
0001
3002
0000
0000
0103
0000
,
0010
0100
0000
0000
0010
0000
1000
0001
,
0100
0000
0010
0100
0001
0000
1000
0000
,
1001
0000
0000
0000
0010
0000
0100
0001
0000
0100
0001
0100
0001
0000
1000
0000
,
0010
0000
1000
0001
0010
0000
0100
0000
,
0010
0010
0100
0101
,
2000
0000
0000
0000
0010
0000
0000
0010
0000
0000
3010
0000
0100
0000
0000
0000
,
0002
0000
0000
0000
1000
0000
0000
1000
0000
0000
1003
0000
0010
0000
0000
0000
,
0200
0000
0000
0000
0001
0000
0000
0001
0000
0000
0301
0000
1000
0000
0000
0000
,
0020
0000
0000
0000
0100
0000
0000
0100
0000
0000
0130
0000
0010
0000
0000
0000
,
2000
0000
0000
0000
0100
0000
0000
0100
0000
0000
3100
0000
1000
0000
0001
0000
,
0020
0000
0000
0000
0100
0000
0000
0100
0000
0000
0130
0000
1000
0000
0001
0000
,
0200
0000
0000
0000
0001
0000
0000
0001
0000
0000
0301
0000
1000
0000
0100
0000
,
0010
0010
0100
1100
,
1000
0001
0100
1000
0100
0010
1000
0001
,
1000
0100
0010
0000
0001
1000
0010
0000
,
0200
0000
0010
0320
0000
0000
1030
0000
,
0002
0000
0000
0000
1000
0000
0000
1000
0000
0000
1003
0000
0001
0000
0000
0000
,
0100
0001
0010
1000
0010
0100
1000
0010
,
0100
0001
0010
0000
0100
1000
0001
0000
,
0200
0000
0010
0320
0000
0000
1030
0000
,
0002
0000
0000
0000
0010
0000
0000
0010
0000
0000
0013
0000
0001
0000
0000
0000
,
0100
0000
0001
1000
0100
0000
1000
0000
,
0001
0000
0000
0000
0100
0000
0010
1000
0000
0010
1000
0010
1000
0000
0100
0000
,
0010
0000
0001
1000
0010
0000
0100
0000
,
0001
0000
0000
0000
0010
0000
0100
1000
0000
0100
1000
0100
1000
0000
0010
0000
,
0100
0000
0010
1000
0001
0000
0010
0000
,
0100
0000
0000
0000
0010
0000
0001
1000
0000
0001
1000
0001
1000
0000
0010
0000
,
0100
0000
0001
1000
0100
0000
0010
0000
,
2002
0000
0000
3003
,
1000
0010
0000
0000
0100
0000
0010
1000
,
0001
0100
0000
0000
0010
0000
1001
0000
,
0100
0010
0000
0000
0001
0000
1000
0010
,
0100
0001
0000
0000
0010
0000
1100
0000
,
0010
0001
0000
0000
0100
0000
0010
1000
,
0001
0100
0000
0000
0010
0000
1001
0000
,
0010
0100
0000
0000
0000
0020
0000
1030
,
0001
0100
0000
0000
0000
0000
0000
0000
;

//---------------dance-single - ----------------
#NOTES:
     dance-single:
     :
     Beginner:
     1:
     0.097,0.138,0.036,0.000,0.000:
0000
0000
0000
0000
,
0000
0000
0000
0000
,
0000
0000
0000
0000
,
0000
0000
0000
0000
,
1000
0000
0000
0000
,
0100
0000
1000
0000
,
0001
0000
0000
0000
,
1001
0000
0000
0000
,
0010
0000
0000
0000
,
0100
0000
0000
0000
,
0001
0000
0000
0000
,
1000
0000
0000
0000
,
0100
0000
0000
0000
,
1000
0000
0000
0000
,
0001
0000
0000
0000
,
0100
0000
0000
0000
,
0001
0000
0100
0000
,
0010
0000
1000
0000
,
0001
0000
0000
0000
,
1000
0000
0000
0000
,
0100
0000
1000
0000
,
0100
0000
0010
0000
,
0001
0000
0000
0000
,
0100
0000
0000
0000
,
0010
0000
0100
0000
,
0010
0000
1000
0000
,
0001
0000
0000
0000
,
0010
0000
0000
0000
,
0001
0000
1000
0000
,
0000
0000
0000
0000
,
0100
0000
0010
0000
,
0100
0000
0000
0000
,
1001
0000
0000
0000
,
0010
0000
0000
0000
,
0100
0000
0000
0000
,
0010
0000
0000
0000
,
1001
0000
0000
0000
,
0010
0000
0000
0000
,
1001
0000
0000
0000
,
0100
0000
0000
0000
,
0010
0000
1000
0000
,
0010
0000
1000
0000
,
0001
0000
0000
0000
,
0010
0000
0000
0000
,
0001
0000
1000
0000
,
0001
0000
0100
0000
,
0010
0000
0000
0000
,
1000
0000
0000
0000
,
0001
0000
0100
0000
,
0000
0000
0000
0000
,
0010
0000
1000
0000
,
0000
0000
0000
0000
,
0100
0000
0010
0000
,
0000
0000
0000
0000
,
0100
0000
0001
0000
,
1000
0000
0000
0000
,
0010
0000
0000
0000
,
0100
0000
0000
0000
,
0010
0000
0000
0000
,
1000
0000
0000
0000
,
0001
0000
0000
0000
,
0010
0000
0000
0000
,
0001
0000
0000
0000
;

//---------------dance-double - ----------------
#NOTES:
     dance-double:
     :
     Easy:
     2:
     0.146,0.224,0.000,0.071,0.000:
00000000
00000000
00000000
00000000
,
00000000
00000000
00000000
00000000
,
00000000
00000000
00000000
00000000
,
00000000
00000000
00000000
00000000
,
01000000
00000000
00000000
00010000
,
00100000
00000000
00001000
00000000
,
00010000
00000000
00000000
00001000
,
00100000
00000000
00000000
00010000
,
01000000
00000000
00000000
00000000
,
00100000
00000000
00000000
00000000
,
01000000
00000000
00000000
00000000
,
00001000
00000000
00000000
00000000
,
00010000
00000000
00000000
00000000
,
00001000
00000000
00000000
00000000
,
00100000
00000000
00000000
00000000
,
00010000
00000000
00000000
00000000
,
01000000
00100000
01000000
00100000
,
10000000
00000000
01000000
00010000
,
00100000
00000000
00001000
00000000
,
00010000
00000000
00000100
00000000
,
00001000
00000010
00001000
00000010
,
00000100
00000000
00000001
00001000
,
00000100
00000000
00010000
00000000
,
00001000
00000000
00010000
00000000
,
00000100
00001000
00000100
00001000
,
00000010
00000000
00001000
00000100
,
00010000
00000000
00001000
00000000
,
00100000
00000000
00010000
01000000
,
00010000
00000000
10000000
00000000
,
00100000
00000000
01000000
00100000
,
10000000
00000000
00010000
00000000
,
00100000
00000000
00000000
00000000
,
00002000
00000000
00003000
00000000
,
00020000
00000000
00030000
00000000
,
00000200
00000000
00000300
00000000
,
00000020
00000000
00000030
00000000
,
00000002
00000000
00000003
00000000
,
00002000
00000000
00003000
00000000
,
00000020
00000000
00000030
00000000
,
00020000
00000000
00030000
00000000
,
00001000
00000000
00010000
00000000
,
00001000
00000000
00100000
00010000
,
01000000
00000000
00100000
00000000
,
10000000
00000000
00010000
00000000
,
00100000
00000000
00001000
00000000
,
00100000
00000000
00001000
00010000
,
00001000
00000000
01000000
00000000
,
00100000
00000000
10000000
00000000
,
00010000
00000000
01000000
00000000
,
00000000
00010000
00100000
00000000
,
00001000
00000000
00010000
00000000
,
00000000
00000100
00001000
00000000
,
00000010
00000000
00000100
00000000
,
00000000
00000010
00001000
00000000
,
00000001
00000000
00000100
00000000
,
00000010
00000000
00000000
00000000
,
00001000
00000000
00000000
00000000
,
00000100
00000000
00000000
00000000
,
00001000
00000000
00000000
00000000
,
00000010
00000000
00000000
00000000
,
00010000
00000000
00000000
00000000
,
00001000
00000000
00000000
00000000
,
00100000
00000000
00000000
00000000
,
00010000
00000000
00000000
00000000
;

//---------------dance-double - ----------------
#NOTES:
     dance-double:
     :
     Hard:
     8:
     0.461,0.477,0.133,0.133,0.191:
00000000
00000000
00000000
00000000
,
00000000
00000000
00000000
00000000
,
00000000
00000000
00000000
00000000
,
00000000
00000000
00000000
00000000
,
10000000
00100000
00000000
00000000
01000000
00000000
00100000
01000000
,
00010000
00100000
00001000
00010000
00000100
00000000
00001000
00000000
,
00000010
00000100
00000000
00000000
00000010
00000000
00001000
00000000
,
00000202
00000000
00000000
00000303
,
00000100
00000000
00000010
00000000
00001000
00000000
00000001
00000000
00000010
00000000
00000000
00000001
00000000
00000000
00001000
00000000
,
00000010
00000100
00000001
00001000
,
00000100
00000000
00000000
00010000
00000000
00000000
00000010
00000000
00000000
00001000
00000000
00000000
00000100
00000000
00000000
00000010
,
00000000
00000001
00000100
00000000
00000010
00000000
00001000
00000000
,
00000010
00000000
00001000
00000000
00000100
00000000
00010000
00000000
00001000
00000000
00000000
00010000
00000000
00000000
00001000
00000000
,
01000000
00010000
00100000
00001000
,
00010000
00000000
00000100
00000000
00010000
00000000
00001000
00000000
00100000
00000000
00000000
00010000
00000000
00000000
01000000
00000000
,
00100000
10000000
00100000
01010000
,
10010000
00101000
00010100
00001001
,
00000001
00000000
00001000
00000000
00000010
00000100
00000001
00000100
,
00000020
00000000
00001030
00000200
00000000
00000000
00010300
00000000
,
00000000
00010100
00000000
00101000
00000000
00000000
00001000
00000000
,
00010000
00000100
00001000
00000010
00000100
00000010
00000000
00001000
,
00000100
00000000
00010000
00000000
00001000
00100000
00010000
01000000
,
00200000
00000000
10300000
00020000
00000000
00000000
00130000
00000000
,
00010000
01000000
00001000
00010000
,
00000100
00001000
00000010
00000100
00000010
00001000
00000000
00000001
,
00000010
00000000
00000001
00000000
00001000
00000010
00001000
00000000
,
00000200
00000000
00010300
00002000
00000000
00000000
00013000
00000000
,
00000100
00001000
00000010
00000100
,
00001001
00000000
00000001
00000100
00001000
00000000
00010000
00000000
,
01000000
00000000
00000000
00000000
00100000
00000000
00010000
01000000
00000000
00010000
00000000
01000000
00010000
00000000
00100000
00000000
,
00001000
00000000
00010000
00000100
00001000
00000000
00000010
00000000
,
00001001
00000011
00001100
00011000
,
00010000
00001000
00000000
00000000
00010000
00000000
00000000
00001000
00000000
00100000
00010000
00000000
01000000
00000000
00100000
00000000
,
10000000
00010000
00000000
00000000
01000000
00000000
00000000
00100000
00000000
10000000
00010000
00000000
00100000
00000000
00010000
00000000
,
01000000
00001000
00000000
00000000
00010000
00000000
00000000
00001000
00000000
00010000
00000100
00000000
00000010
00000000
00000100
00000000
,
00001000
00000010
00000000
00000000
00000100
00000000
00000000
00000010
00000000
00001000
00000001
00000000
00000100
00000000
00000010
00000000
,
00001000
00000100
00000000
00000000
00001000
00000000
00000000
00000010
00000000
00000000
00000100
00000000
00000001
00000000
00001000
00000000
,
00000100
00010000
00000000
00000000
00001000
00000000
00000000
00100000
00000000
00000000
00010000
00000000
01000000
00000000
00100000
00000000
,
10000000
00010000
00000000
00000000
01000000
00000000
00000000
00100000
00000000
01000000
00010000
00000000
10000000
00000000
01000000
00000000
,
00100000
01000000
00000000
00000000
10000000
00000000
00000000
00010000
00000000
01000000
00100000
00000000
01000000
00000000
00010000
00000000
,
00100000
00001000
00010000
00000100
00010000
00001000
00000010
00000100
,
00001000
00000010
00000100
00000000
00000010
00001000
00000001
00000000
,
00000020
00000000
00000031
00002000
00000000
00000000
00003010
00000000
,
00000100
00000010
00000000
00000000
00001000
00000000
00000000
00000001
00000000
00001000
00000100
00000000
00010000
00000000
00000100
00000000
,
00001000
00000010
00000100
00000001
00001000
00000100
00010000
00001000
,
01000000
00100000
10000000
00000000
00010000
00100000
01000000
00000000
,
20000000
00000000
30100000
02000000
00000000
00000000
03010000
00000000
,
00100000
00001000
01000000
00100000
,
10010000
00000000
10000000
01000000
00010000
00000000
00001000
00000000
,
00000100
00000000
00000000
00000000
00000010
00000000
00001000
00000100
00000000
00001000
00000000
00000100
00001000
00000000
00000010
00000000
,
00000100
00000000
00000001
00000100
00001000
00000000
00010000
00000000
,
01000000
00000000
00000000
00000000
00100000
00000000
00010000
01000000
00000000
00010000
00000000
01000000
00010000
00000000
00100000
00000000
,
01000000
00000000
10000000
00100000
00010000
00000000
00001000
00000000
,
00000010
00000000
00000000
00000000
00000001
00000000
00001000
00000100
00000000
00001000
00000000
00000100
00001000
00000000
00000010
00000000
,
00000100
00000000
00000001
00000010
00001000
00000000
00010000
00000000
,
02200000
00000000
00000000
03300000
,
00100000
10000000
00010000
00000000
00100000
00000000
00001000
00010000
,
00000100
00001000
00000010
00000000
00000100
00000000
00000010
00000000
,
00001000
00000100
00010000
00000000
00001000
00000000
00100000
00010000
,
01000000
00001000
00010000
00000000
01000000
00000000
10000000
00000000
,
00100000
01000000
00010000
00000000
00100000
00000000
00001000
00100000
,
00001000
00010000
00000100
00000000
00000010
00000000
00000001
00000000
,
00000100
00000010
00000000
00000000
00000000
00020000
00000000
00031000
,
01000000
00100000
00000000
00000000
00000000
00000000
00000000
00000000
;

//---------------dance-double - ----------------
#NOTES:
     dance-double:
     :
     Medium:
     6:
     0.358,0.393,0.098,0.089,0.000:
00000000
00000000
00000000
00000000
,
00000000
00000000
00000000
00000000
,
00000000
00000000
00000000
00000000
,
00000000
00000000
00000000
00000000
,
10000000
00100000
00000000
00000000
01000000
00000000
00000000
00100000
,
10000000
00010000
01000000
00100000
00000000
00000000
01000000
00000000
,
00010000
00100000
00000000
00000000
00001000
00000000
00010000
00000100
,
00002000
00000000
00000000
00003010
,
00000100
00000001
00000000
00000000
00000010
00000000
00001000
00000000
,
00000001
00000000
00001000
00000000
00000100
00010000
00000100
00000000
,
00010000
00001000
00000000
00000000
00001000
00000000
00100000
00000000
,
00010000
00000000
01000000
00000000
00100000
10000000
00100000
00000000
,
10000000
00010000
00000000
00000000
00010000
00000000
01000000
00000000
,
00001000
00000000
00010000
00000000
00001000
00100000
00001000
00000000
,
00010000
01000000
00000000
00000000
01000000
00000000
00100000
00000000
,
10000000
00010000
00100000
00010000
,
11000000
00110000
10100000
01010000
,
01000000
00000000
00001000
00000000
00010000
00000100
00010000
00000000
,
00000100
00000000
00001000
00000010
00000100
00000000
00000010
00000000
,
00001000
00000001
00000000
00001000
00000000
00000100
00000010
00000000
,
00000001
00000000
00001000
00000000
00000010
00000100
00000000
00000010
,
00001000
00000000
00000100
00000000
00010000
00001000
00010000
00000000
,
00001000
00000000
00100000
00010000
00000000
00000000
01000000
00000000
,
00100000
10000000
00010000
00100000
,
00001000
00010000
00001000
00000000
00010000
00000100
00000000
00001000
,
00000010
00000000
00000100
00000000
00000010
00001000
00000010
00000000
,
00000100
00000000
00000001
00001000
00000000
00000000
00000100
00000000
,
00010000
00001000
00100000
00001000
,
00011000
00000000
00010000
00000100
00010000
00000000
00001000
00000000
,
00100000
00000000
00010000
01000000
00010000
00000000
10000000
00100000
,
10000000
00000000
00010000
10000000
01000000
00000000
00100000
00000000
,
00110000
00011000
00001100
00011000
,
00020000
00000100
00000100
00030100
,
00002000
00000000
00000010
00000000
00000010
00000000
00003010
00000100
,
00000002
00001000
00001000
00001003
,
00000200
00000000
00010000
00000000
00010000
00000000
00010300
00001000
,
00200000
00000000
00010000
00000000
00010000
00000000
00310000
01000000
,
00200000
00000000
10000000
00000000
10000000
00000000
10300000
00010000
,
02000000
00010000
00010000
03010000
,
00200000
00001000
00301000
00101000
,
00001000
00010000
00000100
00001000
,
00000010
00000000
00000100
00000000
00000001
00001000
00000001
00000000
,
00001000
00000000
00000010
00000100
00000000
00000000
00000010
00000000
,
00001000
00000100
00010000
00001000
,
00100000
00010000
01000000
00001000
,
00010000
00000000
00001000
00000000
01000000
00010000
01000000
00000000
,
00100000
00000000
10000000
01000000
00000000
00000000
00100000
00000000
,
00010000
01000000
00001000
00010000
,
00011000
00000000
00001000
00100000
00001000
00000000
00010000
00000000
,
00000100
00000000
00000010
00000001
00000010
00000000
00000001
00001000
,
00000001
00000000
00001000
00000010
00001000
00000000
00000010
00000000
,
00000100
00000000
00000010
00001000
00000010
00000000
00001000
00000100
,
00001000
00000000
00000100
00010000
00000100
00000000
00010000
00000000
,
00001000
00000000
00100000
00010000
00100000
00000000
01000000
10000000
,
01000000
00000000
00100000
00010000
10000000
00000000
00010000
00000000
,
02000000
00000000
00000000
03000000
,
00100000
01000000
00000000
00000000
00010000
00000000
00000000
00100000
,
00001000
00010000
00000000
00000000
00001000
00000000
00000000
00000000
,
00010000
00000100
00000000
00000000
00001000
00000000
00000000
00000010
,
00000100
00000001
00000000
00000000
00001000
00000000
00000000
00000000
,
00000001
00000010
00000000
00000000
00000000
00000000
00000000
00010000
,
00001000
01000000
00000000
00000000
00000000
00000000
00000000
00000000
,
00100000
01000000
00000000
00000000
00000000
00001000
00000000
00010000
,
00000100
00001000
00000000
00000000
00000000
00000000
00000000
00000000
;
