#TITLE:Voyage;
#SUBTITLE:(Silver & Chrome Remix);
#ARTIST:DJ Mind-X;
#TITLETRANSLIT:;
#SUBTITLETRANSLIT:;
#ARTISTTRANSLIT:;
#GENRE:;
#CREDIT:;
#MENUCOLOR:;
#METERTYPE:DDR;
#BANNER:Voyage (Silver & Chrome Remix)-bn.png;
#BACKGROUND:Voyage (Silver & Chrome Remix)-bg.png;
#LYRICSPATH:Voyage (Silver & Chrome Remix).lrc;
#CDTITLE:ddrencorecdtitle.png;
#MUSIC:Voyage (Silver & Chrome Remix).mp3;
#OFFSET:-0.034;
#SAMPLESTART:44.644;
#SAMPLELENGTH:13.737;
#SELECTABLE:YES;
#LISTSORT:;
#DISPLAYBPM:140.000;
#BPMS:0.000=139.772,96.000=34.943,98.000=139.772;
#STOPS:;
#BGCHANGES:;
#ATTACKS:;

//---------------dance-single - ----------------
#NOTES:
     dance-single:
     :
     Beginner:
     2:
     0.173,0.276,0.154,0.000,0.000:
0000
0000
0000
0000
,
0000
0000
0000
0000
,
0000
0000
0000
0000
,
0000
0000
0000
0000
,
1000
0000
0100
0000
,
1000
0000
0001
0000
,
0100
0000
0010
0000
,
1001
0000
0000
0000
,
1000
0000
1000
0000
,
0001
0000
0001
0000
,
0100
0000
0100
0000
,
0010
0000
1000
0000
,
0001
0000
0001
0000
,
0010
0000
0010
0000
,
0100
0000
0100
0000
,
1000
0000
0001
0000
,
1001
0000
0000
0000
,
0000
0000
0110
0000
,
0110
0000
0000
0000
,
0000
0000
0000
0110
,
0110
0000
0000
0000
,
0000
0000
1001
1001
,
1001
0000
0000
1001
,
1001
0000
0110
0000
,
1001
0000
1000
0000
,
0001
0000
0100
0000
,
0010
0000
1001
0000
,
0100
0000
0001
0000
,
0010
0010
0010
0000
,
0001
0000
1000
0000
,
0001
0000
0110
0000
,
1000
0000
0001
0000
,
0100
0100
0100
0000
,
0010
0000
0100
0000
,
0001
0001
0001
0000
,
1000
0000
0001
0000
,
0100
0100
0100
0000
,
0010
0000
1000
0000
,
0001
0001
0001
0000
,
0000
0000
1000
0000
,
0000
0000
0100
0000
,
1000
0000
0100
0000
,
1000
0000
0001
0000
,
0100
0000
0001
0000
,
0100
0000
0010
0000
,
0010
0000
0100
0000
,
0100
0000
0001
0000
,
0001
0000
1000
0000
,
0100
0000
1000
1000
,
1000
0000
0001
0001
,
0001
0000
1000
1000
,
1000
0000
0010
0000
,
0100
0000
0001
0001
,
0001
0000
1000
1000
,
1000
0000
0100
0100
,
0100
0000
0010
0000
,
0001
0000
1001
0000
,
0000
0000
0100
0000
;

//---------------dance-single - ----------------
#NOTES:
     dance-single:
     :
     Easy:
     4:
     0.235,0.253,0.038,0.154,0.000:
0000
0000
0000
0000
,
0000
0000
0000
0000
,
0000
0000
0000
0000
,
0000
0000
0000
0000
,
0010
1000
0000
0001
,
0000
0100
0000
0001
,
0000
1000
0000
0100
,
0020
0000
0000
0030
,
0100
1000
0010
0010
,
1000
0001
0100
0100
,
0010
1000
0001
0001
,
0100
0010
1000
0001
,
1000
0010
0100
0100
,
0001
1000
0010
0010
,
0100
0001
1000
1000
,
0001
0000
0110
0000
,
2000
0000
0000
0000
,
3000
0000
0010
0000
,
0200
0000
0000
0000
,
0300
0000
0000
0100
,
0002
0000
0000
0000
,
0003
0000
1000
0100
,
0020
0000
0000
0100
,
0230
0000
0000
0000
2000
0000
0000
3300
,
1001
0000
0001
1000
,
0010
0100
0001
1000
,
0100
0000
0010
0100
,
1000
0010
0100
0001
,
1000
0010
0010
0100
,
0001
0010
0100
1000
,
0001
0000
1000
0010
,
0100
0001
0100
0010
,
1000
0001
0001
0000
,
0010
0000
0100
0000
,
1000
0010
0001
0000
,
0010
0000
1000
0000
,
0001
0000
1001
0000
,
0010
0000
0100
0000
,
0001
0010
0200
0000
,
0300
0000
0020
0000
,
0030
0000
0001
1000
,
0100
0000
1000
0001
,
0100
0000
0001
1000
,
0010
0000
1000
0001
,
0010
0000
0100
1000
,
0100
1000
0001
0100
,
0001
0100
0010
1000
,
0001
0100
0010
1000
,
0001
0100
0020
0000
,
1030
0001
0200
0000
,
0310
1000
0002
0000
,
0013
0100
2000
0000
,
3002
0000
1003
0010
,
0100
0100
0001
1000
,
0010
0010
0100
0001
,
1000
1000
0100
0000
,
1001
0000
0200
0000
,
0000
0000
0020
0000
,
0000
0000
0330
0000
;

//---------------dance-single - ----------------
#NOTES:
     dance-single:
     :
     Medium:
     5:
     0.341,0.394,0.212,0.163,0.000:
0000
0000
0000
0000
,
0000
0000
0000
0000
,
0000
0000
0000
0000
,
0000
0000
0000
0000
,
1000
0000
0010
0000
0100
0001
0100
0000
,
0010
0000
1000
0000
0100
1000
0100
0000
,
0010
0000
0001
0000
1000
0001
1000
0000
,
2002
0000
0000
3003
,
0001
0000
0100
0000
0010
1000
0000
1000
,
0010
0000
0100
0000
0001
1000
0000
1000
,
0001
0000
0010
0000
0100
1000
0000
1000
,
0100
0010
0001
1000
,
0010
0000
0100
0000
0001
0100
0000
0100
,
0001
0000
1000
0000
0010
1000
0000
1000
,
0010
0000
0100
0000
0001
1000
0000
1000
,
0200
0000
0010
0310
,
0012
0000
0000
0000
,
1003
0010
1001
0000
,
0201
0000
0000
0000
,
0310
1000
0001
1001
,
2001
0000
0000
0000
,
3010
0100
0110
0110
,
1020
0000
0000
1030
,
0002
0000
0000
0000
0200
0000
0000
0303
,
1001
0000
0001
0100
,
0010
1000
0010
0100
,
0101
0001
1001
1000
,
0010
0100
0001
0010
,
0100
1000
0110
1000
,
0001
0010
0100
1000
,
1010
0010
0110
0100
,
0001
1000
0010
0100
,
0001
0010
0110
0000
,
1000
0000
0010
0100
,
0001
1000
0101
0000
,
0001
0000
0010
0100
,
1000
0001
1010
0000
,
0010
0000
0100
0001
,
1000
0100
0020
0001
,
0031
0100
0020
1000
,
1030
0000
0001
0000
0100
0010
0000
0100
,
0000
0010
0000
1000
0000
0001
0000
1000
,
0000
0001
0000
0010
0000
0100
0000
1000
,
0000
0010
0000
0100
0000
0001
0000
1000
,
0000
0100
0000
0010
0100
0000
1000
0000
,
0100
0010
0001
0000
1000
0000
0010
0000
,
0100
0001
1000
0000
0010
0000
1000
0000
,
0010
0100
0001
0000
1000
0000
0001
0000
,
0010
0100
1000
0100
0020
0000
0001
0000
,
0031
0000
0001
0100
0002
0000
1000
0000
,
1003
0000
1000
0010
2000
0000
0100
0000
,
3100
0000
0100
0010
0200
0000
1000
0000
,
1300
0000
0001
0100
0010
0000
1001
0000
,
0100
0000
0001
0010
0100
0000
1001
0000
,
0010
0000
0100
1000
0001
0000
1001
0000
,
0100
0000
0010
1000
0001
0000
0010
0000
,
0100
0010
2001
0000
,
0000
0000
0200
0000
,
0000
0000
3300
0000
;

//---------------dance-double - ----------------
#NOTES:
     dance-double:
     :
     Easy:
     4:
     0.235,0.253,0.019,0.192,0.000:
00000000
00000000
00000000
00000000
,
00000000
00000000
00000000
00000000
,
00000000
00000000
00000000
00000000
,
00000000
00000000
00000000
00000000
,
00100000
00000000
01000000
00000000
00000000
00010000
00000000
00000000
,
01000000
00000000
00001000
00000000
00000000
00010000
00000000
00000000
,
00001000
00000000
00010000
00000000
00000000
00000100
00000000
00000000
,
00001001
00000000
00000000
00000000
,
00000001
00000100
00000010
00000010
,
00001000
00000100
00010000
00010000
,
00000100
00001000
00000001
00000001
,
00000100
00000010
00001000
00000100
,
00010000
00001000
00100000
00100000
,
00001000
00010000
00000100
00000100
,
00010000
00001000
01000000
01000000
,
00200000
00000000
10000000
10300000
,
20000000
00000000
00000000
00000000
,
30000000
00000000
00010000
00000000
,
02000000
00000000
00000000
00000000
,
03000000
00000000
00000000
00001000
,
00020000
00000000
00000000
00000000
,
00030000
00000000
00000100
00001000
,
00000020
00000000
00000000
00000100
,
00000230
00000000
00000000
00000000
00000002
00000000
00000000
00000303
,
00001001
00000000
00000001
00000010
,
00000100
00001000
00000010
00010000
,
00001000
00000000
00010000
00001000
,
01000000
00010000
00100000
01000000
,
10000000
01000000
01000000
00100000
,
00010000
01000000
00001000
00010000
,
00000100
00000000
00001000
00000010
,
00000100
00000001
00000100
00000010
,
00001000
00000100
00000100
00000000
,
00000010
00000000
00000100
00000000
,
00001000
00000001
00000100
00000000
,
00000010
00000000
00010000
00001000
,
00010000
00000100
00001000
00000000
,
00000010
00000000
00000100
00000000
,
00000001
00000010
00000200
00000000
,
00000300
00000000
00000020
00000000
,
00000030
00000000
00000001
00000000
,
00000100
00000000
00000010
00000000
,
00010000
00000000
00001000
00000000
,
01000000
00000000
00100000
00000000
,
10000000
00000000
10000000
01000000
,
00100000
00001000
00010000
00000100
,
00000010
00000001
00000001
00000010
,
00000100
00010000
00001000
00100000
,
01000000
10000000
00020000
00000000
,
01030000
00100000
20000000
00000000
,
30100000
01000000
00200000
00000000
,
10300000
00010000
02000000
00000000
,
03002000
00000000
00023000
00000000
,
00030100
00001000
00000020
00000000
,
00000130
00000001
00002000
00000000
,
00003100
00000010
00000002
00000000
,
00001003
00000000
00000020
00000000
,
00000000
00000000
00000200
00000000
,
00000000
00000000
00000330
00000000
;

//---------------dance-double - ----------------
#NOTES:
     dance-double:
     :
     Medium:
     5:
     0.338,0.366,0.212,0.163,0.010:
00000000
00000000
00000000
00000000
,
00000000
00000000
00000000
00000000
,
00000000
00000000
00000000
00000000
,
00000000
00000000
00000000
00000000
,
00001000
00000000
00000001
00000000
00000000
00001100
00000000
00000000
,
00001000
00000000
00000010
00000000
00000000
00011000
00000000
00000000
,
00010000
00000000
00001000
00000000
00000000
01010000
00000000
00000000
,
20000000
00000000
30020000
00000000
,
01030000
00000000
00100000
00000000
10000000
00010000
00000000
00010000
,
01000000
00000000
00100000
00000000
10000000
01000000
00000000
01000000
,
00100000
00000000
00010000
00000000
00100000
00001000
00000000
00001000
,
00010000
00000100
00001000
00000010
,
00010000
00000000
00000010
00000000
00001000
00000001
00000000
00000001
,
00000100
00000000
00000010
00000000
00001000
00000100
00000000
00000100
,
00000010
00000000
00000100
00000000
00001000
00000010
00000000
00000010
,
00000100
00000000
00000010
00000000
,
00002001
00000000
00000000
00000000
,
00003001
00000100
00000101
00000001
,
00000020
00000000
00000000
00000000
,
00000130
00010000
00001000
00100000
,
00120000
00000000
00000000
00000000
,
10030000
00100000
01100000
01100000
,
20100000
00000000
30010000
01000000
,
01200000
00000000
00000000
00000000
02000000
00000000
00000000
03300000
,
10010000
00000000
10000000
01000000
,
00100000
00100000
00001000
00010000
,
00010100
00000100
00001100
00001000
,
00000010
00000100
00000001
00000010
,
00000100
00001100
00001001
00000001
,
00000100
00000010
00001000
00000100
,
00001100
00001000
00001001
00000001
,
00000100
00000010
00010000
00001000
,
00100000
00000000
00010000
00000000
01000000
00000000
00100000
10000000
,
00100000
01000000
00010000
00100000
,
01000000
00000000
01000000
00000000
11000000
00000000
10000000
00010000
,
01000000
00010000
00100000
00001000
,
00010000
00000000
00000100
00000000
00001100
00000000
00001000
00000010
,
00000100
00000001
00001000
00000100
,
00010000
00000000
00000000
00000000
00001000
00000000
00000000
00000000
00200000
00000000
00010000
00000000
00000000
00010000
00000000
00000000
,
00310000
00000000
00000000
00000000
10000000
00000000
00000000
00000000
00020000
00000000
01000000
00000000
00000000
01000000
00000000
00000000
,
01030000
00000000
00100000
00000000
10000000
01000000
00000000
00100000
,
00000000
01000000
00000000
10000000
00000000
00010000
00000000
01000000
,
00000000
01001000
00000000
00001000
00000000
00010000
00000000
00000010
,
00000000
00000100
00000000
00000001
00000000
00001000
00000000
00000100
,
00000000
00010100
00000000
00010000
00001000
00000000
00100000
00000000
,
00010000
00000000
00100000
00001000
00010000
00000000
00000100
00000000
,
00001000
00000000
00000010
00001000
00000001
00000000
00000010
00000000
,
00000100
00000000
00001000
00000001
00000100
00000000
00000010
00000000
,
00001000
00000001
00001000
00000001
00000200
00000000
00000000
00000000
,
00000310
00001000
00000020
00000000
,
00010030
00001000
00020000
00000000
,
00031000
01000000
00002000
00000000
,
00203000
00000000
00310000
10000000
,
01000000
00100000
00000000
00100000
00010000
00000000
01000000
00000000
,
00001000
00010000
00000000
00010000
00000100
00000000
00001000
00000000
,
00000010
00010000
00000000
00010000
00001000
00000000
00100000
00000000
,
00010000
01000000
02100000
00000000
,
00000000
00000000
00020000
00000000
,
00000000
00000000
03030000
00000000
;

//---------------dance-double - ----------------
#NOTES:
     dance-double:
     :
     Hard:
     8:
     0.492,0.591,0.125,0.087,0.159:
00000000
00000000
00000000
00000000
,
00000000
00000000
00000000
00000000
,
00000000
00000000
00000000
00000000
,
00000000
00000000
00000000
00000000
,
00001000
00000000
00100000
00000000
00010000
01000000
00000000
01000000
,
00100000
00000000
10000000
00000000
00010000
00100000
00000000
00100000
,
00001000
00000000
01000000
00000000
00010000
00100000
00000000
00100000
,
00001000
00000000
00000000
00000000
00010000
00000000
00000000
00000000
00001000
00010000
00001000
00010000
00001000
00010000
00001000
00010000
,
00000100
00001000
00000010
00000100
00000001
00001000
00000000
00000100
,
00001000
00000010
00000100
00000001
00000010
00000100
00000000
00001000
,
00000010
00000100
00000001
00000010
00000100
00001000
00000000
00000010
,
00000100
00000001
00001000
00000010
00010000
00001000
01000000
00010000
,
01000000
00100000
10000000
01000000
00100000
00010000
00000000
00010000
,
00100000
01000000
00100000
00001000
00010000
00000100
00000000
00000100
,
00001000
00000010
00000100
00000001
00000100
00000010
00000000
00001000
,
00000001
00000000
00000000
00000000
00000100
00000000
00000000
00000000
00000001
00001000
00000001
00001000
00000001
00001000
00000001
00001000
,
00000020
00000000
00000000
00000000
00000100
00000000
00000000
00000000
00000100
00000000
00000000
00000100
00000000
00000000
00000130
00000000
,
00000010
00010000
00011000
00001000
,
02000000
00000000
00000000
00000000
00010000
00000000
00000000
00000000
00010000
00000000
00000000
00010000
00000000
00000000
03010000
00000000
,
01000000
00100000
10000000
01010000
,
00020000
00000000
00000000
00000000
10000000
00000000
00000000
00000000
10000000
00000000
00000000
10000000
00000000
00000000
10030000
00000000
,
00010000
00100000
00101000
00011000
,
00020000
00000000
00000100
00000000
00000100
00030000
00000200
00000000
,
00002000
00000300
00000000
00000000
00003002
00000000
00000000
00000000
,
00000103
00000000
00000000
00000000
00000001
00000100
00000010
00000100
,
00000001
00000010
00000100
00001000
00000100
00000010
00000100
00010000
,
00001000
00000000
01000000
00000000
00100000
10000000
00010000
00100000
,
01000000
00100000
00010000
01000000
00100000
10000000
00100000
01000000
,
00010000
00000000
00100000
00000000
01000000
10000000
00010000
01000000
,
00100000
01000000
00010000
00100000
01000000
10000000
01000000
00100000
,
00001000
00000000
00010000
00000000
00000100
00001000
00000010
00000100
,
00000001
00001000
00000010
00001000
00000001
00000010
00000100
00010000
,
00000100
00000000
00000000
00000000
00001000
00000000
00000000
00000000
00000010
00000000
00000100
00000000
00000000
00000001
00000000
00000000
,
00001000
00000000
00000000
00000010
00000000
00000000
00000100
00000000
00000001
00000000
00000010
00000000
00000000
00000100
00000000
00000000
,
00001000
00000000
00000000
00000000
00000010
00000000
00000000
00000000
00000100
00000000
00000010
00000000
00000000
00001000
00000000
00000000
,
00000100
00000000
00000000
00010000
00000000
00000000
00001000
00000000
01000000
00000000
00010000
00000000
00000000
01000000
00000000
00000000
,
00100000
00000000
00000000
00000000
10010000
00000000
00000000
00000000
10000000
00000000
00100000
00000000
00000000
01000000
00000000
00000000
,
00010000
00000000
00000000
00100000
00000000
00000000
01000000
00000000
10000000
00000000
00010000
00000000
00000000
00100000
00000000
00000000
,
00001000
00000000
00000000
00000000
00010000
00000000
00000000
00000000
00001000
00000000
00100000
00000000
00100000
00001000
00000000
00000000
,
00010000
00000000
00000000
00000100
00000000
00000000
00001000
00000000
00000010
00000000
00000100
00000000
00000100
00000001
00000000
00000000
,
00001000
00000000
00000000
00000010
00000000
00000000
00000100
00000000
00000001
00000000
00001000
00000000
00000000
00000000
00000010
00000000
,
00000000
00000110
00000000
00000100
00000000
00000001
00000000
00000010
,
00000000
00001100
00000000
00000100
00010000
00001000
00000000
01000000
,
00000000
01010000
00000000
00010000
00000000
10000000
00000000
00100000
,
00000000
01100000
00000000
01000000
00010000
00100000
01000000
10000000
,
01000000
00100000
00001000
00010000
00001000
01000000
00100000
10000000
,
00100000
01000000
00001000
00000000
00010000
00000100
00000010
00000001
,
00000010
00000100
00001000
00000010
00000100
00000001
00000100
00000010
,
00010000
00001000
00010000
00001000
00010000
00001000
00010000
00001000
01000000
00000000
00010000
00000000
00100000
00000000
01100000
00000000
,
00000000
01000000
10000000
10010000
00000000
00010000
01000000
00001000
,
00100000
00001000
00010000
00000100
00001000
00000010
00000100
00000110
,
00000000
00000100
00000001
00001001
00000000
00000001
00000010
00000100
,
00001000
00000000
00000001
00001000
00000001
00000000
00000100
00000000
00000000
00000000
00000010
00000000
00000100
00000000
00000001
00000000
,
00000000
00000010
00000100
00001000
00000000
00000100
00010000
00001000
,
01000000
00100000
10000000
00010000
00100000
01000000
10000000
00100000
,
00000000
01000000
00010000
00100000
00000000
00001000
00010000
00000000
,
00000010
00001000
00000010
00001000
00000010
00001000
00000010
00001000
00000002
00000000
00000000
00000000
00000000
00000000
00000000
00000000
,
00000000
00000000
00000200
00000000
,
00000000
00000000
00000303
00000000
;

//---------------dance-single - ----------------
#NOTES:
     dance-single:
     :
     Hard:
     8:
     0.514,0.591,0.279,0.154,0.120: // measure 1
0000
0000
0000
0000
,  // measure 2
0000
0000
0000
0000
,  // measure 3
0000
0000
0000
0000
,  // measure 4
0000
0000
0000
0000
,  // measure 5
0010
0000
0100
0000
0000
0201
0000
0000
,  // measure 6
0301
0000
1000
0000
0000
2100
0000
0000
,  // measure 7
3100
0000
0010
0000
0000
0021
0000
0000
,  // measure 8
0031
0000
0000
0000
1000
0000
0000
0000
0001
0100
0001
0100
0001
0100
0001
0100
,  // measure 9
0001
0010
1000
0010
0001
0100
0000
0010
,  // measure 10
1000
0100
0001
0100
1000
0010
0000
0100
,  // measure 11
0001
0100
1000
0100
0001
0010
0000
0100
,  // measure 12
1000
0100
0001
0100
1000
0010
0100
0100
,  // measure 13
0001
0010
0100
0010
0001
1000
0000
0001
,  // measure 14
1000
0010
0100
0010
1000
0001
0000
1000
,  // measure 15
0001
0100
0010
0100
0001
1000
0000
0001
,  // measure 16
1000
0000
0000
0000
0010
0000
0000
0000
1000
0001
1000
0001
1000
0001
1000
0001
,  // measure 17
0200
0000
0000
0000
0010
0000
0000
0000
0001
0000
0000
0001
0000
0000
0002
0000
,  // measure 18
0300
1003
0101
0001
,  // measure 19
1200
0000
0000
0000
0010
0000
0000
0000
1000
0000
0000
1000
0000
0000
2000
0000
,  // measure 20
0300
3001
0100
1010
,  // measure 21
0102
0000
0000
0000
1000
0000
0000
0000
0100
0000
0000
0100
0000
0000
0200
0000
,  // measure 22
0003
0310
0101
1001
,  // measure 23
2010
0001
3100
1100
,  // measure 24
0012
0000
0000
0000
2000
0000
0000
3003
,  // measure 25
0110
0000
0000
0000
0001
0000
1000
0100
1000
0000
0010
0000
0100
0000
0001
0000
,  // measure 26
0010
0100
0010
0001
1000
0010
0100
0001
,  // measure 27
1000
0000
0001
0000
0010
0001
0100
0010
,  // measure 28
1000
0100
0010
0100
1000
0010
0100
0001
,  // measure 29
1000
0000
0100
0000
1000
0010
0100
0001
,  // measure 30
0010
0100
1000
0010
0100
0010
1000
0001
,  // measure 31
0010
0000
0001
0000
1000
0010
0100
0001
,  // measure 32
1000
0001
0010
0100
1000
0010
1000
0001
,  // measure 33
0100
0000
0010
0000
1000
0100
0001
0100
,  // measure 34
0010
0100
0010
0001
1000
0010
0100
0001
,  // measure 35
1000
0000
1000
0000
0001
0100
1000
0100
,  // measure 36
0010
0100
0010
1000
0100
0010
0001
1000
,  // measure 37
0001
0000
0001
0000
0001
0010
1000
0010
,  // measure 38
0100
0010
0100
1000
0010
0100
0001
1000
,  // measure 39
0100
0000
0000
0000
0100
0000
0000
0000
1000
0000
0001
0000
0000
0100
0000
0000
,  // measure 40
0001
0000
0000
0010
0000
0000
0100
0000
1000
0000
0001
0000
0000
0010
0000
0000
,  // measure 41
0001
0000
0000
0100
0000
0000
0010
0000
2000
0000
0001
0000
0000
0000
0010
0000
,  // measure 42
0000
3001
0000
1000
0000
0010
0000
0110
,  // measure 43
0000
1001
0000
0100
0002
1000
0000
0010
,  // measure 44
0000
1003
0000
0001
0000
0010
0000
0110
,  // measure 45
0000
1001
0000
1000
0010
0000
0100
0000
,  // measure 46
0110
0000
1001
0001
0100
0000
0010
0000
,  // measure 47
1000
0100
0001
0100
0010
0000
0001
0000
,  // measure 48
0110
0000
1001
1000
0010
0000
0100
0000
,  // measure 49
0001
1000
0001
1000
0001
1000
0001
1000
0010
0000
0100
0000
0001
0000
0011
0000
,  // measure 50
0000
0100
1000
1010
0000
0100
0001
0010
,  // measure 51
0100
0001
0100
1000
0010
0100
0001
0011
,  // measure 52
0000
1000
0010
0110
0000
0100
0001
1000
,  // measure 53
0010
0000
1000
0000
0001
0000
0100
0001
0100
0000
0010
0000
1000
0000
1100
0000
,  // measure 54
0000
0010
0001
0101
0000
0010
1000
0100
,  // measure 55
0010
1000
0010
0001
0100
0010
1000
1010
,  // measure 56
0000
0100
0001
0101
0000
1000
0010
0000
,  // measure 57
1000
0001
1000
0001
1000
0001
1000
0001
0200
0000
0000
0000
0000
0000
0000
0000
,  // measure 58
0000
0000
0020
0000
,  // measure 59
0000
0000
0330
0000
;
