#TITLE:Voodoo People (Pendulum Remix);
#SUBTITLE:;
#ARTIST:The Prodigy;
#TITLETRANSLIT:;
#SUBTITLETRANSLIT:;
#ARTISTTRANSLIT:;
#GENRE:;
#CREDIT:;
#MENUCOLOR:;
#METERTYPE:DDR;
#BANNER:Voodoo People-bn.png;
#BACKGROUND:Voodoo People-bg.png;
#LYRICSPATH:;
#CDTITLE:ddrencorecdtitle.png;
#MUSIC:Voodoo People (Pendulum Remix).mp3;
#OFFSET:-0.355;
#SAMPLESTART:35.180;
#SAMPLELENGTH:11.840;
#SELECTABLE:YES;
#LISTSORT:;
#BPMS:0.000=89.510,36.000=179.160,260.000=178.220;
#STOPS:;
#BGCHANGES:;
#ATTACKS:;

//---------------dance-single - ----------------
#NOTES:
     dance-single:
     :
     Hard:
     9:
     0.678,0.917,0.466,0.318,0.217:
0000
0000
0000
0000
,
1001
0001
0100
0000
0100
0001
0010
0001
0100
1000
0000
0100
0000
0001
0000
0000
,
0110
0100
0001
0000
1000
0010
1000
0100
0001
0100
0000
0000
1100
0000
0101
0000
,
1100
0100
0010
0000
0001
0100
0001
0010
1000
0010
0000
0001
0000
0010
0000
0000
,
0011
0010
0100
0000
1000
0001
1000
0010
0001
0010
0000
0000
1010
0000
0101
0000
,
1001
1000
0100
0000
0001
0100
1000
0010
0100
0010
0000
0000
1001
0100
0000
0000
,
0110
0010
1000
0000
0100
0010
1000
0010
0100
1000
0000
0000
0101
0000
1100
0000
,
0101
0001
0010
0000
0100
0010
1000
0010
0001
0100
0000
0000
1001
0010
0000
0000
,
1001
0001
0010
0000
1000
0010
0001
0100
0000
0000
0000
0000
0000
0000
0000
0000
,
0001
0000
0100
0001
0100
0000
0010
0000
0000
0000
0010
0000
0000
0000
1010
0000
,
0000
0000
0000
0000
0000
0000
1000
0100
1000
0000
0100
0000
0001
0000
0100
0000
,
1000
0000
0001
0100
0001
0000
0010
0000
0000
0000
0010
0000
0000
0000
0011
0000
,
0000
0000
0000
0000
0000
0000
0001
1000
0001
0000
0010
0000
1000
0000
0010
0000
,
0001
0000
1000
0010
1000
0000
0100
0000
0000
0000
0100
0000
0000
0000
1100
0000
,
0000
0000
0000
0000
0000
0000
1000
0010
1000
0000
0010
0000
0001
0000
0010
0000
,
1000
0000
0001
1000
0001
0000
0010
0000
0000
0000
0010
0000
0000
0000
0110
0000
,
0000
0100
1000
0010
0100
0001
1000
0010
,
0110
0000
0101
0000
0001
0010
0001
1000
,
0000
1000
0010
0100
0001
0010
0001
0010
,
0011
0000
1100
0000
1000
0010
1000
0100
,
0000
0010
0100
1000
0010
0100
0010
0100
,
0110
0000
1001
0000
0010
0100
0001
0010
,
0000
0010
0100
1000
0001
0100
0001
0100
,
1010
0000
1100
0000
1000
0100
0010
0001
,
0000
0001
0100
0001
0010
0100
0010
0100
,
1100
0000
0000
0001
0100
0000
0010
0000
1000
0000
0100
0000
1000
0000
0010
0000
,
0000
0100
0100
0001
0010
0001
0010
0001
,
1100
0000
0000
1000
0001
0000
1000
0000
0010
0000
1000
0000
0100
0000
0001
0000
,
0000
0100
0100
1000
0010
0100
0010
0100
,
0101
0000
0000
0001
0010
0000
0100
0000
1000
0000
0100
0000
0010
0000
0001
0000
,
0000
0001
0001
0100
0010
1000
0010
1000
,
1001
0000
0000
0001
0010
0000
0100
0000
0010
0000
0001
0000
0100
0000
0001
0000
,
0000
0001
0100
0010
1000
0001
0100
0010
,
2100
0000
3200
0000
2300
3020
0230
0302
,
0000
0003
0020
0000
0031
0001
0100
0000
,
1002
0000
2003
0000
3020
0230
0302
2003
,
0000
3100
0010
0100
1000
0000
1000
0000
,
0201
0000
0302
0000
0023
0230
0320
0032
,
0000
0003
0200
0000
0310
0010
1000
0000
,
1020
0000
0032
0000
0023
0230
0000
2300
,
0000
0000
0000
0000
0000
0000
0000
3000
,
0101
0001
0010
0100
0001
0010
0100
0001
,
1100
0100
0010
1000
0100
0010
1000
0100
,
2001
0000
3200
0000
0320
0032
0000
0203
,
0000
0310
1000
0010
0100
0000
0100
0000
,
0200
0302
2003
3200
,
0310
0100
1000
0010
0100
1000
0010
0100
,
0002
0000
0203
0000
0302
0023
0000
0230
,
0000
0000
0000
0000
0000
0000
0300
0100
,
0100
0000
1000
0000
0100
0100
0010
0000
,
0001
0000
0100
0001
0100
0001
1000
0000
,
1000
0000
0010
0000
0100
0100
0010
0000
,
1000
0000
0001
0010
0001
1000
0100
0000
,
0010
0000
0001
0000
1000
1000
0001
0000
,
0010
0000
0000
0000
0001
0000
1000
0000
0001
0000
0100
0000
0010
0000
0000
0100
,
0010
0000
1000
0000
0001
0001
0100
0000
,
0001
0000
1000
0001
0100
0001
0010
0000
,
1000
0000
0001
0000
1000
1000
1000
0000
,
0000
0000
0010
0000
1000
0100
0001
0000
,
0100
0000
1000
0000
0001
0001
0001
0000
,
0000
0000
1000
0000
0001
0100
1000
0100
,
0001
0000
0010
0000
0100
0100
0100
0000
,
0000
0000
1000
0000
0010
1000
0100
0000
,
0100
0000
1000
0000
0010
0010
0010
0000
,
0000
0000
0100
0000
0001
1000
0100
1000
,
0001
0000
0100
0001
0100
0000
0010
0000
0000
0000
0010
0000
0000
0000
0110
0000
,
0000
0000
0000
0000
0000
0000
1000
0100
1000
0000
0010
0000
0001
0000
0010
0000
,
1000
0000
0100
1000
0100
0000
0010
0000
0000
0000
0010
0000
0000
0000
0011
0000
,
0000
0000
0000
0000
0000
0000
0001
0010
0001
0000
0100
0000
1000
0000
0100
0000
,
0001
0000
1000
0001
1000
0000
0100
0000
0000
0000
0100
0000
0000
0000
0110
0000
,
0000
0000
0000
0000
0000
0000
0100
0010
0100
0000
1000
0000
0100
0000
0001
0000
,
0100
0000
1000
0100
1000
0000
0010
0000
0000
0000
0010
0000
0000
0000
1010
0000
,
0000
0001
0010
0100
1000
0001
0010
0100
,
1100
0000
0000
1010
0000
0000
0101
0000
,
1001
0000
0000
1100
0000
0000
0110
0000
,
1100
0000
0000
0101
0000
0000
0110
0000
,
0011
0000
0000
1010
0000
0000
1100
0000
,
1001
0001
0100
1000
0001
0100
1000
0001
,
0110
0100
1000
0010
0100
1000
0010
0100
,
1010
0100
0001
0010
0100
0001
0010
0100
,
1001
1000
0010
0001
1000
0010
0001
1000
,
0220
0000
0330
0000
;

//---------------dance-double - ----------------
#NOTES:
     dance-double:
     :
     Hard:
     9:
     0.668,0.943,0.567,0.054,0.237:
00000000
00000000
00000000
00000000
,
11000000
00100000
00010000
00000000
00010000
00100000
01000000
10000000
00100000
01000000
00000000
01010000
00000000
01001000
00000000
00000000
,
00011000
00010000
00000100
00000000
00010000
00001000
00000100
00000010
00001000
00000100
00000000
00000000
00000011
00000000
00001010
00000000
,
00000011
00000100
00001000
00000000
00000100
00001000
00000010
00000100
00000001
00000010
00000000
00001100
00000000
00010100
00000000
00000000
,
00011000
00001000
00100000
00000000
00010000
01000000
00100000
00010000
00100000
01000000
00000000
00000000
01010000
00000000
11000000
00000000
,
01010000
00100000
10000000
00000000
01000000
00100000
00010000
00100000
00001000
00010000
00000000
00011000
00000000
00010010
00000000
00000000
,
00000100
00001000
00000010
00000000
00000100
00000010
00001000
00000010
00000100
00000001
00000000
00000000
00000110
00000000
00001001
00000000
,
00000110
00001000
00000001
00000000
00000010
00000100
00010000
00001000
00010000
00000100
00000000
00001100
00000000
00011000
00000000
00000000
,
00110000
01000000
10000000
00000000
01000000
10000000
00100000
10000000
00000000
00000000
00000000
00000000
00000000
00000000
00000000
00000000
,
10000000
00000000
01000000
10000000
01000000
00000000
00100000
00000000
00000000
00000000
00101000
00000000
00000000
00000000
00011000
00000000
,
00000000
00000000
00000000
00000000
00000000
00000000
00000001
00001000
00000001
00000000
00010000
00000000
00001000
00000000
10000000
00000000
,
00001000
00000000
00010000
00001000
00010000
00000000
00000100
00000000
00000000
00000000
00011000
00000000
00000000
00000000
00110000
00000000
,
00000000
00000000
00000000
00000000
00000000
00000000
10000000
00010000
10000000
00000000
00001000
00000000
00010000
00000000
00000001
00000000
,
00001000
00000000
00000100
00000010
00000100
00000000
00000010
00000000
00000000
00000000
00001100
00000000
00000000
00000000
00001010
00000000
,
00000000
00000000
00000000
00000000
00000000
00000000
00000001
00000010
00000001
00000000
00010000
00000000
00001000
00000000
10000000
00000000
,
00010000
00000000
10000000
01000000
10000000
00000000
00100000
00000000
00000000
00000000
01100000
00000000
00000000
00000000
01010000
00000000
,
00000000
00010000
00100000
01000000
10000000
00100000
00010000
00100000
,
11000000
00000000
00000000
10000000
01000000
00000000
00010000
00000000
00001000
00000000
00010000
00000000
00000100
00000000
00001000
00000000
,
00000000
00000100
00000010
00000001
00000100
00000000
00000110
00000000
,
00010010
00000000
00000000
00001000
00000100
00000000
00010000
00000000
00001000
00000000
00010000
00000000
00100000
00000000
01000000
00000000
,
00000000
00010000
00100000
01000000
10000000
00000000
01010000
00000000
,
11000000
00000000
00000000
10000000
00100000
00000000
10000000
00000000
01000000
00000000
00100000
00000000
00001000
00000000
00010000
00000000
,
00000000
00100000
00010000
00001000
00000100
00000000
00000110
00000000
,
00000101
00000000
00000000
00000001
00000010
00000000
00000001
00000000
00000100
00000000
00000010
00000000
00001000
00000000
00000100
00000000
,
00000000
00010000
00001000
00010000
00000100
00000000
00011000
00000000
,
00101000
00000000
00000000
00010000
01000000
00000000
00001000
00000000
00010000
00000000
00000100
00000000
00001000
00000000
00000010
00000000
,
00000000
00000100
00000010
00001000
00000100
00000000
00000110
00000000
,
00010100
00000000
00000000
00001000
00010000
00000000
00001000
00000000
01000000
00000000
00010000
00000000
00100000
00000000
00010000
00000000
,
00000000
01000000
10000000
01000000
00100000
00000000
00101000
00000000
,
00110000
00000000
00000000
00100000
01000000
00000000
10000000
00000000
00100000
00000000
00010000
00000000
00100000
00000000
01000000
00000000
,
00000000
00010000
00100000
00001000
00010000
00000000
00010010
00000000
,
00001010
00000000
00000000
00001000
00000010
00000000
00000100
00000000
00000010
00000000
00001000
00000000
00000001
00000000
00000100
00000000
,
00000000
00000001
00000100
00001000
00010000
00100000
10000000
00010000
,
00100000
00000000
00110000
00000000
00100000
00100000
01000000
10000000
,
10000000
00000000
11000000
00000000
01000000
00100000
00010000
00000000
,
01000000
00000000
01010000
00000000
00010000
00010000
00100000
00001000
,
00001000
00021000
00000100
00031000
,
00000100
00000000
00000110
00000000
00000001
00000001
00001000
00000100
,
00000100
00000000
00001100
00000000
00010000
00001000
00010000
00000000
,
00011000
00000000
00110000
00000000
00011000
00110000
00000000
20020000
,
00000000
00000000
00000000
00000000
00000000
00000000
00000000
30030000
,
10000000
00100000
00010000
00001000
00010000
00100000
10000000
00100000
,
00010000
00001000
00010000
00100000
10000000
01000000
00010000
00001000
,
00000100
00000000
00000100
00000000
00000001
00000010
00000000
00000020
,
00000000
00000000
00000000
00000000
00000000
00000000
00000000
00000030
,
00000001
00000000
00001001
00000000
00001000
00001000
00000100
00010000
,
00010000
00000000
00011000
00000000
00100000
00010000
00100000
00000000
,
00011000
00000000
00001100
00000000
00011000
00001100
00000000
00002002
,
00000000
00000000
00000000
00000000
00000000
00000000
00003003
00000001
,
00001100
00000000
00010000
00000000
00001000
00010000
00001000
00000000
,
00100000
00000000
01000000
00000000
10000000
01000000
00100000
00010000
,
00100000
00000000
00010000
00000000
01000000
00001000
00010000
00000000
,
00001000
00000000
00010000
00000000
00000100
00001000
00000010
00001000
,
00000100
00000000
00000001
00000000
00000100
00001000
00000010
00000000
,
00010000
00000000
00001000
00000000
00100000
00010000
00100000
00001000
,
00010000
00000000
00100000
00000000
10000000
00100000
00010000
00000000
,
00100000
00000000
10000000
00000000
00100000
00010000
00001000
00010000
,
00000100
00000000
00001000
00000000
00000100
00000100
00000100
00000000
,
00001000
00000000
00000010
00000000
00010000
00001000
00010000
00001000
,
00100000
00000000
00100000
00000000
00010000
00010000
00010000
00000000
,
10000000
00000000
00010000
00000000
01000000
00010000
01000000
00010000
,
20100000
00000000
31000000
00000000
00100000
00100000
00100000
00000000
,
00000000
00000000
00001000
00000000
00010000
00010000
00010000
00010000
,
00010000
00000000
00000100
00000000
00000100
00000100
00000100
00000000
,
00000000
00000000
00000010
00000000
00000001
00000001
00000001
00000001
,
00000001
00000000
00000100
00000001
00000100
00000000
00000010
00000000
00000000
00000000
00001010
00000000
00000000
00000000
00010010
00000000
,
00000000
00000000
00000000
00000000
00000000
00000000
10000000
00010000
10000000
00000000
00001000
00000000
00010000
00000000
00000001
00000000
,
00001000
00000000
00000001
00001000
00000001
00000000
00000100
00000000
00000000
00000000
00000110
00000000
00000000
00000000
00001010
00000000
,
00000000
00000000
00000000
00000000
00000000
00000000
00000001
00001000
00000001
00000000
00010000
00000000
00001000
00000000
10000000
00000000
,
01000000
00000000
10000000
01000000
10000000
00000000
00100000
00000000
00000000
00000000
01010000
00000000
00000000
00000000
01001000
00000000
,
00000000
00000000
00000000
00000000
00000000
00000000
10000000
00100000
10000000
00000000
00001000
00000000
00010000
00000000
00000001
00000000
,
00000100
00000000
00000001
00000010
00000001
00000000
00000010
00000000
00000000
00000000
00001100
00000000
00000000
00000000
00000101
00000000
,
00000000
00000001
00000010
00001000
00010000
00100000
10000000
00010000
,
00100000
01000000
10000000
00100000
01000000
10000000
01000000
00010000
,
00100000
00001000
00010000
00100000
00010000
00001000
00000100
00000010
,
00001000
00000001
00000010
00001000
00000010
00000001
00000100
00001000
,
00000100
00000010
00001000
00000100
00000010
00001000
00010000
00100000
,
10000000
01000000
00100000
10000000
00100000
00010000
10000000
00100000
,
00010000
00001000
00010000
00000100
00001000
00000010
00000100
00001000
,
00000100
00000001
00000010
00001000
00000010
00000100
00001000
00000010
,
00000100
00001000
00010000
00100000
10000000
00100000
00010000
00001000
,
00011000
00000000
00000000
00000000
;

//---------------dance-single - ----------------
#NOTES:
     dance-single:
     :
     Medium:
     6:
     0.395,0.377,0.132,0.047,0.000:
0000
0000
0000
0000
,
1000
0000
0100
1000
0100
0000
0010
0000
,
0001
0000
1000
0001
1000
0000
0001
0000
,
1001
0000
1000
0010
1000
0000
0001
0000
,
0100
0000
0010
0100
0010
0000
0001
0000
,
1100
0000
0010
0001
0010
0000
0100
0000
,
1000
0000
0010
0100
0010
0000
0001
0000
,
0101
0000
1000
0001
1000
0000
0100
0000
,
1000
0000
0001
0010
0001
0000
0000
0000
,
1010
0000
0010
0100
0000
0100
0000
0001
,
0000
0000
0000
0000
0010
0001
0010
0001
,
1000
0000
0001
0100
0000
0100
0000
0010
,
0000
0000
0000
0000
0010
1000
0010
1000
,
0001
0000
1000
0100
0000
0100
0000
0010
,
0000
0000
0000
0000
0001
1000
0001
1000
,
0100
0000
0010
0001
0000
0001
0000
0100
,
0000
0000
0000
0000
,
1001
0000
0100
0000
0010
1000
0010
0000
,
0000
0000
0100
0000
0010
0100
0010
0100
,
0001
0000
0010
0000
0100
0010
0100
0000
,
0000
0000
0010
0000
0100
1000
0100
1000
,
0010
0000
0100
0000
0010
0100
0010
0000
,
0000
0000
0100
0000
0001
0100
0001
0100
,
0010
0000
0100
0000
0001
0010
0001
0000
,
0000
0000
1000
0000
1000
0100
1000
0100
,
0010
0000
0001
0000
0100
0001
0100
0000
,
0000
0000
0010
0000
1000
0001
1000
0001
,
0010
0000
0001
0000
0010
0001
0010
0000
,
0000
0000
0100
0000
1000
0010
1000
0010
,
0100
0000
0001
0000
1000
0001
1000
0000
,
0000
0000
0001
0000
0010
0001
0010
0001
,
1000
0000
0010
0000
1000
0010
1000
0000
,
0000
0000
0100
0000
0001
1000
0001
1000
,
0002
0000
0000
0000
0003
0000
0100
0010
,
0000
0000
1000
0000
0001
1000
0001
0000
,
2000
0000
3000
0000
0100
0010
0000
0001
,
0000
0000
0100
0000
1000
0001
1000
0000
,
0002
0000
0000
0000
0003
0000
0100
0010
,
0000
0000
1000
0000
0010
0100
0010
0000
,
1001
0000
1001
0000
0100
0010
0000
2002
,
0000
0000
0000
3003
,
0001
0000
0000
0100
0000
0000
1000
0000
,
0100
0000
0000
0001
0000
0000
0100
0000
,
1000
0000
0100
0000
0001
1000
0000
0001
,
0000
0000
0000
0000
,
1000
0000
0100
0000
0010
0001
0000
1000
,
0000
0000
0000
0000
,
0001
0000
0100
0000
0010
1000
0000
0002
,
0000
0000
0000
0003
,
1001
0000
1000
0000
0000
0100
1000
0000
,
0001
0000
0100
0000
0000
0001
0100
0000
,
0001
0000
0010
0000
0000
0001
1000
0000
,
0010
0000
1000
0000
0000
0010
1000
0000
,
0100
0000
0010
0000
0000
0100
0010
0000
,
0001
0000
1000
0000
0000
0001
1000
0000
,
1001
0000
0000
0100
0001
0000
0001
0000
,
0001
0000
0000
0010
0100
0000
0100
0000
,
0100
0000
0000
0100
1000
0000
1000
0000
,
1000
0000
0000
0010
0100
0000
0100
0000
,
0100
0000
0000
0100
0001
0000
0001
0000
,
0001
0000
0000
0001
0010
0000
0010
0000
,
0010
0000
0000
0100
1000
0000
1000
0000
,
1000
0000
0000
1000
0001
0000
0001
0000
,
0001
0000
0000
0100
0010
0000
0010
0000
,
0000
1000
0001
1000
,
0101
0000
0010
1000
0000
1000
0000
0100
,
0000
0000
0000
0000
0010
0100
0010
0100
,
1000
0000
0001
0100
0000
0100
0000
0010
,
0000
0000
0000
0000
0100
0001
1000
0001
,
1000
0000
0100
1000
0000
1000
0000
0010
,
0000
0000
0000
0000
0100
0001
0100
0001
,
0010
0000
0100
0010
0000
0010
0000
0100
,
0000
0000
1000
0000
0001
0100
0001
0000
,
0010
0000
0000
0001
0000
0000
1000
0000
,
1010
0000
0000
1000
0000
0000
0100
0000
,
0110
0000
0000
0010
0000
0000
0001
0000
,
0101
0000
0000
0100
0000
0000
0010
0000
,
0110
0000
1000
0000
0001
1000
0001
0000
,
0010
0000
0100
0000
0010
0100
0010
0000
,
0100
0000
1000
0000
0001
1000
0001
1000
,
0010
0100
0010
0100
0010
0000
1001
0000
,
0110
0000
0000
0000
;

//---------------dance-single - ----------------
#NOTES:
     dance-single:
     :
     Easy:
     4:
     0.279,0.314,0.248,0.000,0.000:
0000
0000
0000
0000
,
1000
0100
0001
0100
,
1000
0100
0001
0000
,
1000
0010
0001
0010
,
1000
0010
0001
0000
,
0001
0100
1000
0100
,
0001
0100
1000
0000
,
0001
0010
1000
0010
,
0001
0010
1000
0000
,
1001
0000
0100
0010
,
0100
0000
1000
1000
,
0001
0000
0010
0100
,
0010
0000
0001
0001
,
1000
0000
0100
0010
,
0100
0000
1000
1000
,
0001
0000
0010
0100
,
0010
0000
0000
1001
,
1001
0000
0100
0010
,
0100
0000
1001
1001
,
0010
0000
1000
0001
,
1000
0000
0110
0110
,
0001
0000
0010
0100
,
0010
0000
1001
1001
,
0100
0000
0001
1000
,
0001
0000
0110
0110
,
1000
0000
0100
1000
,
0100
0000
0011
0011
,
0100
0000
0001
0100
,
0001
0000
1010
1010
,
0100
0000
0001
0010
,
0001
0000
1100
1100
,
0010
0000
1000
0010
,
1000
0000
0001
0100
,
0001
0000
0100
0000
,
1001
0000
0010
0000
,
0100
0000
1000
0000
,
0100
0000
0010
0000
,
0001
0000
0100
0000
,
1001
0000
0100
0000
,
0010
1000
0010
0100
,
0001
0000
0000
0000
,
0100
0000
0101
0000
,
1000
0000
1100
0000
,
0001
0000
0101
0000
,
1000
0001
1000
0000
,
0010
0000
0100
0000
,
1001
0000
0010
0000
,
0100
0000
1000
0000
,
0010
0000
0000
0000
,
0000
1000
0000
1000
,
0000
0001
0000
0001
,
0000
0010
0000
0010
,
0000
0100
0000
0100
,
0000
0010
0000
0010
,
0000
0001
0000
0001
,
0000
1000
0000
1000
,
0000
0010
0000
0010
,
0000
0100
0000
0001
,
1000
0001
0000
0010
,
0100
0010
0000
0100
,
1000
0100
0000
0010
,
0001
0010
0000
0001
,
1000
0001
0000
0100
,
0010
0100
0000
0001
,
1000
0001
0000
0100
,
1001
0000
0001
1000
,
0001
0000
0100
0100
,
0001
0000
0010
0100
,
0010
0000
1000
1000
,
0001
0000
1000
0001
,
1000
0000
0010
0010
,
0100
0000
0001
0100
,
0001
0000
1000
0001
,
0010
0000
0110
0000
,
1100
0000
1010
0000
,
0101
0000
0011
0000
,
0110
0000
1100
0000
,
0001
0001
0001
0001
,
0100
0100
0100
0100
,
0010
0010
0010
0010
,
1000
1000
1000
1000
,
1001
0000
0000
0000
;

//---------------dance-single - ----------------
#NOTES:
     dance-single:
     :
     Beginner:
     3:
     0.202,0.283,0.147,0.000,0.000:
0000
0000
0000
0000
,
1000
0000
0100
0000
,
0001
0000
0010
0000
,
0100
0000
1000
0000
,
0010
0000
0100
0000
,
0001
0000
0010
0000
,
0100
0000
1000
0000
,
0001
0000
0100
0000
,
0010
0000
0100
0000
,
1001
0000
0001
0000
,
0010
0000
0100
0100
,
0100
0000
1000
0000
,
0010
0000
0100
0100
,
0100
0000
0001
0000
,
0010
0000
0100
0100
,
0100
0000
1000
0000
,
0001
0000
0100
0100
,
0100
0000
0010
0000
,
1000
0000
0001
0000
,
0010
0000
0100
0000
,
1000
0000
0001
0000
,
0100
0000
0010
0000
,
1000
0000
0100
0000
,
0010
0000
0100
0000
,
1000
0000
0001
0000
,
0100
0000
0010
0000
,
1000
0000
0001
0000
,
0100
0000
0001
0000
,
0010
0000
0100
0000
,
1000
0000
0001
0000
,
0100
0000
0010
0000
,
1000
0000
0100
0000
,
0010
0000
0001
0000
,
1001
0000
0000
0000
,
0100
0000
0000
0000
,
0110
0000
0000
0000
,
1000
0000
0000
0000
,
1001
0000
0000
0000
,
0010
0000
0000
0000
,
1001
1001
1001
0000
,
1001
0000
0000
0000
,
0100
0000
0100
0000
,
0010
0000
0010
0000
,
1000
0000
1000
0000
,
0100
0000
0100
0000
,
1001
0000
0000
0000
,
0010
0000
0000
0000
,
0110
0110
0110
0000
,
1001
0000
0000
0000
,
1000
0000
0100
0000
,
0001
0000
0100
0000
,
1000
0000
0100
0000
,
0001
0000
0100
0000
,
1000
0000
0010
0000
,
0001
0000
0010
0000
,
1000
0000
0010
0000
,
0001
0000
0010
0000
,
1000
0000
0001
0000
,
1000
0000
0001
0000
,
0010
0000
0100
0000
,
0010
0000
0100
0000
,
0001
0000
0100
0000
,
1000
0000
0100
0000
,
0001
0000
0100
0000
,
1000
0000
0100
0000
,
0001
0000
0100
0000
,
0001
0000
0010
0010
,
0010
0000
1000
0000
,
0100
0000
0010
0010
,
0010
0000
0001
0000
,
0100
0000
0010
0010
,
0010
0000
1000
0000
,
0100
0000
0010
0010
,
0010
0000
0001
0000
,
0100
0000
0010
0000
,
1000
0000
0100
0000
,
1000
0000
0001
0000
,
1001
0000
0110
0000
,
1001
0000
0110
0000
,
1001
0000
0110
0000
,
0001
1000
0001
1000
,
0001
0000
0000
0000
;

//---------------dance-double - ----------------
#NOTES:
     dance-double:
     :
     Medium:
     6:
     0.417,0.440,0.279,0.031,0.004:
00000000
00000000
00000000
00000000
,
00110000
00000000
00100000
00000000
01000000
10000000
01000000
00000000
,
10100000
00000000
01000000
00000000
00001000
00010000
00001000
00000000
,
00011000
00000000
00000100
00000000
00000010
00000100
00000010
00000000
,
00001001
00000000
00000100
00000000
00000001
00001000
00000001
00000000
,
00001100
00000000
00010000
00000000
00001000
00010000
00001000
00000000
,
01010000
00000000
00100000
00000000
10000000
00010000
00100000
00000000
,
01100000
00000000
10000000
00000000
01000000
00100000
00010000
00000000
,
01010000
00000000
00000000
00000000
00001000
00000000
00010000
00001000
00000000
00000000
00000000
00000000
00000000
00000000
00000000
00000000
,
00011000
00000000
00000100
00001000
00000000
00001000
00000000
00000100
,
00000000
00000000
00000000
00000000
00000010
00000001
00000010
00000001
,
00000100
00000000
00000010
00001000
00000000
00001000
00000000
00000100
,
00000000
00000000
00000000
00000000
00010000
00001000
00010000
00001000
,
00100000
00000000
00010000
01000000
00000000
01000000
00000000
00100000
,
00000000
00000000
00000000
00000000
10000000
01000000
10000000
01000000
,
00100000
00000000
00010000
01000000
00000000
01000000
00000000
00100000
,
00000000
00000000
10010000
00000000
10000000
00010000
10000000
00000000
,
00110000
00000000
00000000
00000000
00101000
00000000
00001000
00010000
,
00000000
00000000
00000100
00000000
00001000
00000010
00000100
00000001
,
00001000
00000000
00000000
00000000
00001001
00000000
00000001
00000010
,
00000000
00000000
00000100
00000000
00010000
00001000
00010000
00001000
,
00010000
00000000
00000000
00000000
00110000
00000000
00010000
00100000
,
00000000
00000000
01000000
00000000
10000000
01000000
00100000
00010000
,
10000000
00000000
00000000
00000000
10010000
00000000
00010000
01000000
,
00000000
00000000
00001000
00000000
00010000
00001000
00010000
00001000
,
00010000
00000000
00000000
00000000
00001100
00000000
00000100
00000010
,
00000000
00000000
00000100
00000000
00001000
00000001
00000100
00000010
,
00001000
00000000
00000000
00000000
00001100
00000000
00010000
00001000
,
00000000
00000000
00010000
00000000
00001000
00010000
00001000
00010000
,
00001000
00000000
00000000
00000000
01010000
00000000
00010000
10000000
,
00000000
00000000
00010000
00000000
00100000
01000000
10000000
01000000
,
00100000
00000000
00000000
00000000
00110000
00000000
00001000
00010000
,
00000000
00000000
00000100
00000000
00010000
00001000
00010000
00001000
,
00020000
00001000
00001000
00000100
,
00030100
00000000
00001100
00000000
,
00000012
00001000
00001000
00000100
,
00000103
00000000
00001001
00000000
,
00001200
00001000
00001000
00010000
,
00010300
00000000
00011000
00000000
,
00011000
00000000
00011000
00000000
00001000
00010000
00000000
00001000
,
00000000
00000000
00000000
00000000
,
00100000
00000000
00000000
00110000
00000000
00000000
01000000
00000000
,
10000000
00000000
00000000
10100000
00000000
00000000
01000000
00000000
,
00010000
00000000
00100000
00000000
00010000
00100000
00000000
00001000
,
00000000
00000000
00000000
00010000
00000000
00000000
00000100
00000000
,
00002100
00000010
00000010
00000001
,
00003001
00000000
00001001
00000000
,
00011000
00000000
00011000
00000000
00010000
00001000
00000000
00010000
,
00000000
00000000
00000000
00000000
,
00100000
00000000
01000000
00000000
00000000
10000000
01000000
00000000
,
10000000
00000000
00100000
00000000
00000000
01000000
00010000
00000000
,
00100000
00000000
00001000
00000000
00000000
00010000
00001000
00000000
,
00010000
00000000
00000100
00000000
00000000
00001000
00000010
00000000
,
00000100
00000000
00000001
00000000
00000000
00001000
00000100
00000000
,
00000010
00000000
00000100
00000000
00000000
00001000
00000001
00000000
,
00001000
00000000
00000100
00000000
00000000
00010000
00001000
00000000
,
00010000
00000000
00001000
00000000
00000000
00100000
00010000
00000000
,
01000000
00000000
00100000
00000000
00000000
10000000
00100000
00000000
,
01000000
00000000
00100000
00000000
00000000
01000000
00010000
00000000
,
10000000
00000000
00010000
00000000
00000000
00100000
00001000
00000000
,
00010000
00000000
00001000
00000000
00000000
00010000
00000010
00000000
,
00001000
00000000
00001000
00000000
00001000
00000000
00001000
00000010
,
00000100
00000001
00000100
00000001
,
00000010
00000000
00000010
00000000
00000010
00000000
00000010
00000100
,
00010000
00001000
00010000
00001000
,
00011000
00000000
00100000
00010000
00000000
00010000
00000000
01000000
,
00000000
00000000
00000000
00000000
00100000
10000000
00010000
10000000
,
00010000
00000000
00100000
00001000
00000000
00001000
00000000
00010000
,
00000000
00000000
00000000
00000000
00001000
00010000
00001000
00010000
,
00000100
00000000
00001000
00000100
00000000
00000100
00000000
00001000
,
00000000
00000000
00000000
00000000
00000010
00000100
00000010
00000100
,
00000001
00000000
00000010
00000001
00000000
00000001
00000000
00001000
,
00000000
00001100
00011000
00110000
,
10000000
00000000
01000000
00100000
00000000
00010000
00100000
00000000
,
00001000
00000000
00010000
00001000
00000000
00010000
00000100
00000000
,
00001000
00000000
00000010
00000100
00000000
00000001
00000010
00000000
,
00000100
00000000
00001000
00000010
00000000
00010000
00001000
00000000
,
00100000
00000000
00010000
00100000
00000000
01000000
10000000
00000000
,
01000000
00000000
10000000
00010000
00000000
01000000
00010000
00000000
,
00100000
00000000
00100000
00000000
00100000
00000000
00100000
00010000
,
01000000
00000000
01000000
00000000
01000000
00000000
01000000
00001000
,
00010000
00000000
00000000
00000000
;

//---------------dance-double - ----------------
#NOTES:
     dance-double:
     :
     Easy:
     4:
     0.273,0.314,0.202,0.000,0.000:
00000000
00000000
00000000
00000000
,
10000000
01000000
00010000
00001000
,
00000100
00000001
00000010
00000000
,
00001000
00010000
00100000
10000000
,
01000000
00100000
00001000
00000000
,
00010000
00001000
00000100
00000001
,
00000010
00001000
00010000
00000000
,
00100000
01000000
00010000
10000000
,
01000000
00010000
00001000
00000000
,
00011000
00000000
00001000
00001000
,
00000100
00000000
00000001
00000001
,
00000010
00000000
00001000
00001000
,
00010000
00000000
00000100
00000100
,
00001000
00000000
00010000
00010000
,
00001000
00000000
01000000
01000000
,
00010000
00000000
10000000
10000000
,
01000000
00000000
00110000
00000000
,
10010000
00000000
10000000
00000000
,
10000000
01000000
00010000
01000000
,
10000000
00000000
00100000
00000000
,
00010000
00001000
00010000
00001000
,
00000100
00000000
00000001
00000000
,
00000010
00001000
00000010
00000001
,
00001000
00000000
00000010
00000000
,
00010000
00001000
00010000
00001000
,
00100000
00000000
01000000
00000000
,
10000000
00100000
00010000
00100000
,
10000000
00000000
01000000
00000000
,
00100000
00010000
00100000
00001000
,
00010000
00000000
00001000
00000000
,
00010000
00000100
00001000
00000100
,
00001000
00000000
00000010
00000000
,
00000100
00000010
00000100
00000001
,
00001000
00000000
00001000
00000000
,
00000100
00000000
00000000
00000000
,
00010000
00000000
00010000
00000000
,
00001000
00000000
01000000
00000000
,
00100000
00000000
00100000
00000000
,
10000000
00000000
00000000
00000000
,
11000000
00000000
00110000
00000000
,
00011000
00000000
00000000
00000000
,
00000100
00000000
00001010
00000000
,
00000010
00000000
00000110
00000000
,
00000001
00001000
00000100
00010000
,
00001000
00000000
00000000
00000000
,
00110000
00000000
01000000
00000000
,
10010000
00000000
01000000
00000000
,
10100000
00000000
01010000
00000000
,
00011000
00000000
00000000
00000000
,
00001000
00010000
00000000
00001000
,
00010000
00000100
00000000
00001000
,
00000100
00000010
00000000
00000001
,
00000100
00001000
00000000
00010000
,
00001000
00010000
00000000
01000000
,
10000000
01000000
00000000
00100000
,
00010000
00100000
00000000
00001000
,
00010000
00000100
00000000
00001000
,
00000100
00001000
00000000
00000010
,
00001000
00000010
00000000
00010000
,
00001000
01000000
00000000
00010000
,
00100000
01000000
00000000
10000000
,
01000000
00100000
00000000
00010000
,
01000000
00100000
00000000
00010000
,
00001000
00010000
00000000
00000100
,
00001000
00000100
00000010
00000001
,
00000100
00000000
00001000
00001000
,
00000100
00000000
00010000
00010000
,
00001000
00000000
01000000
01000000
,
00010000
00000000
00100000
00100000
,
01000000
00000000
10000000
10000000
,
00100000
00000000
01000000
01000000
,
00010000
00000000
00100000
00100000
,
00001000
00000000
00010000
00010000
,
00000010
00000000
00001010
00000000
,
00001100
00000000
00011000
00000000
,
01010000
00000000
00110000
00000000
,
11000000
00000000
10010000
00000000
,
01010000
00000000
00110000
00000000
,
00011000
00000000
00001010
00000000
,
00000110
00000000
00000101
00000000
,
00000010
00000100
00010000
00001000
,
01000000
00000000
00000000
00000000
;

//---------------dance-single - "X"----------------
#NOTES:
     dance-single:
     "X":
     Challenge:
     10:
     0.661,0.773,0.342,0.295,0.376: // measure 1
0000
0000
0000
0000
,  // measure 2
0001
0000
0000
0000
0010
0000
0000
0000
0110
0000
0000
0000
0100
0000
1000
0000
M000
0000
M000
0000
M000
0000
0000
0000
0010
0000
0100
0000
0000
0000
0010
1000
,  // measure 3
0010
0100
0100
0000
0001
0000
0010
0100
0M00
0M00
0M00
1000
0010
0001
0010
1000
,  // measure 4
0100
0000
0M00
0000
0M00
0000
0M00
0000
0010
0000
0000
0000
0100
0000
0100
0000
0000
0000
0000
0000
0000
0000
0000
0000
1000
0000
M000
0000
0000
0000
0100
0010
,  // measure 5
0100
0000
0000
0000
0010
0000
0001
0010
0100
1000
0000
0000
0100
0010
0100
1000
,  // measure 6
0010
0000
0000
0000
0100
0000
0000
0000
0101
0000
0001
0000
0010
0000
0100
0000
0M00
0000
0M00
0000
0M00
0000
0000
0000
1100
0000
1000
0000
0100
0000
1000
0010
,  // measure 7
0100
0000
0101
0000
0011
0010
0100
1000
M000
0000
0000
0000
1000
0010
0100
0001
,  // measure 8
0010
0000
0100
0000
1000
0000
0010
0001
0000
1000
0000
0100
0000
0001
0000
0000
,  // measure 9
0101
0000
0001
0000
0010
0000
0100
1000
M000
M000
M000
M000
M000
M000
M000
0000
,  // measure 10
0202
0000
0000
1000
0000
0010
0000
1010
,  // measure 11
0303
0000
0000
0000
0000
0000
0001
0010
1000
0000
0010
0000
1000
0000
0010
0000
,  // measure 12
2020
0000
0000
0100
0000
0001
0000
0101
,  // measure 13
3030
0000
0000
0000
0000
0000
0001
0100
1000
0000
0100
0000
1000
0000
0100
0000
,  // measure 14
2200
0000
0000
0010
0000
0001
0000
0011
,  // measure 15
3300
0000
0000
0000
0000
0000
0010
0100
1000
0000
0010
0000
1000
0000
0010
0000
,  // measure 16
2000
0000
0000
0000
3010
0100
0001
0000
,  // measure 17
0001
0100
1000
0000
1000
0100
0001
0000
,  // measure 18
0101
0001
0100
1000
0100
0001
0010
0100
,  // measure 19
1000
0100
0001
0100
1000
0010
0100
0001
,  // measure 20
0010
0100
1000
0010
0001
0010
1000
0000
,  // measure 21
1010
0000
0001
1000
0001
1000
0001
1000
,  // measure 22
0001
0010
0100
1000
0000
0010
0000
0100
,  // measure 23
MMM0
0000
0000
0000
0000
0000
0001
0100
0001
0000
0010
0000
0100
0000
0001
0000
,  // measure 24
0100
0000
1000
0100
1000
0000
0010
0000
0000
0000
0001
0000
0000
0000
0010
0000
,  // measure 25
0MMM
0000
0000
0000
0000
0000
0000
0010
0100
1000
0001
0000
0010
0000
0100
0000
,  // measure 26
1100
0000
1000
0010
0100
0000
0001
0000
0000
0000
0010
0000
0000
0000
1000
0000
,  // measure 27
MMM0
0000
0000
0000
0000
0000
0001
0100
1000
0000
0010
0000
0100
0000
0001
0000
,  // measure 28
0010
0000
0100
1000
0001
0000
0010
0000
0000
0000
0100
0000
0000
0000
1000
0000
,  // measure 29
0000
0000
0000
0000
0000
0000
0100
1000
0010
0000
0001
0000
0010
0000
1000
0000
,  // measure 30
0100
0000
0100
0010
0001
0000
0010
0000
0000
0000
0100
0000
0000
0000
0010
0000
,  // measure 31
M0MM
0000
0000
0000
0000
0000
0100
1000
0100
0000
1000
0000
0100
0000
0001
0000
,  // measure 32
0100
0000
0001
0100
1000
0000
0100
0000
0000
0000
0010
0000
0000
0000
0001
0000
,  // measure 33
0004
4000
0000
0000
0000
0000
0000
0000
0000
0000
0000
3003
0000
0000
0000
0000
,  // measure 34
0002
0000
0010
0000
0013
0100
1000
0020
,  // measure 35
0000
0000
0100
0000
1030
0010
0100
0001
,  // measure 36
0020
0000
1000
0000
0031
1000
0000
0020
,  // measure 37
0100
0000
0100
0000
0030
0001
0010
1000
,  // measure 38
0200
0000
0010
0000
0301
0100
1000
0020
,  // measure 39
0100
0000
0100
0000
1030
0100
0010
0000
,  // measure 40
MM11
0000
M11M
0000
11MM
1M1M
0000
M2M2
,  // measure 41
0000
0000
0000
0303
,  // measure 42
M001
00M0
M000
010M
M0M0
0M00
M0M1
0M00
,  // measure 43
01M0
0000
M000
0000
0M00
0000
0010
0000
000M
0000
0M00
0000
0100
0001
M100
0001
,  // measure 44
0100
000M
00M0
0000
0M00
0000
M001
0000
0000
0000
0M00
0000
M01M
0000
00M0
0000
,  // measure 45
M10M
0000
000M
M000
00M0
0M00
100M
00M0
0M00
M000
00M0
0M00
M001
00M0
0M00
0000
,  // measure 46
2000
00M0
000M
0M00
0000
0000
001M
0000
0M00
00M0
0000
0000
00M1
0000
3M20
0000
,  // measure 47
0130
M00M
0M00
100M
00M0
0M00
M001
00M0
,  // measure 48
M100
000M
0010
0M00
M100
00M1
M000
0M20
,  // measure 49
0000
000M
0000
0000
0000
0000
0030
0100
,  // measure 50
0100
0000
1000
0000
0010
0100
0001
0000
,  // measure 51
0002
0000
0000
0000
0013
0100
0010
0100
0010
0000
0010
0100
1000
0000
0001
0010
,  // measure 52
0100
0000
0100
1000
0010
0100
0001
0001
,  // measure 53
0000
0000
0010
0000
0100
0000
1000
0000
0100
0000
0001
0000
0100
0000
1000
0100
,  // measure 54
1000
0000
0010
0000
0100
0000
0001
0000
0010
0100
1000
0000
0100
0000
0001
0100
,  // measure 55
1000
0010
0100
0001
0010
0100
1000
0010
,  // measure 56
0001
0010
1000
0100
0001
0100
1000
0010
,  // measure 57
0100
0010
0100
0001
0010
0100
1000
0100
,  // measure 58
2100
0000
0000
0000
3010
0000
0000
0000
0010
0100
0010
0000
0200
0000
0300
0000
,  // measure 59
0002
0000
0000
0000
0013
0100
0010
0100
4000
0000
0000
0000
0000
0000
3000
0000
,  // measure 60
0020
0000
0000
0000
0130
0000
0100
0001
0100
0000
0002
0000
0023
0000
0130
0000
,  // measure 61
0000
0000
0100
0000
1000
0100
1000
0100
1000
0000
0010
0000
0100
0000
0001
0000
,  // measure 62
0020
0000
0000
0000
0130
0000
0000
0000
0100
1000
0100
0000
1000
0000
0000
0000
,  // measure 63
0020
0000
0000
0000
0130
0001
0100
0001
0400
0000
0000
0000
0000
0000
0000
0300
,  // measure 64
0001
0000
0001
0000
0010
0100
0010
0100
0010
0000
0200
0000
2300
0000
3000
0000
,  // measure 65
0020
0230
0000
0000
,  // measure 66
0301
0000
0010
0100
1000
0000
0001
0000
0000
0000
0011
0000
0000
0000
1100
0000
,  // measure 67
0000
0000
0000
0000
0000
0000
1000
0010
0100
0000
0001
0000
0010
0000
1000
0000
,  // measure 68
0010
0000
0001
0100
0001
0000
1010
0000
0000
0000
0101
0000
0000
0000
0110
0000
,  // measure 69
0000
0000
0000
0000
0000
0000
0010
0100
0001
0000
0010
0000
1000
0000
0010
0000
,  // measure 70
0001
0000
0100
0010
0100
0000
0110
0000
0000
0000
1001
0000
0000
0000
0110
0000
,  // measure 71
0000
0000
0000
0000
0000
0000
0010
0100
0001
0000
0010
0000
0100
0000
1000
0000
,  // measure 72
0001
0000
0100
0010
0100
0000
0000
0000
0010
0000
1000
0001
1000
0000
0000
0000
,  // measure 73
0001
0010
0100
1000
0001
0010
0100
1000
,  // measure 74
0110
0001
1000
0110
1000
0001
0110
1000
,  // measure 75
1100
0000
0100
0000
1000
0000
1100
0000
0100
0000
1000
0000
0100
1000
0100
1000
,  // measure 76
0100
1000
0010
1010
0100
0001
1010
0100
,  // measure 77
0101
0010
1000
0101
0010
1000
0101
0001
,  // measure 78
0101
0001
0010
0110
0100
1000
1100
1000
,  // measure 79
1010
0000
0010
0000
0100
0000
0101
0000
0001
0000
0010
0000
0100
1000
0100
1000
,  // measure 80
0100
1000
0010
0100
0001
0010
0100
1000
,  // measure 81
0004
0040
0000
0000
0000
0000
0000
0000
0000
0000
0000
0000
0000
0000
0030
0003
,  // measure 82
0200
0000
0000
0000
,  // measure 83
0000
0000
0000
0000
,  // measure 84
0300
0000
0000
0000
;
