#TITLE:Viva L'Amor;
#SUBTITLE:;
#ARTIST:Tess;
#TITLETRANSLIT:;
#SUBTITLETRANSLIT:;
#ARTISTTRANSLIT:;
#GENRE:;
#CREDIT:;
#MENUCOLOR:;
#METERTYPE:DDR;
#BANNER:Viva L'Amor.png;
#BACKGROUND:Viva L'Amor-BG.png;
#LYRICSPATH:Viva L'Amor.lrc;
#CDTITLE:ddrencorecdtitle.png;
#MUSIC:Viva L'Amor.mp3;
#OFFSET:-3.875;
#SAMPLESTART:38.072;
#SAMPLELENGTH:15.500;
#SELECTABLE:YES;
#LISTSORT:;
#BPMS:0.000=126.000,152.000=63.000,162.000=126.000;
#STOPS:;
#BGCHANGES:;
#ATTACKS:;

//---------------dance-single - ----------------
#NOTES:
     dance-single:
     :
     Hard:
     8:
     0.462,0.543,0.298,0.174,0.273: // measure 1
0000
0000
0000
0000
,  // measure 2
0000
0000
0000
1001
,  // measure 3
1000
0000
0000
0001
0000
0010
0001
0000
1000
0000
0000
0010
0000
0100
0010
0000
,  // measure 4
0000
0000
1000
0000
0100
0000
0000
0000
0100
0000
1000
0010
0000
0010
0100
0000
,  // measure 5
0001
0000
0000
1000
0000
0100
1000
0000
0010
0000
0000
0100
0000
0001
0100
0000
,  // measure 6
0010
0100
0110
1001
,  // measure 7
0010
0000
0000
0000
1000
0000
0000
0010
0000
0000
0100
0000
0001
0000
1000
0000
,  // measure 8
0010
0000
0000
0000
0100
0000
0000
0001
0000
0000
1000
0000
0100
0000
0010
0000
,  // measure 9
0001
0000
0000
0000
1000
0000
0000
0010
0100
0000
0000
0000
0001
0000
0010
0000
,  // measure 10
0100
0000
1000
0000
1001
0000
0100
0010
,  // measure 11
1000
0000
0000
0000
0001
0000
0000
0010
0000
0000
0100
0000
1000
0000
0001
0000
,  // measure 12
0010
0000
0000
0000
0001
0000
0000
0100
0000
0000
0010
0000
1000
0000
0001
0000
,  // measure 13
0010
0000
0000
0000
0001
0000
0000
1000
0010
0000
0000
0000
0100
0000
0010
0000
,  // measure 14
1000
0001
0101
1001
,  // measure 15
2010
0000
0100
0000
0001
0000
3100
1000
,  // measure 16
0002
0100
2000
3003
,  // measure 17
1000
0000
0000
0010
0100
0000
0001
0000
0010
0000
0000
0100
0010
0000
0001
0000
,  // measure 18
1000
0000
0010
0010
,  // measure 19
0010
1000
0000
1000
0001
0000
0010
0000
0100
0000
0010
0000
0001
0000
1000
0000
,  // measure 20
0010
0000
0100
0001
1000
0000
1000
0000
,  // measure 21
1000
0000
0000
0010
0000
0100
0010
0000
1000
0000
0001
0000
0010
0000
0001
0000
,  // measure 22
2000
3020
0230
0302
,  // measure 23
1003
0010
0000
0010
0100
0000
0000
0000
0001
0000
0100
0000
0010
0000
1000
0000
,  // measure 24
0100
0000
0010
0100
0001
0000
0100
0000
,  // measure 25
1000
0000
0000
0001
0000
0100
0001
0000
1000
0000
0100
0000
0010
0000
0001
0000
,  // measure 26
1001
0101
0110
1010
,  // measure 27
1100
0000
0000
0100
0000
0000
1000
0000
0010
0000
0000
0100
0000
0001
0010
0000
,  // measure 28
0001
0000
0000
0100
0000
0000
0010
0000
1000
0000
0000
0100
0000
0010
0100
0000
,  // measure 29
0010
0000
0000
0001
0000
0000
1000
0000
0010
0000
0000
0100
0000
0001
0010
0000
,  // measure 30
0100
0000
0000
1000
0000
0000
0010
0000
1000
0000
0000
0000
0010
0000
1000
0000
,  // measure 31
0001
0000
0000
0001
0000
0010
0100
0000
0010
0000
0001
0100
0001
0000
1000
0000
,  // measure 32
0010
0000
0000
0100
0000
0001
0010
0000
0001
0000
1000
0100
1000
0100
1000
0000
,  // measure 33
0001
0000
0000
0100
0000
0000
0010
0000
1000
0000
0001
0000
0100
0000
0010
0000
,  // measure 34
1010
0001
0110
0100
,  // measure 35
1001
0000
0000
0000
0010
0000
0000
0001
0000
0000
0100
0000
0000
0000
0010
0000
,  // measure 36
0000
0100
0010
0100
0001
1000
0010
0100
,  // measure 37
0001
0000
0000
0000
0100
0000
0000
0001
0000
0000
1000
0000
0000
0000
0100
0000
,  // measure 38
0010
0000
0110
0011
,  // measure 39
2001
0000
0010
0000
3010
0000
0100
0000
0002
0000
0010
0000
0013
0000
0000
0010
,  // measure 40
0001
0000
0000
1000
0000
0000
0100
0000
1000
0000
0000
0001
0000
0000
0100
0000
0001
0000
0000
0000
0000
0000
0000
0000
0110
0000
0000
0000
1001
0000
0000
0000
,  // measure 41
1000
0000
0001
0100
0000
0001
0100
0000
0010
0000
0000
0000
1100
0000
0000
0000
0001
0000
1000
0000
0000
0000
1000
0000
0010
0000
0000
0000
0100
0000
0000
0000
,  // measure 42
0010
1000
0001
0100
0010
0000
0010
1000
,  // measure 43
0100
0000
0000
0000
0101
0000
0000
0000
0100
0000
0000
1000
0000
0010
0100
0000
,  // measure 44
0001
1000
0100
0010
0002
0000
2003
0000
,  // measure 45
3020
0000
0000
0000
0230
0000
0000
0000
0301
0010
0000
0010
0100
0000
0000
0000
,  // measure 46
1000
0100
0001
0100
0010
0000
0001
0100
,  // measure 47
1000
0000
0000
0000
0100
0000
0000
0000
0001
0000
0000
0010
0000
0100
1000
0000
,  // measure 48
0010
0100
0001
1000
1100
0000
1001
0000
,  // measure 49
0101
0110
2010
0100
,  // measure 50
0001
3100
0210
1000
,  // measure 51
0001
0300
0110
0000
1002
0000
0100
0000
,  // measure 52
0010
0000
0000
0000
1003
0000
0000
0000
0010
0000
0000
1000
0000
0000
0001
0000
,  // measure 53
0010
0000
0000
0001
0000
1000
0100
0000
2100
0000
0000
0000
0010
0000
0000
0000
,  // measure 54
0001
3100
0102
0010
,  // measure 55
1000
0003
0010
0100
0210
0000
0001
0000
,  // measure 56
1000
0000
0310
1000
1001
0000
1000
0000
,  // measure 57
0101
0010
2200
0000
,  // measure 58
3300
0000
0000
0000
;

//---------------dance-single - ----------------
#NOTES:
     dance-single:
     :
     Medium:
     6:
     0.325,0.307,0.182,0.141,0.025:
0000
0000
0000
0000
,
0000
0000
0000
1001
,
1000
0001
0100
0001
,
1000
0010
0100
0000
0001
0000
1001
0000
,
0010
0001
1000
0010
,
0100
0001
0010
0001
,
1001
0000
0000
0000
1000
0000
0000
1000
0000
0000
0001
0000
1000
0000
0000
0000
,
0100
0000
0000
0000
0001
0000
0000
0001
0000
0000
1000
0000
0010
0000
0000
0000
,
1000
0000
0001
0000
0100
0000
0010
1000
,
0100
0000
0010
0000
1001
0000
0010
0100
,
0001
0000
0000
0000
1000
0000
0000
1000
0000
0000
0001
0000
0010
0000
0000
0000
,
0001
0000
0000
0000
0100
0000
0000
0100
0000
0000
0010
0000
1000
0000
0000
0000
,
0001
0000
0010
0000
0001
0000
1000
0100
,
0010
0001
1100
1001
,
0102
1000
1000
0003
,
2010
0100
0100
3000
,
0001
0000
0000
0100
0000
0000
0001
0000
1000
0000
0000
0100
0000
0000
1000
0000
,
0001
0000
1000
1000
,
0101
0000
0010
0000
1000
0000
0001
0100
,
0002
1000
1003
0001
,
1000
0000
0010
0000
0101
0000
0001
1000
,
0001
0010
0110
1001
,
0001
0000
1000
0000
0010
0000
0100
0001
,
0200
0010
0310
0001
,
1000
0000
0010
0000
0101
0000
0100
0010
,
1000
0001
0010
0001
,
0100
0010
0100
0010
,
1000
0001
1000
0001
,
0100
0001
0100
0001
,
0100
0010
1000
0000
,
0001
0000
1000
0000
0100
0000
0010
0001
,
1000
0000
0010
0000
0100
0001
0100
0010
,
1000
0000
0001
0000
0010
0000
0001
0100
,
0010
0000
0100
0000
,
0001
1000
0001
0100
,
0010
0000
1000
0001
1000
0001
1000
0000
,
0010
0100
0001
1000
,
1001
0000
0100
0100
,
0200
0000
0000
0300
0002
0000
0000
0003
,
1100
0000
1001
0000
0101
0000
0010
0100
,
0002
0000
0000
1003
0101
0000
0010
0000
,
1000
0000
0010
0100
0002
0000
0100
0000
,
0103
0000
1000
0010
,
0101
0000
0001
1000
0100
0000
0010
0000
,
0001
1000
1010
0100
,
0001
0000
0010
0100
2000
0000
0001
0000
,
3001
0010
0001
1000
,
0101
0000
0010
1000
0001
0000
0010
0000
,
0001
1000
0020
0100
,
1000
0130
0002
1000
,
0010
1003
0200
0010
,
1000
0310
0001
1000
,
0100
0010
0002
1000
,
0010
0103
0020
1000
,
0001
0130
0002
0010
,
1000
0000
0103
0010
1000
0000
0001
0000
,
0010
0100
2002
0000
,
3003
0000
0000
0000
;

//---------------dance-single - ----------------
#NOTES:
     dance-single:
     :
     Easy:
     3:
     0.220,0.260,0.091,0.182,0.000:
0000
0000
0000
0000
,
0000
0000
0000
0000
,
1000
0001
0100
0001
,
1000
0000
1000
0000
,
0010
1000
0001
0010
,
0001
0000
1000
0000
,
0010
0100
0001
0000
,
1000
0100
0010
0000
,
0002
0000
0000
0003
,
2000
0000
0000
3000
,
0010
0100
0001
0000
,
0010
0100
1000
0000
,
0020
0000
0000
0030
,
0200
0000
0001
0301
,
1000
0000
0001
0000
,
0100
0010
1000
0000
,
1001
0000
0110
0000
,
1001
0000
0000
0000
,
0100
0110
0010
1000
,
0002
0000
0013
0000
,
0100
0010
0001
1000
,
0020
1000
0100
1030
,
0001
1001
1000
0100
,
0020
0000
0031
0000
,
0100
0010
1000
0001
,
1001
0000
0110
0000
,
1001
0000
0001
0000
,
0100
0000
0010
1000
,
0001
0000
0010
0000
,
0001
0000
0100
0010
,
1000
0001
0100
0001
,
1000
0100
0010
0001
,
1000
0010
0100
0001
,
0100
0000
0010
0000
,
1000
0000
0001
0000
,
0100
0000
0010
0100
,
0001
0000
1000
0000
,
0100
0000
0010
0010
,
0020
0000
0032
0000
,
0103
0010
1000
0002
,
0200
0303
1000
1001
,
0001
0100
0020
1000
,
1030
0000
0001
0100
,
0010
1000
0002
0010
,
0100
0013
0001
1001
,
1000
0010
0200
0001
,
0301
0000
0001
1000
,
0100
0010
0001
0000
,
0100
0000
0020
0000
,
1000
0000
2030
0000
,
0001
0000
3002
0000
,
0100
0000
0103
0010
,
1000
0001
0020
0000
,
0001
0000
0032
0000
,
0100
0100
0203
0000
,
0010
0000
0310
0000
,
1000
0000
2002
0000
,
3003
0000
0000
0000
;

//---------------dance-single - ----------------
#NOTES:
     dance-single:
     :
     Beginner:
     1:
     0.122,0.164,0.075,0.000,0.000:
0000
0000
0000
0000
,
0000
0000
0000
0000
,
1000
0000
0001
0000
,
1000
0000
0010
0000
,
1000
0000
0001
0000
,
1000
0000
0100
0100
,
0100
0000
0000
0000
,
1000
0000
0000
0000
,
1001
0000
0000
0000
,
0100
0000
0000
0000
,
0010
0000
0000
0000
,
0100
0000
0000
0000
,
1001
0000
0000
0000
,
0010
0000
1000
1000
,
1000
0000
0001
0000
,
0010
0000
0001
0000
,
0100
0000
0010
0000
,
1001
0000
0000
0000
,
0010
0010
0000
0000
,
1000
0000
0001
0000
,
0010
0010
0010
0000
,
0001
0000
1000
0000
,
0100
0100
0000
0000
,
0010
0000
0001
0000
,
0100
0100
0100
0000
,
0010
0000
1000
0000
,
1001
0000
0000
0000
,
1001
0000
0000
0000
,
1001
0000
0000
0000
,
1001
0000
0000
0000
,
0001
0000
0100
0000
,
0001
0000
1000
0000
,
0100
0000
1000
0000
,
0001
0000
0000
0000
,
1001
0000
0000
0000
,
0010
0000
1000
0000
,
0001
0000
0000
0000
,
0010
0000
0000
0000
,
0001
0000
1000
0000
,
0010
0000
0100
0000
,
0001
0000
1000
1000
,
0000
0000
0001
0000
,
0100
0000
0010
0010
,
0010
0000
1000
0000
,
0001
0000
0010
0010
,
0000
0000
0001
0000
,
1000
0000
0100
0100
,
0100
0000
1000
0000
,
0010
0000
0100
0000
,
0000
0000
0010
0000
,
0000
0000
1000
0000
,
0000
0000
0001
0000
,
0000
0000
0100
0000
,
0000
0000
0010
0000
,
0000
0000
1000
0000
,
0001
0000
1000
0000
,
0001
0000
1001
0000
;

//---------------dance-double - ----------------
#NOTES:
     dance-double:
     :
     Easy:
     3:
     0.218,0.236,0.075,0.157,0.000:
00000000
00000000
00000000
00000000
,
00000000
00000000
00000000
00000000
,
10000000
00000000
00010000
00000000
,
01000000
00001000
00010000
00001000
,
00010000
00000000
00000010
00000000
,
00000100
00000001
00000100
00000001
,
00001000
00000000
00000010
00001000
,
00000100
00000000
00000010
00000001
,
00001000
00000000
00000100
00000000
,
00010000
00000000
00001000
00000000
,
00010000
00001000
00100000
00000000
,
00010000
01000000
00100000
00000000
,
10000000
00000000
00010000
00000000
,
01000000
00000000
00001000
00010000
,
00022000
00000000
00000000
00033000
,
00020200
00000000
00000000
00030300
,
00000100
00000000
00000010
00000000
,
00000001
00000000
00001000
00000100
,
00001000
00001000
00000010
00000100
,
00000001
00000000
00001000
00000000
,
00000100
00010000
00001000
00100000
,
00010000
00010000
01000000
01000000
,
00100000
00100000
10000000
00100000
,
01000000
00000000
00010000
00000000
,
00010000
01000000
00100000
10000000
,
10010000
00000000
00011000
00000000
,
00001001
00000000
00000100
00000000
,
00000010
00000000
00001000
00000000
,
00000100
00000010
00000100
00001000
,
00000010
00000100
00000001
00001000
,
00000100
00000000
00010000
00000000
,
00001000
00000000
00100000
00000000
,
00010000
00000000
01000000
00000000
,
00100000
10000000
00010000
00100000
,
01000000
00000000
10000000
00000000
,
00010000
01000000
00010000
10000000
,
01000000
00000000
00100000
00000000
,
00010000
00000000
01000000
00001000
,
00011000
00000000
00000100
00000000
,
00000010
00000001
00000100
00000000
,
00000020
00000000
00000000
00001000
00001030
00000000
00000001
00000000
,
00000100
00000010
00001000
00000100
,
00010000
00000000
00001000
00010000
,
00000010
00001000
00000001
00001001
,
00001000
00001001
00000001
00001000
,
00000010
00000100
00000001
00000000
,
00001000
00000000
00000100
00010000
,
00001000
00100000
00010000
01000000
,
00100000
10000000
02000000
00000000
,
23000000
00000000
30020000
00000000
,
02030000
00000000
03002000
00000000
,
00023000
00000000
00032000
00000000
,
00013000
00001000
00020000
00000000
,
00030020
00000100
00000230
00000000
,
00000302
00001000
00002003
00000000
,
00003100
00000100
00010000
00000000
,
00001000
00000000
00022000
00000000
,
00033000
00000000
00000000
00000000
;

//---------------dance-double - ----------------
#NOTES:
     dance-double:
     :
     Hard:
     8:
     0.432,0.472,0.116,0.174,0.269:
00000000
00000000
00000000
00000000
,
00000000
00000000
00000000
00001001
,
00000001
00000000
00000000
00000100
00000000
00000000
00000010
00000000
00001000
00000000
00000000
00000100
00000000
00000000
00010000
00000000
,
00001000
00000000
00000100
00000000
00000010
00000000
00000000
00000000
00001000
00000000
00000100
00010000
00000000
00010000
00001000
00000000
,
00100000
00000000
00000000
00010000
00000000
00000000
01000000
00000000
00010000
00000000
00000000
00100000
00000000
00000000
01000000
00000000
,
10000000
00010000
01000000
00100000
,
10000000
00000000
00000000
00000000
01000000
00000000
00000000
10000000
00000000
00000000
00010000
00000000
01000000
00000000
00100000
00000000
,
01000000
00000000
00000000
00000000
00010000
00000000
00000000
00100000
00000000
00000000
00001000
00000000
00010000
00000000
00000100
00000000
,
00000010
00000000
00000000
00000010
00000000
00000000
00000001
00000000
00000100
00000000
00000010
00000000
00001000
00000000
00000100
00000000
,
00010000
00000000
00010000
00000100
00001000
00000000
00000010
00000100
,
00000001
00000000
00000000
00000000
00001000
00000000
00000000
00000010
00000000
00000000
00000100
00000000
00000001
00000000
00000010
00000000
,
00000100
00000000
00000000
00000000
00000010
00000000
00000000
00000100
00000000
00000000
00001000
00000000
00000010
00000000
00000100
00000000
,
00001000
00000000
00000000
00001000
00000000
00000000
00000100
00000000
00000010
00000000
00010000
00000000
00001000
00000000
00100000
00000000
,
00010000
00000000
00010000
01000000
00100000
00000000
10100000
00000000
,
10010000
00000000
00000000
00000000
10000000
00000000
00000000
00010000
01000000
00000000
00100000
00000000
10000000
00000000
01000000
00000000
,
00010000
00000000
01000000
10000000
00100000
00000000
01010000
00000000
,
01000000
00000000
00000000
01000000
00001000
00000000
00010000
00000000
00001000
00000000
00000000
00010000
00001000
00000000
00000010
00000000
,
00000002
00000000
00000100
00000103
,
00000010
00001000
00000000
00000010
00001000
00000000
00000000
00000000
00000100
00000000
00000001
00000000
00001000
00000000
00000100
00000000
,
00000010
00000000
00000100
00001000
00000010
00000000
00000100
00000000
,
00000010
00000000
00000000
00001000
00000000
00000100
00010000
00000000
00001000
00000000
00100000
00000000
00010000
00000000
01000000
00000000
,
00200000
20300000
30020000
02030000
,
03010000
00100000
00000000
00010000
00100000
00000000
00000000
00000000
01000000
00000000
00000000
00000000
10000000
00000000
00010000
00000000
,
01000000
00000000
00001000
00010000
00000010
00000000
00001000
00000000
,
00000010
00000000
00000000
00000100
00000000
00000001
00000100
00000000
00000000
00000000
00000100
00000000
00000010
00000000
00001000
00000000
,
00000001
00000100
00000010
00001000
,
00001001
00000000
00000000
00000100
00000000
00000000
00000010
00000000
00001000
00000000
00000000
00000001
00000000
00000000
00000010
00000000
,
00000100
00000000
00000000
00001000
00000000
00000000
00000010
00000000
00010000
00000000
00000000
00001000
00000000
00000000
00010000
00000000
,
00000100
00000000
00000000
00001000
00000000
00000000
00000010
00000000
00000100
00000000
00000000
00000010
00000000
00000000
00001000
00000000
,
00000100
00000000
00000000
00010000
00000000
00000000
00001000
00000000
00100000
00000000
00000000
00000000
01000000
00000000
00000000
00000000
,
10000000
00000000
00000000
00010000
00000000
01000000
00100000
00000000
10000000
00000000
00000000
00010000
01000000
00000000
00100000
00000000
,
10000000
00000000
00000000
01000000
00000000
01000000
10000000
00000000
00100000
00000000
01000000
00010000
01000000
00001000
01000000
00000000
,
00001000
00000000
00000000
00010000
00000000
00000000
00000010
00000000
00000100
00000000
00000000
00000010
00000000
00000000
00001000
00000000
,
00001001
00000100
00000110
00001000
,
00010100
00000000
00000000
00000000
00010000
00000000
00000000
00001000
00000000
00000000
00100000
00000000
00000000
00000000
00010000
00000000
,
00000000
00100000
00010000
01000000
00100000
01000000
00010000
00100000
,
00001000
00000000
00000000
00000000
00010000
00000000
00000000
00000010
00000000
00000000
00000100
00000000
00000000
00000000
00000001
00000000
,
00000100
00000000
00000010
00000100
,
00000002
00000000
00000000
00000000
00000003
00000000
00000000
00000000
00002000
00000000
00000000
00000000
00003000
00000000
00000000
00000100
,
00010000
00000000
00000000
00000010
00000000
00000000
00000100
00000000
00000001
00000000
00000000
00000010
00000000
00000000
00000100
00000000
00010000
00000000
00000000
00000000
00000000
00000000
00000000
00000000
00001010
00000000
00000000
00000000
00000001
00000000
00000000
00000000
,
00000210
00000000
00000000
00000010
00000000
00000000
00000010
00000000
00000310
00000000
00000000
00000000
00000110
00000000
00000000
00000000
00001000
00000000
00000010
00000000
00000000
00000000
00001000
00000000
00000010
00000000
00000000
00000000
00000000
00000000
00000000
00000000
,
00000100
00000001
00001000
00000100
00000010
00000000
00000100
00001000
,
00000010
00000000
00000000
00000000
00010000
00000000
00000000
00000000
00001000
00000000
00000000
00100000
00000000
00010000
01000000
00000000
,
00100000
10000000
00010000
00100000
00002000
00000000
00023000
00000000
,
00230000
00000000
00000000
00000000
02300000
00000000
00000000
00000000
03010000
10000000
00000000
00010000
10000000
00000000
00000000
00000000
,
01000000
00000000
00100000
00010000
01000000
00000000
00100000
10000000
,
00010000
00000000
00000000
00000000
00100000
00000000
00000000
00000000
00001000
00000000
00000000
00010000
00000000
00001000
01000000
00000000
,
00001000
00010000
00000010
00001000
00000100
00000000
00000010
00000000
,
00000001
00000000
00000000
00000000
00001000
00000000
00000000
00000000
00000020
00000000
00000000
00000100
00000000
00000000
00001000
00000000
,
00001030
00000000
00000000
00000000
00000001
00000000
00000000
00000000
00002000
00000000
00000000
00000100
00000000
00000000
00000010
00000000
,
00003010
00000000
00000000
00000000
00001000
00000000
00000100
00000000
00020000
00000000
00000000
00000010
00000000
00000000
00001000
00000000
,
00031000
00000000
00000000
00000000
00001000
00000000
01000000
00000000
00200000
00000000
00000000
10000000
00000000
00000000
01000000
00000000
,
01300000
00000000
00000000
00000000
10010000
00000000
00000000
00000000
01020000
00000000
00000000
00100000
00000000
00000000
10000000
00000000
,
10030000
00000000
00000000
00100000
01000000
00000000
00010000
00000000
00200000
00000000
00000000
00010000
00000000
00000000
01000000
00000000
,
01300000
00000000
00100000
00000000
00010000
00000000
01000000
00000000
00002000
00000000
00000000
00010000
00000000
00000000
00100000
00000000
,
00103000
00000000
00000000
00001000
00010000
00000000
00000100
00000000
00000010
00000000
00000000
00000000
00000001
00000000
00000000
00000000
,
00000100
00000010
00002002
00000000
,
00003003
00000000
00000000
00000000
;

//---------------dance-double - ----------------
#NOTES:
     dance-double:
     :
     Medium:
     5:
     0.293,0.307,0.191,0.075,0.017:
00000000
00000000
00000000
00000000
,
00000000
00000000
00000000
00000000
,
00001000
00100000
00001000
00010000
,
00000100
00000010
00000001
00001000
,
00000001
00001000
00000010
00000100
,
00000001
00000001
00001000
00000100
,
00010100
00000000
00010000
00000000
00001000
00100000
00001000
00000000
,
00010000
00000000
00000010
00000000
00000100
00000010
00001000
00000000
,
00000100
00000000
00000000
00000100
00000000
00000000
00000000
00000000
00000010
00000000
00000000
00000000
00000001
00000000
00000000
00000000
,
00000100
00000000
00000000
00000100
00000000
00000000
00000000
00000000
00000010
00000000
00000000
00000000
00000000
00000000
00000000
00000000
,
00001000
00000000
00000100
00000000
00010000
00001000
00010000
00000000
,
00001000
00000000
00100000
00000000
00010000
01000000
00100000
00000000
,
10000000
00000000
00000000
10000000
00000000
00000000
00000000
00000000
00010000
00000000
00000000
00000000
01000000
00000000
00000000
00000000
,
00100000
00000000
00000000
00100000
00000000
00000000
00000000
00000000
10000000
00000000
00000000
00000000
00010000
00000000
00000000
00000000
,
20010000
00000000
30100000
00000000
,
01020000
00100000
00130000
00000000
,
10010000
00000000
00011000
00000000
,
00001001
00000000
00000001
00000100
,
00000010
00000000
00000010
00000000
00001000
00000000
00000100
00010000
,
00000100
00001000
00001000
00000000
,
00001000
00000000
00000001
00001000
00000100
00000000
00000010
00000000
,
00000002
00000100
00000010
00000103
,
00000010
00000000
00000010
00000000
00000000
00000000
00001000
00000100
,
00001000
00000100
00000100
00010000
,
00001000
00000000
00001000
00100000
00001000
00000000
00010000
00000000
,
00001000
01000000
00100000
10000000
,
01000000
10010000
00100000
10010000
,
00010000
00101000
00010000
00101000
,
00001000
00010100
00001000
00010100
,
00000100
00000110
00000110
00000001
,
00000100
00000000
00000010
00001000
00000010
00000000
00000100
00000000
,
00000010
00000000
00001000
00000100
00010000
00000100
00001000
00000000
,
00000010
00000000
00000100
00000001
00000100
00000000
00000010
00000000
,
00001010
00000000
00011000
00000000
,
01010000
01000000
00100000
10000000
,
00020000
00000000
00000000
00000000
,
10030000
00010000
01000000
00001000
,
00010000
00000000
00001000
00001000
,
00002000
00000000
00023000
00000000
,
00030100
00000000
00000010
00000000
00000001
00000000
00000100
00000010
,
00000200
00000000
00000000
00000310
00000010
00000000
00000010
00000000
,
00001000
00000000
00000100
00010000
00000100
00000000
00000010
00000000
,
00000001
00000000
00000000
00000000
00000100
00000000
00000010
00001000
,
00000100
00000000
00010000
00001000
00010000
00000000
00000100
00000000
,
00001000
00000100
00010000
00010000
,
00000000
00000000
00001000
00100000
00001000
00000000
00010000
00000000
,
00010000
00000000
00001000
00000000
01000000
00000000
00100000
10000000
,
01000000
00000000
00100000
00010000
00100000
00000000
01000000
00000000
,
10000000
00010000
01000000
00010000
,
00100000
00010000
01000000
00001000
,
00010000
00000100
00001000
00000010
,
00000100
00000001
00001000
00000100
,
00000100
00000000
00001000
00000001
,
00000100
00000110
00000010
00001000
,
00000100
00010100
00010000
00001000
,
00100000
00110000
10010000
00000000
,
00011000
00000000
00002002
00000000
,
00003003
00000000
00000000
00000000
;
