#TITLE:VANESSA;
#SUBTITLE:[SPECIAL];
#ARTIST:SUZAKU;
#TITLETRANSLIT:;
#SUBTITLETRANSLIT:;
#ARTISTTRANSLIT:;
#GENRE:;
#CREDIT:;
#MENUCOLOR:;
#METERTYPE:DDR;
#BANNER:VANESSA [S]-bn.png;
#BACKGROUND:VANESSA [S]-bg.png;
#LYRICSPATH:;
#CDTITLE:currentcdtitle.png;
#MUSIC:VANESSA.mp3;
#OFFSET:-0.544;
#SAMPLESTART:12.246;
#SAMPLELENGTH:11.675;
#SELECTABLE:YES;
#LISTSORT:;
#DISPLAYBPM:92.500:185.000;
#BPMS:0.000=92.500,8.000=185.000,29.000=138.750,29.500=277.500,30.000=138.750,30.500=277.500,31.000=138.750,31.500=277.500,32.000=138.750,32.500=277.500,33.000=138.750,33.500=277.500,34.000=138.750,34.500=277.500,35.000=138.750,35.500=277.500,36.000=138.750,36.500=277.500,37.000=138.750,37.500=277.500,38.000=138.750,38.500=277.500,39.000=138.750,39.500=277.500,40.000=138.750,40.500=277.500,41.000=138.750,41.500=277.500,42.000=138.750,42.500=277.500,43.000=138.750,43.500=277.500,44.000=138.750,44.500=277.500,45.000=138.750,45.500=277.500,46.000=138.750,46.500=277.500,47.000=138.750,47.500=277.500,48.000=138.750,48.500=277.500,49.000=138.750,49.500=277.500,50.000=138.750,50.500=277.500,51.000=138.750,51.500=277.500,52.000=138.750,52.500=277.500,53.000=138.750,53.500=277.500,54.000=138.750,54.500=277.500,55.000=138.750,55.500=277.500,56.000=138.750,56.500=277.500,57.000=138.750,57.500=277.500,58.000=138.750,58.500=277.500,59.000=138.750,59.500=277.500,60.000=138.750,60.500=277.500,61.000=138.750,61.500=277.500,62.000=138.750,62.500=277.500,63.000=138.750,63.500=277.500,64.000=138.750,64.500=277.500,65.000=138.750,65.500=277.500,66.000=138.750,66.500=277.500,67.000=138.750,67.500=277.500,68.000=138.750,68.500=277.500,69.000=138.750,69.500=277.500,70.000=138.750,70.500=277.500,71.000=138.750,71.500=277.500,72.000=138.750,72.500=277.500,73.000=138.750,73.500=277.500,74.000=138.750,74.500=277.500,75.000=138.750,75.500=277.500,76.000=138.750,76.500=277.500,77.000=138.750,77.500=277.500,78.000=138.750,78.500=277.500,79.000=138.750,79.500=277.500,80.000=138.750,80.500=277.500,81.000=138.750,81.500=277.500,82.000=138.750,82.500=277.500,83.000=138.750,83.500=277.500,84.000=138.750,84.500=277.500,85.000=138.750,85.500=277.500,86.000=138.750,86.500=277.500,87.000=138.750,87.500=277.500,88.000=138.750,88.500=277.500,89.000=138.750,89.500=277.500,90.000=138.750,90.500=277.500,91.000=138.750,91.500=277.500,92.000=138.750,92.500=277.500,93.000=92.500,133.000=185.000,153.000=138.750,153.500=277.500,154.000=138.750,154.500=277.500,155.000=138.750,155.500=277.500,156.000=138.750,156.500=277.500,157.000=138.750,157.500=277.500,158.000=138.750,158.500=277.500,159.000=138.750,159.500=277.500,160.000=138.750,160.500=277.500,161.000=138.750,161.500=277.500,162.000=138.750,162.500=277.500,163.000=138.750,163.500=277.500,164.000=138.750,164.500=277.500,165.000=138.750,165.500=277.500,166.000=138.750,166.500=277.500,167.000=138.750,167.500=277.500,168.000=138.750,168.500=277.500,169.000=138.750,169.500=277.500,170.000=138.750,170.500=277.500,171.000=138.750,171.500=277.500,172.000=138.750,172.500=277.500,173.000=138.750,173.500=277.500,174.000=138.750,174.500=277.500,175.000=138.750,175.500=277.500,176.000=138.750,176.500=277.500,177.000=138.750,177.500=277.500,178.000=138.750,178.500=277.500,179.000=138.750,179.500=277.500,180.000=138.750,180.500=277.500,181.000=138.750,181.500=277.500,182.000=138.750,182.500=277.500,183.000=138.750,183.500=277.500,184.000=138.750,184.500=277.500,185.000=138.750,185.500=277.500,186.000=138.750,186.500=277.500,187.000=138.750,187.500=277.500,188.000=138.750,188.500=277.500,189.000=138.750,189.500=277.500,190.000=138.750,190.500=277.500,191.000=138.750,191.500=277.500,192.000=138.750,192.500=277.500,193.000=138.750,193.500=277.500,194.000=138.750,194.500=277.500,195.000=138.750,195.500=277.500,196.000=138.750,196.500=277.500,197.000=138.750,197.500=277.500,198.000=138.750,198.500=277.500,199.000=138.750,199.500=277.500,200.000=138.750,200.500=277.500,201.000=138.750,201.500=277.500,202.000=138.750,202.500=277.500,203.000=138.750,203.500=277.500,204.000=138.750,204.500=277.500,205.000=138.750,205.500=277.500,206.000=138.750,206.500=277.500,207.000=138.750,207.500=277.500,208.000=138.750,208.500=277.500,209.000=138.750,209.500=277.500,210.000=138.750,210.500=277.500,211.000=138.750,211.500=277.500,212.000=138.750,212.500=277.500,213.000=138.750,213.500=277.500,214.000=138.750,214.500=277.500,215.000=138.750,215.500=277.500,216.000=138.750,216.500=277.500,217.000=185.000,218.000=46.250;
#STOPS:24.000=0.973
,217.000=0.973
;
#BGCHANGES:;
#ATTACKS:;

//---------------dance-single - ----------------
#NOTES:
     dance-single:
     :
     Challenge:
     10:
     0.819,0.944,0.214,0.075,0.815: // measure 1
0000
0000
0000
0000
,  // measure 2
0000
0000
0000
0000
,  // measure 3
1001
0000
0000
0001
0000
0001
0100
0000
0000
0100
0000
0100
,  // measure 4
0010
1010
1001
1100
,  // measure 5
0100
0000
0100
0010
0000
0010
0002
0000
0000
1003
0000
0000
,  // measure 6
0001
0100
0001
1000
0100
1000
0001
1000
0001
0100
0010
0100
,  // measure 7
0220
0000
0000
0330
0000
0000
0000
0000
0000
0000
0000
0000
0000
0000
0000
0000
0000
0000
0000
0000
0000
0000
0000
0000
0000
0000
0000
0000
0000
0000
0000
0000
0000
0000
0000
0000
0000
0000
0000
0000
0000
0000
0000
0000
0000
0000
0000
0000
0010
0000
0000
0000
0000
0000
0000
0000
0000
0000
0000
0000
0000
0000
0000
0000
1000
0000
0000
0000
0000
0000
0000
0000
0000
0000
0000
0000
0000
0000
0000
0000
0001
0000
0000
0000
0000
0000
0000
0000
0000
0000
0000
0000
0000
0000
0000
0000
0010
0000
0000
0000
0000
0000
0000
0000
0000
0000
0000
0000
0000
0000
0000
0000
0100
0000
0000
0000
0000
0000
0000
0000
0000
0000
0000
0000
0000
0000
0000
0000
1000
0000
0000
0000
0000
0000
0000
0000
0000
0000
0000
0000
0000
0000
0000
0000
0100
0000
0000
0000
0000
0000
0000
0000
0000
0000
0000
0000
0000
0000
0000
0000
0010
0000
0000
0000
0000
0000
0000
0000
0000
0000
0000
0000
0000
0000
0000
0000
0001
0000
0000
0000
0000
0000
0000
0000
0000
0000
0000
0000
0000
0000
0000
0000
,  // measure 8
1000
0000
0010
0000
0100
0000
0001
0000
0000
0001
0000
0000
0010
0000
0000
0010
0000
0000
0100
0000
0000
0100
0000
0000
,  // measure 9
1000
0000
1000
0000
0001
0000
0001
0000
0100
0000
0100
0000
0010
1000
0010
0000
,  // measure 10
0100
0001
1000
0000
0100
0000
0100
0000
0010
0000
0010
0000
0001
0000
0001
0000
,  // measure 11
0100
0000
0100
0000
0001
0000
0001
0000
1000
0000
1000
0000
0001
0010
0100
0000
,  // measure 12
1000
0100
0010
0000
0001
1000
0001
0000
0100
0010
0100
0000
0010
1000
0010
0000
,  // measure 13
1000
0001
1000
0000
0001
0100
0010
0000
0100
0010
1000
0000
0010
1000
0001
0000
,  // measure 14
1000
0001
0010
0000
0100
1000
0100
0000
1000
0100
1000
0000
0100
0000
1000
0000
,  // measure 15
0001
0000
0000
0000
0010
0100
0010
0000
0100
0000
0000
0000
1100
0000
0000
0000
,  // measure 16
1001
0001
0100
0010
1000
0001
0010
0100
,  // measure 17
1000
0000
0100
0000
0010
0000
0001
0000
1000
0000
0001
0000
0100
0010
1000
0000
,  // measure 18
0001
0010
0100
0000
1000
0000
0001
0000
0100
0000
0001
0000
1000
0000
0001
0000
,  // measure 19
0010
0000
0100
0000
1000
0000
0100
0000
0010
0000
0001
0000
1000
0010
0100
0000
,  // measure 20
0001
0100
0010
0000
1000
0001
1000
0000
0001
0010
0001
0000
0010
0100
0010
0000
,  // measure 21
0100
1000
0100
0000
1000
0001
0100
0000
0001
1000
0010
0000
1000
0001
0010
0000
,  // measure 22
0001
1000
0010
0000
0100
0001
0100
0000
0001
0100
0001
0000
1000
0000
0001
0000
,  // measure 23
0010
0000
0100
0000
1000
0001
0010
0000
0100
1000
0001
0000
1000
0010
0100
0000
,  // measure 24
1000
0100
0010
0000
1010
0000
0000
0000
0010
0000
0000
0000
0100
0000
0000
0000
,  // measure 25
0001
0000
0000
1000
0100
0000
0000
0000
0010
0000
0000
0000
0001
0000
0000
0000
,  // measure 26
0100
0000
0000
0010
1000
0000
0000
0000
0100
0000
0000
0000
1000
0000
0000
0000
,  // measure 27
0001
0000
0000
0100
0010
0000
0000
0000
0100
0000
0000
0000
0001
0000
0000
0000
,  // measure 28
1000
0000
0000
0000
0000
0000
0100
0000
0000
0010
0000
0010
0001
0000
0000
1000
0000
1000
0001
0000
0000
0100
0000
0100
,  // measure 29
0010
0000
0000
0100
0000
0100
0001
0000
0000
1000
0000
1000
0100
0000
0000
0010
0000
0010
0001
0000
0000
0100
0000
0100
,  // measure 30
0010
0000
0000
0010
0000
0010
1000
0000
0000
0001
0000
0010
0100
0000
0000
1000
0000
0100
0010
0000
0000
0001
0000
1000
,  // measure 31
0010
0000
0000
0100
0000
0001
0100
0000
0000
0010
0000
1000
0001
0000
0000
1000
0000
0100
0010
0100
0010
0001
0000
0000
,  // measure 32
0101
0000
0000
1010
0000
0010
0110
0000
0100
0001
0000
0000
1001
0000
0000
1000
0000
0100
0010
0100
0010
0001
0000
1001
,  // measure 33
0000
0000
0000
0100
0000
0100
0100
0000
0100
0010
0000
0000
1010
0000
0000
1001
0000
0001
0011
0000
0010
0100
0010
0100
,  // measure 34
1000
0000
0010
0001
0000
0010
0100
0000
0000
0000
0001
0000
0100
0000
0000
0000
0010
0000
1000
0000
0000
0000
0001
0000
,  // measure 35
0010
0000
0010
0001
1000
0001
0100
0000
0010
1000
0000
0001
,  // measure 36
1000
0010
0000
0010
0100
0010
0100
0001
0100
0001
1000
0001
,  // measure 37
1000
0100
1000
0100
0010
0001
1000
0010
1000
0001
0100
0010
,  // measure 38
1000
0100
0010
0001
0100
0010
1000
0001
0100
0010
0100
0001
,  // measure 39
1000
0000
0100
0000
0010
0000
0001
0000
0000
1000
0000
0000
0010
0000
0000
0100
0000
0000
0010
0000
0000
1000
0000
0000
,  // measure 40
0001
0000
0010
0000
0100
0000
1000
0000
0001
0000
0100
0000
0001
0100
0010
0000
,  // measure 41
0001
0010
0100
0000
0001
0000
1000
0000
0100
0000
1000
0000
0001
0000
1000
0000
,  // measure 42
0010
0000
0100
0000
0010
0000
1000
0000
0001
0000
0100
0000
0001
1000
0010
0000
,  // measure 43
0001
0010
0100
0000
0001
0010
0100
0000
1000
0100
0010
0000
0001
0100
0010
0000
,  // measure 44
1000
0010
0100
0000
0001
1000
0100
0000
0001
0100
1000
0000
0001
1000
0010
0000
,  // measure 45
0001
0010
0100
0000
0010
1000
0010
0000
1000
0010
1000
0000
0001
0000
0010
0000
,  // measure 46
0001
0000
0000
0000
1000
0001
1000
0000
0010
0000
0000
0000
0101
0000
0000
0000
,  // measure 47
1001
0001
0010
0100
1000
0100
0010
0001
,  // measure 48
1000
0000
0001
0000
0100
0000
0010
0000
1000
0000
0010
0000
1000
0100
0010
0000
,  // measure 49
1000
0010
0100
0000
1000
0000
0001
0000
0100
0000
0001
0000
0010
0000
0001
0000
,  // measure 50
1000
0000
0010
0000
0100
0000
0001
0000
0100
0000
0010
0000
1000
0001
0010
0000
,  // measure 51
1000
0010
0001
0000
0100
0010
1000
0000
0001
0010
0100
0000
1000
0001
0100
0000
,  // measure 52
0001
1000
0010
0000
0100
0001
0010
0000
1000
0010
0001
0000
1000
0010
0100
0000
,  // measure 53
1000
0100
0010
0000
0100
0001
0100
0000
0001
0100
0001
0000
1000
0000
0100
0000
,  // measure 54
0010
0000
0001
0000
0100
0010
1000
0000
0001
0100
0001
0000
1000
0100
0010
0000
,  // measure 55
0100
0000
0000
0000
0010
0000
0000
0000
0001
0000
0000
0000
0000
0000
0000
0000
2002
3003
0000
0000
0000
0000
0000
0000
0000
0000
0000
0000
0000
0000
0000
0000
2002
0000
0000
0000
0000
0000
0000
0000
0000
0000
0000
0000
0000
0000
0000
0000
0000
0000
0000
0000
0000
0000
0000
0000
0000
0000
0000
0000
0000
0000
0000
0000
,  // measure 56
3003
0000
0000
0000
;

//---------------dance-double - ----------------
#NOTES:
     dance-double:
     :
     Challenge:
     10:
     0.804,0.914,0.129,0.086,0.799:
00000000
00000000
00000000
00000000
,
00000000
00000000
00000000
00000000
,
10000000
01000000
00100000
00010000
,
01000000
00001000
00010000
00000010
,
00000200
00000302
00002003
00003200
,
00010300
00001000
00010000
00001000
00010000
00001000
00010000
00001000
00010000
00001000
00010000
00001000
,
00020000
00000000
00000000
00030000
00000000
00000000
00000000
00000000
00000000
00000000
00000000
00000000
00000000
00000000
00000000
00000000
00000000
00000000
00000000
00000000
00000000
00000000
00000000
00000000
00000000
00000000
00000000
00000000
00000000
00000000
00000000
00000000
00000000
00000000
00000000
00000000
00000000
00000000
00000000
00000000
00000000
00000000
00000000
00000000
00000000
00000000
00000000
00000000
00001000
00000000
00000000
00000000
00000000
00000000
00000000
00000000
00000000
00000000
00000000
00000000
00000000
00000000
00000000
00000000
01000000
00000000
00000000
00000000
00000000
00000000
00000000
00000000
00000000
00000000
00000000
00000000
00000000
00000000
00000000
00000000
00100000
00000000
00000000
00000000
00000000
00000000
00000000
00000000
00000000
00000000
00000000
00000000
00000000
00000000
00000000
00000000
10000000
00000000
00000000
00000000
00000000
00000000
00000000
00000000
00000000
00000000
00000000
00000000
00000000
00000000
00000000
00000000
01000000
00000000
00000000
00000000
00000000
00000000
00000000
00000000
00000000
00000000
00000000
00000000
00000000
00000000
00000000
00000000
00100000
00000000
00000000
00000000
00000000
00000000
00000000
00000000
00000000
00000000
00000000
00000000
00000000
00000000
00000000
00000000
00010000
00000000
00000000
00000000
00000000
00000000
00000000
00000000
00000000
00000000
00000000
00000000
00000000
00000000
00000000
00000000
00100000
00000000
00000000
00000000
00000000
00000000
00000000
00000000
00000000
00000000
00000000
00000000
00000000
00000000
00000000
00000000
00001000
00000000
00000000
00000000
00000000
00000000
00000000
00000000
00000000
00000000
00000000
00000000
00000000
00000000
00000000
00000000
,
00010000
00000000
00000010
00000000
00000100
00000000
00000010
00000000
00000000
00001000
00000000
00000000
00000100
00000000
00000000
00000010
00000000
00000000
00000001
00000000
00000000
00000100
00000000
00000000
,
00000001
00000000
00001000
00000000
00000010
00000000
00000100
00000000
00000010
00000000
00001000
00000000
00000100
00010000
00001000
00000000
,
01000000
00100000
10000000
00000000
00100000
00000000
01000000
00000000
00010000
00000000
10000000
00000000
01000000
00000000
00100000
00000000
,
00010000
00000000
00100000
00000000
01000000
00000000
10000000
00000000
00010000
00000000
01000000
00000000
00100000
10000000
01000000
00000000
,
00100000
00010000
01000000
00000000
00010000
00100000
00010000
00000000
00100000
00001000
00100000
00000000
00001000
00010000
00001000
00000000
,
00010000
00000010
00010000
00000000
00000010
00000100
00000010
00000000
00001000
00000010
00001000
00000000
00000010
00000100
00000010
00000000
,
00000001
00000010
00000001
00000000
00000010
00001000
00000100
00000000
00010000
00001000
01000000
00000000
00100000
00000000
10000000
00000000
,
01000000
00000000
01000000
00000000
00100000
00010000
01000000
00000000
10000000
00000000
00000000
00000000
11000000
00000000
00000000
00000000
,
01010000
00010000
10010000
10000000
01000000
10000000
00010000
01000000
,
00100000
00000000
10000000
00000000
00100000
00000000
01000000
00000000
00010000
00000000
10000000
00000000
01000000
00100000
00010000
00000000
,
00100000
00001000
00010000
00000000
00001000
00000000
00100000
00000000
00010000
00000000
10000000
00000000
00100000
00000000
01000000
00000000
,
00100000
00000000
10000000
00000000
00010000
00000000
00100000
00000000
00001000
00000000
00010000
00000000
00000010
00000100
00000001
00000000
,
00000010
00000100
00001000
00000000
00000100
00001000
00000100
00000000
00010000
00001000
00010000
00000000
00001000
01000000
00001000
00000000
,
01000000
00100000
01000000
00000000
00100000
01000000
00100000
00000000
10000000
00100000
10000000
00000000
00100000
01000000
00100000
00000000
,
00010000
00100000
00010000
00000000
00100000
10000000
00010000
00000000
00100000
01000000
10000000
00000000
00010000
00000000
01000000
00000000
,
00001000
00000000
00000000
00000000
00010000
00001000
00010000
00000000
00001000
00010000
00001000
00000000
00010000
00000100
00010000
00000000
,
00001000
01000000
00001000
00000000
00010000
00000000
00000000
00000000
00000100
00000000
00000000
00000000
00001000
00000000
00000000
00000000
,
00000010
00000000
00000000
00000100
00000001
00000000
00000000
00000000
00001000
00000000
00000000
00000000
00000100
00000000
00000000
00000000
,
00010000
00000000
00000000
00001000
01000000
00000000
00000000
00000000
00010000
00000000
00000000
00000000
00100000
00000000
00000000
00000000
,
00001000
00000000
00000000
00010000
00001000
00000000
00000000
00000000
00010000
00000000
00000000
00000000
00000010
00000000
00000000
00000000
,
00000100
00000000
00000000
00000000
00000000
00000000
00000000
00000000
00000000
00000001
00000000
00000000
00000010
00000000
00000000
00000000
00000000
00000000
00000100
00000000
00000000
00000000
00001000
00000000
00000001
00000000
00000000
00000000
00000000
00000000
00000100
00000000
00000000
00000000
00000010
00000000
00001000
00000000
00000000
00000000
00000000
00000000
00000100
00000000
00000000
00000000
00001000
00000000
,
00000001
00000000
00000000
00000100
00000000
00000010
00001000
00000000
00000000
00000100
00000000
00010000
00001000
00000000
00000000
01000000
00000000
00100000
10000000
00000000
00000000
01000000
00000000
00100000
,
00010000
00000000
00000000
00100000
00000000
00010000
10000000
00000000
00000000
01000000
00000000
00100000
00010000
00000000
00000000
00100000
00000000
00001000
00010000
00000000
00000000
00000010
00000000
00000100
,
00000010
00000000
00000000
00001000
00000000
00000100
00001000
00000000
00000000
00000100
00000000
00010000
00001000
00000000
00000000
00100000
00000000
00010000
10000000
00100000
00010000
00100000
00000000
00000000
,
01100000
00000000
00000000
01010000
00000000
00010000
00110000
00000000
00100000
00001000
00000000
00000000
00011000
00000000
00000000
00010000
00000000
00000010
00001000
00000100
00000010
00001000
00000000
00000010
,
00000000
00000000
00000000
00000100
00000000
00000100
00000100
00000000
00000100
00001000
00000000
00000000
00001001
00000000
00000000
00000001
00000000
00000100
00000010
00000000
00001000
00000100
00001000
00010000
,
00001000
00000000
00000100
00001000
00000000
00000100
00010000
00000000
00000000
00000000
00001000
00000000
01000000
00000000
00000000
00000000
00100000
00000000
10000000
00000000
00000000
00000000
00100000
00000000
,
01000000
00000000
00010000
10000000
00100000
00010000
00100000
00000000
01000000
00010000
00000000
10000000
,
01000000
00010000
00000000
01000000
10000000
01000000
10000000
00010000
10000000
00010000
01000000
00010000
,
01000000
00100000
01000000
00010000
10000000
01000000
00100000
00010000
10000000
00100000
01000000
00010000
,
00100000
00010000
01000000
00001000
00010000
00000010
00000100
00000010
00001000
00000100
00000010
00000001
,
00000100
00000000
00000010
00000000
00001000
00000000
00000100
00000000
00000000
00010000
00000000
00000000
00001000
00000000
00000000
01000000
00000000
00000000
00100000
00000000
00000000
10000000
00000000
00000000
,
01000000
00000000
00100000
00000000
00001000
00000000
00010000
00000000
00000010
00000000
00000100
00000000
00000010
00001000
00000100
00000000
,
00000010
00000001
00000100
00000000
00000010
00000000
00001000
00000000
00000001
00000000
00001000
00000000
00000100
00000000
00001000
00000000
,
00000010
00000000
00010000
00000000
00001000
00000000
01000000
00000000
00100000
00000000
10000000
00000000
00010000
00100000
01000000
00000000
,
10000000
00010000
01000000
00000000
00100000
01000000
00100000
00000000
10000000
00010000
10000000
00000000
00010000
00100000
00010000
00000000
,
00100000
01000000
00100000
00000000
01000000
10000000
01000000
00000000
00100000
01000000
00100000
00000000
01000000
00010000
01000000
00000000
,
00100000
01000000
00100000
00000000
01000000
10000000
00010000
00000000
10000000
00100000
01000000
00000000
00001000
00000000
00010000
00000000
,
00001000
00000000
00000000
00000000
00010000
00000010
00000100
00000000
00000010
00000000
00000000
00000000
00000101
00000000
00000000
00000000
,
00001001
00000001
00000011
00000100
00001000
00000001
00000100
00000001
,
00001000
00000000
00000100
00000000
00010000
00000000
00001000
00000000
01000000
00000000
00100000
00000000
10000000
00010000
01000000
00000000
,
00100000
10000000
00010000
00000000
01000000
00000000
00010000
00000000
00100000
00000000
00001000
00000000
00010000
00000000
00000010
00000000
,
00000100
00000000
00000010
00000000
00001000
00000000
00000100
00000000
00010000
00000000
00001000
00000000
10000000
01000000
00100000
00000000
,
00010000
01000000
00100000
00000000
01000000
00010000
01000000
00000000
00010000
00100000
00010000
00000000
00100000
00001000
00100000
00000000
,
00001000
00010000
00001000
00000000
00010000
00000100
00010000
00000000
00001000
00010000
00001000
00000000
00010000
00100000
00010000
00000000
,
00001000
00010000
00001000
00000000
00010000
00000100
00000010
00000000
00000001
00000010
00000100
00000000
00001000
00000000
00000001
00000000
,
00000100
00000000
00000010
00000000
00001000
00000100
00010000
00000000
00001000
01000000
00100000
00000000
10000000
01000000
00100000
00000000
,
00010000
00000000
00000000
00000000
00100000
00000000
00000000
00000000
00001000
00000000
00000000
00000000
00000000
00000000
00000000
00000000
00020000
00030000
00000000
00000000
00000000
00000000
00000000
00000000
00000000
00000000
00000000
00000000
00000000
00000000
00000000
00000000
00022000
00000000
00000000
00000000
00000000
00000000
00000000
00000000
00000000
00000000
00000000
00000000
00000000
00000000
00000000
00000000
00000000
00000000
00000000
00000000
00000000
00000000
00000000
00000000
00000000
00000000
00000000
00000000
00000000
00000000
00000000
00000000
,
00033000
00000000
00000000
00000000
;
