#TITLE:Usmiechnij Sie;
#SUBTITLE:(Smile);
#ARTIST:Long & Junior;
#TITLETRANSLIT:;
#SUBTITLETRANSLIT:;
#ARTISTTRANSLIT:;
#GENRE:;
#CREDIT:;
#MENUCOLOR:;
#METERTYPE:DDR;
#BANNER:Usmiechnij Sie-bn.png;
#BACKGROUND:Usmiechnij Sie-bg.png;
#LYRICSPATH:;
#CDTITLE:ddrencorecdtitle.png;
#MUSIC:Usmiechnij Sie.mp3;
#OFFSET:-0.039;
#SAMPLESTART:81.230;
#SAMPLELENGTH:14.769;
#SELECTABLE:YES;
#LISTSORT:;
#BPMS:0.000=130.001;
#STOPS:;
#BGCHANGES:;
#ATTACKS:;

//---------------dance-single - ----------------
#NOTES:
     dance-single:
     :
     Beginner:
     1:
     0.128,0.162,0.008,0.000,0.000:
0000
0000
0000
0000
,
0000
0000
0000
0000
,
0000
0000
0000
0000
,
0000
0000
0000
0000
,
1000
0000
0000
0000
,
0001
0000
0000
0000
,
1000
0000
0000
0000
,
0010
0000
0000
0000
,
0100
0000
0010
0000
,
0100
0000
0100
0000
,
0001
0000
1000
0000
,
0001
0000
0001
0000
,
0010
0000
0100
0000
,
0010
0000
0010
0000
,
0001
0000
1000
0000
,
0100
0000
0000
0000
,
1000
1000
1000
0000
,
0001
0000
0100
0000
,
0010
0000
0000
0000
,
0100
0000
0000
0000
,
0001
0001
0001
0000
,
1000
0000
0100
0000
,
0010
0000
0000
0000
,
0100
0000
0000
0000
,
1000
0000
0100
0000
,
1000
0000
0001
0000
,
0100
0000
0010
0000
,
0100
0000
0001
0000
,
1000
0000
0100
0000
,
1000
0000
0001
0000
,
1000
0000
0010
0000
,
0100
0000
0000
0000
,
0010
0000
0100
0000
,
0001
0000
1000
1000
,
1000
0000
0001
0000
,
0100
0000
0010
0010
,
0010
0000
1000
0000
,
0001
0000
0001
0000
,
1000
0000
0001
0000
,
0100
0000
0000
0000
,
0010
0000
1000
0000
,
0010
0000
0100
0000
,
0001
0000
0000
0000
,
1000
0000
0000
0000
,
0100
0000
1000
0000
,
0100
0000
0010
0000
,
0001
0000
0000
0000
,
1000
0000
0000
0000
,
0001
0001
0001
0000
,
0100
0000
0010
0000
,
1000
0000
0000
0000
,
0001
0000
0000
0000
,
1000
1000
1000
0000
,
0010
0000
0100
0000
,
0001
0000
0000
0000
,
1000
0000
0000
0000
,
0001
0000
0100
0000
,
0001
0000
0001
0000
,
1000
0000
0010
0000
,
1000
0000
1000
0000
,
0001
0000
0000
0000
,
1000
0000
0000
0000
,
0001
0000
0000
0000
,
0100
0000
0000
0000
,
0010
0010
0000
1000
,
0000
0010
0000
0100
,
0000
0001
0000
1000
,
0000
0001
0000
1001
;

//---------------dance-single - ----------------
#NOTES:
     dance-single:
     :
     Easy:
     4:
     0.211,0.243,0.080,0.064,0.000:
0000
0000
0000
0000
,
0000
0000
0000
0000
,
0000
0000
0000
0000
,
0000
0000
0000
0000
,
1000
0010
0000
0010
,
0000
0100
0000
0100
,
0001
1000
0000
1000
,
0000
0001
0000
0001
,
0200
0000
0310
0000
,
2000
0000
3010
1000
,
0002
0000
0013
0000
,
0200
0000
1300
0001
,
0020
0000
0031
0000
,
0200
0000
0310
1000
,
0002
0000
2003
0000
,
3001
1000
1001
0000
,
1000
0100
0010
0000
,
0100
0000
1000
0000
,
0010
0000
0100
0000
,
0010
1000
0001
0100
,
0001
0010
0100
0000
,
0010
0000
0001
0000
,
1000
0000
0010
0000
,
0100
0010
1000
0000
,
0001
0000
1000
0100
,
1000
0010
0100
0001
,
1000
0000
0001
0000
,
0010
0001
0010
0100
,
1000
0000
0010
0000
,
1000
0000
0001
0000
,
0100
0000
0010
0000
,
1001
0000
0000
0000
,
1000
0100
0010
0001
,
1000
0001
0100
0010
,
0000
0100
0010
1000
,
0010
0100
0001
1000
,
0000
0001
1000
0100
,
0010
0000
0010
0000
,
0100
1000
0100
0010
,
0001
0000
1000
0000
,
0001
1000
0010
0100
,
0001
0000
1000
0000
,
0100
0100
0100
0000
,
1000
0000
0010
0000
,
0100
0001
0100
0010
,
1000
0000
0001
0000
,
0010
0010
0010
0000
,
0100
0100
0100
0000
,
1000
0010
0100
0000
,
0010
0000
1000
0000
,
0001
0000
0010
0000
,
0001
1000
0001
0100
,
0010
1000
0001
0000
,
0010
0000
0001
0000
,
0100
0000
0010
0000
,
1000
0100
0010
0000
,
0001
0000
1000
0000
,
0010
0000
0100
0000
,
0001
0000
1000
0000
,
0100
0000
0010
0000
,
0001
1000
0000
0010
,
0000
1000
0000
0001
,
0100
0010
0000
0100
,
0000
0001
0000
1000
,
0100
0110
0000
1001
,
0000
1100
0000
1001
,
0000
0101
0000
0110
,
0000
1010
0000
1001
;

//---------------dance-single - ----------------
#NOTES:
     dance-single:
     :
     Medium:
     7:
     0.347,0.324,0.151,0.040,0.068:
0000
0000
0000
0000
,
0000
0000
0000
0000
,
0000
0000
0000
0000
,
0000
0000
0000
0000
,
1000
0000
0100
1000
0100
0000
0010
0000
,
0000
0001
0100
0000
0010
0000
0110
0000
,
0001
0000
0010
0001
0010
0000
0100
0000
,
0000
1000
0010
0000
0100
0000
0010
0000
,
1000
0000
0000
0000
0010
0000
1000
0000
0010
0000
0000
1000
0000
0000
0010
0000
,
0000
0000
0100
0000
0000
0000
0100
0000
0001
0000
0000
1000
0000
0000
1000
0000
,
0100
0000
0000
0000
1000
0000
0001
0000
1000
0000
0000
0001
0000
0000
1000
0000
,
0000
0000
0010
0000
0000
0000
0010
0000
0100
0000
0000
0001
0000
0000
1000
0000
,
0100
0000
0000
0000
1100
0000
0000
0000
1000
0000
0000
0010
0000
0000
0100
0000
,
0000
0000
0000
0000
0101
0000
0000
0000
0001
0000
0000
1000
0000
0000
0010
0000
,
0200
0000
0320
0000
,
1030
0000
0000
0100
0000
0000
0010
0000
0001
0000
0000
0000
1001
0000
0000
0000
,
0001
0000
1000
0100
1000
0000
0010
0000
,
0100
0000
0001
0000
0010
0000
0001
0100
,
0010
0000
0000
0010
0000
0000
0010
0000
0000
0000
0000
0000
1000
0000
0000
0000
,
0001
0000
0000
0100
0000
0000
0010
0000
1000
0000
0000
0000
0001
0000
0000
0000
,
1000
0000
0001
0010
0001
0000
0100
0000
,
0010
0000
1000
0000
0100
0000
0010
0001
,
0100
0000
0000
0100
0000
0000
0100
0000
0000
0000
0000
0000
0010
0000
0000
0000
,
1000
0000
0000
0010
0000
0000
0100
0000
0001
0000
0000
0000
0000
0000
0000
0000
,
1000
0000
0100
0000
1000
0100
0010
0000
,
0001
0000
0100
0000
0001
0010
0100
0010
,
0001
0000
1000
0000
0010
0100
0001
0000
,
0100
0001
1000
0000
0010
0000
1001
0000
,
0001
0100
0010
0000
1000
0001
0100
0000
,
0000
0010
0100
0000
0001
1000
0100
0000
,
0010
0000
0001
0000
1000
0000
0010
0100
,
0000
0001
1000
0000
0000
0000
0001
0000
,
1010
0100
0001
0010
,
1000
0000
0001
0000
0100
0010
1000
0000
,
0011
0100
1000
0010
,
0001
0000
1000
0000
0100
0010
0001
0000
,
0101
0010
1000
0100
,
0001
1000
0000
0000
1000
0001
0000
0000
,
0100
0010
1000
0001
,
2002
0000
0000
3003
,
1000
0100
0010
0100
,
1000
0001
0100
1000
,
0100
0000
0000
0001
0000
0000
1000
0000
0000
0000
0001
0000
0000
0000
0010
0000
,
0001
0000
0001
1000
0100
0000
1001
0000
,
0001
0010
0100
0010
,
0001
1000
0100
0001
,
0100
0000
0000
1000
0000
0000
0001
0000
0000
0000
1000
0000
0000
0000
0010
0000
,
1000
0000
0001
1000
0100
0000
1000
0000
,
0001
0000
1000
0100
1000
0000
0010
0000
,
0100
0001
0010
0100
,
0010
0000
0000
0010
0000
0000
0010
0000
0000
0000
0000
0000
0001
0000
0000
0000
,
1000
0000
0000
0010
0000
0000
0100
0000
0001
0000
0000
0000
1000
0000
0000
0000
,
0001
0000
0100
0001
0100
0000
0010
0000
,
1000
0001
0100
0010
,
0100
0000
0000
0100
0000
0000
0100
0000
0000
0000
0000
0000
0010
0000
0000
0000
,
1000
0000
0000
1000
0000
0000
1000
0000
0001
0000
0000
0000
1001
0000
0000
0000
,
0100
0010
1000
0010
,
0100
0001
0100
0010
,
1000
0100
1000
0001
,
2000
0001
0000
3001
,
0010
0000
0100
0000
0001
0010
0100
0000
,
1000
0000
0010
0000
0100
0001
0010
0000
,
0100
0000
0010
0000
0001
1000
0010
0000
,
0100
0000
0001
0000
1000
0010
0100
0000
,
0001
1100
0000
0101
,
0000
1100
0000
0011
,
1000
1100
0000
0101
,
0000
1100
0000
1001
;

//---------------dance-single - ----------------
#NOTES:
     dance-single:
     :
     Hard:
     8:
     0.459,0.458,0.263,0.135,0.167: // measure 1
0000
0000
0000
0000
,  // measure 2
0000
0000
0000
0000
,  // measure 3
0000
0000
0000
0000
,  // measure 4
0000
0000
0000
0000
,  // measure 5
0100
0000
0010
1000
0001
0000
0100
0000
,  // measure 6
0010
0000
1000
0000
0010
0000
0100
0000
0001
0000
0000
0010
0000
0000
0001
0000
,  // measure 7
1000
0000
0100
1000
0001
0000
0100
0000
,  // measure 8
0010
1001
1000
1001
,  // measure 9
0001
0000
0000
0000
1000
0000
0010
0000
0100
0000
0000
0100
0000
0000
0010
0000
,  // measure 10
0000
0000
1000
0010
0000
0000
1000
0000
0001
0000
0100
0010
0000
0100
0010
0000
,  // measure 11
1000
0000
0000
0000
0001
0000
0100
0000
0010
0000
0000
0010
0000
0000
1000
0000
,  // measure 12
0000
0000
0001
0100
0000
0000
0001
0000
0010
0000
0100
1000
0000
0100
1000
0000
,  // measure 13
0010
0000
0000
0000
0101
0000
0001
0000
0100
0000
0000
0100
0000
0000
0010
0000
,  // measure 14
0000
0000
1000
0001
0000
0000
0100
0000
0010
0000
1000
0001
0000
1000
0001
0000
,  // measure 15
0020
0000
0230
0000
,  // measure 16
1300
0000
0000
0010
0000
0000
0100
0000
0001
0000
0000
0000
1100
0000
0000
0000
,  // measure 17
0100
0000
0010
0001
0100
0000
1001
0000
,  // measure 18
0001
0000
0100
0010
0000
1000
0000
0001
0000
0000
0000
0000
0010
0000
0100
0000
,  // measure 19
0010
0000
0000
0010
0000
0000
0010
0000
0001
0000
0100
0000
0010
0000
1000
0000
,  // measure 20
0001
0000
0000
0001
0000
0000
0001
0000
0100
0000
0000
0000
1001
0000
0000
0000
,  // measure 21
0100
0000
0010
1000
0100
0000
1001
0000
,  // measure 22
1000
0000
0010
0100
0000
0001
0000
1000
0000
0000
0000
0000
0010
0000
1000
0000
,  // measure 23
0010
0000
0000
0010
0000
0000
0010
0000
1000
0000
0001
0000
0100
0000
0010
0000
,  // measure 24
1000
0000
0000
1000
0000
0000
2000
0000
0002
0000
0000
0000
0000
0000
3003
0000
,  // measure 25
1001
0000
0100
0000
0010
1000
0001
0000
,  // measure 26
0010
0001
0010
0010
0100
1000
0100
0000
,  // measure 27
0010
1001
0100
1001
,  // measure 28
0010
1000
0010
0001
0010
0100
0010
1000
,  // measure 29
0001
0000
0010
0000
0001
0100
1000
0000
,  // measure 30
0100
0000
0010
0000
1000
0100
0001
0000
,  // measure 31
0110
0000
1000
0010
0100
0001
1000
0001
,  // measure 32
0000
0000
0200
0000
0020
0000
0000
0000
0330
0000
1000
0001
0000
1000
0001
0000
,  // measure 33
0100
0000
0010
1000
0001
0100
0000
0001
,  // measure 34
0000
0010
0000
1001
0000
0010
0100
0000
,  // measure 35
0010
0000
0001
0100
0010
1000
0000
0001
,  // measure 36
0000
1000
0000
0110
0000
0001
1000
0000
,  // measure 37
0100
0010
0001
0010
0100
1000
0010
0100
,  // measure 38
0001
0200
0000
0000
0301
2000
0000
0000
,  // measure 39
3100
0000
0010
0000
0001
0100
0010
1000
,  // measure 40
0002
0200
0000
0000
0000
0000
0303
0000
,  // measure 41
0001
0000
1000
0100
1000
0010
0000
0100
,  // measure 42
0000
0101
0000
0000
0001
1000
0010
0100
,  // measure 43
0001
0000
0000
0010
0000
0000
0100
0000
0000
0000
1001
0000
0000
0000
0010
0000
,  // measure 44
0001
0100
0010
1000
0002
0000
0200
0003
,  // measure 45
0001
0300
0100
0010
1000
0001
0000
0010
,  // measure 46
0000
1100
0000
0000
1000
0001
0100
0010
,  // measure 47
1000
0000
0000
0001
0000
0000
0100
0000
0000
0000
1001
0000
0000
0000
1000
0000
,  // measure 48
0010
0100
0001
0010
0200
0000
0020
0300
,  // measure 49
0100
0030
0100
0010
0001
0000
1001
0000
,  // measure 50
0100
0000
0001
1000
0000
0010
0000
0100
0000
0000
0000
0000
0001
0000
1000
0000
,  // measure 51
0010
0000
0000
0010
0000
0000
0010
0000
0100
0000
0001
0000
1000
0000
0100
0000
,  // measure 52
1000
0000
0000
1000
0000
0000
1000
0000
0010
0000
0000
0000
0101
0000
0000
0000
,  // measure 53
0001
0000
1000
0100
0010
0000
1001
0000
,  // measure 54
0100
0000
1000
0010
0000
0100
0000
0001
0000
0000
0000
0000
1000
0000
0001
0000
,  // measure 55
0100
0000
0000
0100
0000
0000
0100
0000
0010
0000
1000
0000
0001
0000
0100
0000
,  // measure 56
0001
0000
0000
0001
0000
0000
0002
0000
2000
0000
0000
0000
0000
0000
3003
0000
,  // measure 57
0110
0000
0000
0000
0010
0000
1000
0000
0001
0000
0000
0100
0000
0000
0001
0000
,  // measure 58
0000
0000
1000
0010
0000
0000
1000
0000
0001
0000
0000
0100
0000
0000
0010
0000
,  // measure 59
1000
0000
0000
0000
0001
0000
0010
0000
0100
0000
0000
1000
0000
0000
0010
0000
,  // measure 60
0200
0001
0000
0310
,  // measure 61
1000
0000
0101
0000
0010
1000
0001
0000
,  // measure 62
0010
0000
1100
0000
0010
0100
1000
0000
,  // measure 63
0001
0000
0110
0000
1000
0010
0100
0000
,  // measure 64
0001
0000
1001
0000
0010
0100
0010
1000
,  // measure 65
0001
0011
1000
1010
,  // measure 66
0001
0101
0010
1001
,  // measure 67
1000
0110
0001
1010
,  // measure 68
0100
0000
1001
0000
0010
0100
0110
0000
;

//---------------dance-double - ----------------
#NOTES:
     dance-double:
     :
     Easy:
     3:
     0.193,0.243,0.008,0.064,0.000:
00000000
00000000
00000000
00000000
,
00000000
00000000
00000000
00000000
,
00000000
00000000
00000000
00000000
,
00000000
00000000
00000000
00000000
,
00001000
00000000
00010000
00000000
,
00001000
00000000
01000000
00000000
,
00010000
00000000
10000000
00000000
,
02000000
00000000
00000000
03000000
,
10000000
00000000
00010000
00000000
,
01000000
00000000
00100000
10000000
,
00010000
00000000
00100000
00000000
,
00001000
00000000
00010000
00000100
,
00010000
00000000
00001000
00000000
,
00010000
00000000
00000100
00001000
,
00000020
00000000
00000230
00000000
,
00000301
00001000
00000100
00000000
,
00001000
00001000
00001000
00000000
,
00000010
00000100
00000001
00000000
,
00001000
00000000
00000010
00000000
,
00000100
00000000
00000001
00001000
,
00000100
00000010
00000100
00000000
,
00001000
00000100
00010000
00000000
,
00001000
00000000
00100000
00000000
,
00020000
00000000
20030000
00000000
,
31000000
00000000
10000000
00000000
,
00010000
00000000
01000000
00100000
,
01000000
00000000
00010000
00000000
,
00100000
00000000
00001000
00010000
,
00001000
00000000
00010000
00000000
,
00000100
00000000
00001000
00000000
,
00000010
00001000
00000010
00001000
,
00000001
00000000
00001000
00000000
,
00000100
00000000
00000010
00000000
,
00000100
00000000
00001000
00000001
,
00000100
00000000
00000010
00000000
,
00010000
00000000
00001000
00100000
,
00010000
00000000
10000000
00000000
,
00020000
00000000
20030000
00000000
,
30010000
00000000
01000000
00000000
,
00001000
00000000
00000000
00000000
,
00010000
00001000
00010000
00000000
,
00000100
00000000
00001000
00000000
,
00000010
00000100
00000010
00000000
,
00001000
00000001
00001000
00000000
,
00000010
00000000
00000100
00000000
,
00000001
00000000
00001000
00000000
,
00000100
00000010
00000100
00000000
,
00001000
00000001
00001000
00000000
,
00000001
00000001
00000001
00000000
,
00000010
00000100
00001000
00000000
,
00000010
00000000
00010000
00000000
,
00001000
00000000
01000000
00010000
,
01000000
00100000
10000000
00000000
,
00010000
00010000
00010000
00000000
,
00100000
00000000
00001000
00000000
,
00010000
00000100
00002000
00000000
,
00003100
00000000
00000100
00000000
,
00000100
00000000
00000100
00000000
,
00010000
00000000
00010000
00000000
,
00010000
00000000
00010000
00000000
,
00001000
00010000
00001000
00010000
,
00001000
01000000
00001000
01000000
,
00010000
01000000
00010000
01000000
,
00001000
00010000
00001000
00010000
,
00000100
00001000
00000000
00000100
,
00000000
00000010
00000000
00000001
,
00000000
00000010
00000000
00000100
,
00000000
00001000
00000000
00001001
;

//---------------dance-double - ----------------
#NOTES:
     dance-double:
     :
     Medium:
     5:
     0.276,0.324,0.111,0.088,0.012:
00000000
00000000
00000000
00000000
,
00000000
00000000
00000000
00000000
,
00000000
00000000
00000000
00000000
,
00000000
00000000
00000000
00000000
,
00100000
00010000
01000000
00000000
,
00100000
10000000
00010000
00000000
,
00100000
00001000
00010000
00000000
,
00022000
00000000
00000000
00033000
,
00001000
00000000
00000000
00000000
00010000
00000000
00000000
00000000
00000100
00000000
00000000
00000100
00000000
00000000
00000100
00000000
,
00000000
00001000
00000001
00001000
,
00000010
00000000
00000000
00000000
00000100
00000000
00000000
00000000
00000001
00000000
00000000
00000001
00000000
00000000
00000001
00000000
,
00000000
00001000
00000010
00010000
,
00001000
00000000
00000000
00000000
00011000
00000000
00000000
00000000
00010000
00000000
00000000
00010000
00000000
00000000
00010000
00000000
,
00000000
00001000
01000000
00010000
,
20000000
00000000
30020000
00000000
,
01030000
00100000
10010000
00000000
,
10000000
01000000
00100000
00000000
,
00100000
00001000
00010000
00001000
,
00010000
00000100
00001000
00000010
,
00000100
00000000
00000001
00001000
00000001
00000000
00001000
00000000
,
00000001
00000100
00000010
00000000
,
00000010
00010000
00001000
00010000
,
00001000
01000000
00010000
00000000
,
00010000
10000000
02000000
00000000
,
13000000
00000000
01000000
10000000
,
00010000
01000000
00010000
00000000
01000000
00000000
00001000
00000000
,
00010000
00001000
00000000
00000000
00010000
00000000
00011000
00000000
,
00000000
00001000
00010000
00000000
00000100
00000000
00001000
00000000
,
00000010
00000100
00000001
00000001
,
00001000
00000010
00000100
00000100
,
00000010
00001000
00000100
00010000
,
00002000
00000000
00023000
00000000
,
00031000
00000000
00010000
00000000
00001000
01000000
00000000
00010000
,
00000000
01000000
00000000
00100000
00000000
10000000
00010000
00000000
,
10000000
00000000
01000000
00000000
00100000
00010000
00000000
00100000
,
00000000
00001000
00000000
00010000
00000000
00001000
00010000
00000000
,
00001000
00010000
00000100
00001000
,
00000020
00000000
00000230
00000000
,
00000310
00001000
00000001
00000100
,
00000020
00000000
00000000
00000030
,
00001000
00000000
00000001
00000000
00000100
00000010
00000000
00001000
,
00000000
00000010
00000000
00000000
00000000
00000000
00001000
00000000
,
00000100
00010000
00001000
00011000
,
00001000
00010000
00001000
00010000
00001000
00000000
01000000
00000000
,
00010000
00000000
10000000
00000000
01000000
00100000
00000000
00010000
,
00000000
10000000
00000000
00000000
00000000
00000000
00010000
00000000
,
01000000
00001000
00010000
00011000
,
00010000
00001000
00010000
00001000
00010000
00000000
00000100
00000000
,
00001000
00000010
00001000
00000000
,
00000001
00000100
00000010
00000100
,
00000010
00001000
00000100
00010000
,
00001000
00000000
01000000
00010000
01000000
00000000
00100000
00000000
,
10000000
01000000
10000000
00000000
,
01000000
00100000
00010000
00100000
,
00010000
01000000
00001000
00000000
,
00010000
00000100
00002000
00000000
,
00003010
00000000
00001000
00000000
,
00000010
00000000
00000100
00000001
,
00000100
00000000
00000010
00000000
,
00001000
00000000
00000100
00001000
,
00000100
00010000
00000000
00001000
,
00000000
00100000
00000000
00001000
,
00000000
01000000
00000000
00010000
,
00000000
10000000
00000000
01000000
,
00100000
00110000
00000000
00101000
,
00000000
00011000
00000000
00010100
,
00000000
00011000
00000000
01001000
,
00000000
01010000
00000000
10010000
;

//---------------dance-double - ----------------
#NOTES:
     dance-double:
     :
     Hard:
     8:
     0.424,0.404,0.199,0.064,0.175:
00000000
00000000
00000000
00000000
,
00000000
00000000
00000000
00000000
,
00000000
00000000
00000000
00000000
,
00000000
00000000
00000000
00000000
,
00000010
00000000
00000000
00000000
00001000
00000000
00000001
00000000
00000100
00000000
00000000
00000010
00000000
00000000
00000010
00000000
,
00000000
00000000
00000000
00000000
00001000
00000000
00000001
00000000
00000100
00000000
00000000
00000010
00000000
00000000
00000010
00000000
,
00010000
00000000
00000000
00000000
00001000
00000000
00100000
00000000
00010000
00000000
00000000
00100000
00000000
00000000
00100000
00000000
,
00010000
00000000
01100000
00000000
10000000
10000000
10000000
00000000
,
00010000
00000000
00000000
00000000
01000000
00000000
00100000
00000000
01000000
00000000
00000000
00010000
00000000
00000000
01000000
00000000
,
00000000
00000000
00001000
00010000
00000000
00000000
00000100
00000000
00010000
00000000
00000100
00001000
00000000
00000100
00001000
00000000
,
00000001
00000000
00000000
00000000
00000100
00000000
00000010
00000000
00000100
00000000
00000000
00000001
00000000
00000000
00000100
00000000
,
00000000
00000000
00000010
00001000
00000000
00000000
00000100
00000000
00010000
00000000
00001000
00010000
00000000
00001000
00010000
00000000
,
00000100
00000000
00000000
00000000
00011000
00000000
00000000
00000000
00010000
00000000
00000000
01000000
00000000
00000000
10000000
00000000
,
00000000
00000000
00010000
01000000
00000000
00000000
00010000
00000000
10000000
00000000
00100000
01000000
00000000
00100000
01000000
00000000
,
00020000
00000000
00230000
00000000
,
00301000
00000000
00000000
00010000
00000000
00000000
00000010
00000000
00000100
00000000
00000000
00000000
00001001
00000000
00000000
00000000
,
00000010
00000000
00000010
00001000
00000001
00000000
00000100
00000000
,
00000010
00000000
00001000
00000010
00000000
00000100
00000000
00000001
00000000
00000000
00000000
00000000
00000100
00000000
00000010
00000000
,
00001000
00000000
00000000
00000100
00000000
00000000
00000010
00000000
00000100
00000000
00000000
00000000
00000100
00000000
00001000
00000000
,
00000010
00000000
00000000
00010000
00000000
00000000
00000100
00000000
00010000
00000000
00000000
00000000
00011000
00000000
00000000
00000000
,
00001000
00000000
00001000
01000000
00010000
00000000
00100000
00000000
,
00010000
00000000
10000000
00010000
00000000
00100000
00000000
01000000
00000000
00000000
00000000
00000000
10000000
00000000
00010000
00000000
,
01000000
00000000
00000000
00100000
00000000
00000000
01000000
00000000
00100000
00000000
00000000
00000000
00100000
00000000
10000000
00000000
,
00010000
00000000
00000000
00100000
00000000
00000000
00001000
00000000
00020000
00000000
00000000
00000000
00000000
00000000
00030000
00000000
,
00011000
00000000
00010000
00000100
,
00001000
00000100
00000010
00000000
00000001
00000100
00000010
00000000
,
00001000
00000101
00000010
00001100
,
00000100
00001000
00000100
00010000
00001000
00100000
00010000
01000000
,
00010000
00000000
01000000
00000000
00001000
00010000
00001000
00000000
,
00010000
00000000
00000100
00000000
00010000
00001000
00010000
00000000
,
00001000
00000000
00100000
00000000
00010000
01000000
00000000
00100000
,
00000000
10000000
00020000
00000000
00000000
00000000
00000000
00030000
,
10000000
00000000
01000000
00100000
00001000
00010000
00000000
00001000
,
00000000
00010000
00000000
00001100
00000000
00001000
00000010
00000000
,
00000100
00000000
00000001
00000100
00000010
00001000
00000000
00000010
,
00000000
00001000
00000000
00001100
00000000
00010000
00001000
00000000
,
00011000
00010000
00000100
00000010
,
00000001
00000000
00000100
00000000
00000000
00000000
00000100
00000000
00000010
00000000
00001000
00000001
00000000
00001000
00000001
00000000
,
00000100
00000000
00000010
00001000
00000010
00010000
00001000
00100000
,
00002000
00000000
00023000
00000000
,
00031000
00000000
01000000
00010000
01000000
00100000
00000000
10000000
,
00000000
01000000
00000000
00000000
00100000
00010000
00100000
00001000
,
00010000
00000000
00000000
00001000
00000000
00000000
01000000
00000000
00000000
00000000
01010000
00000000
00000000
00000000
00010000
00000000
,
10000000
01000000
00100000
00010000
10000000
00000000
01100000
00000000
,
00100000
00000000
01000000
00010000
01000000
00001000
00000000
00010000
,
00000000
00000100
00000000
00000000
00001000
00000010
00001000
00000001
,
00000100
00000000
00000000
00000010
00000000
00000000
00001000
00000000
00000000
00000000
00000101
00000000
00000000
00000000
00000000
00000000
,
00000001
00000010
00000100
00001000
00000001
00000000
00000110
00000000
,
00000100
00000000
00000100
00000010
00000001
00000000
00001001
00000000
,
00000001
00000000
00001000
00000010
00000000
00000100
00000000
00000001
00000000
00000000
00000000
00000000
00001000
00000000
00000010
00000000
,
00001000
00000000
00000000
00000100
00000000
00000000
00010000
00000000
00001000
00000000
00000000
00000000
00001000
00000000
01000000
00000000
,
00010000
00000000
00000000
00100000
00000000
00000000
01000000
00000000
10000000
00000000
00000000
00000000
10010000
00000000
00000000
00000000
,
10000000
00000000
10000000
00100000
01000000
00000000
10010000
00000000
,
00010000
00000000
10000000
00100000
00000000
01000000
00000000
00010000
00000000
00000000
00000000
00000000
00100000
00000000
00010000
00000000
,
00100000
00000000
00000000
00001000
00000000
00000000
00010000
00000000
00001000
00000000
00000000
00000000
00001000
00000000
00010000
00000000
,
00000100
00000000
00000000
00001000
00000000
00000000
00000001
00000000
00000200
00000000
00000000
00000000
00000000
00000000
00000000
00000000
,
00000301
00000000
00000000
00000000
00001000
00000000
00000100
00000000
00000010
00000000
00000000
00000010
00000000
00000000
00000010
00000000
,
00000000
00000000
00000100
00001000
00000000
00000000
00000010
00000000
00000100
00000000
00000000
00000010
00000000
00000000
00010000
00000000
,
00001000
00000000
00000000
00000000
00100000
00000000
00010000
00000000
01000000
00000000
00000000
01000000
00000000
00000000
01000000
00000000
,
00200000
10000000
00000000
10300000
,
01000000
00000000
00100000
00000000
00100000
00001000
00010000
00000000
,
00001000
00000000
01000000
00000000
01000000
00010000
00100000
00000000
,
00001000
00000000
00010000
00000000
00010000
00000100
00001000
00000000
,
00000010
00000000
00000100
00000000
00000100
00000001
00000010
00000000
,
00000100
00001100
00010000
00010100
,
00001000
00110000
00100000
01010000
,
00100000
10010000
01000000
00011000
,
00010000
00000000
00001100
00000000
00000010
00000100
00000110
00000000
;
