#TITLE:Unforgettable;
#SUBTITLE:;
#ARTIST:Fast Food Rockers;
#TITLETRANSLIT:;
#SUBTITLETRANSLIT:;
#ARTISTTRANSLIT:;
#GENRE:;
#CREDIT:;
#MENUCOLOR:;
#METERTYPE:DDR;
#BANNER:Unforgettable-bn.png;
#BACKGROUND:Unforgettable.png;
#LYRICSPATH:;
#CDTITLE:ddrencorecdtitle.png;
#MUSIC:Unforgettable.mp3;
#OFFSET:-0.051;
#SAMPLESTART:37.173;
#SAMPLELENGTH:15.280;
#SELECTABLE:YES;
#LISTSORT:;
#BPMS:0.000=129.000,112.000=64.500,128.000=129.000,192.000=64.500,196.000=54.840;
#STOPS:;
#BGCHANGES:;
#ATTACKS:;

//---------------dance-single - ----------------
#NOTES:
     dance-single:
     :
     Hard:
     7:
     0.365,0.358,0.080,0.133,0.062: // measure 1
0000
0000
0000
0000
,  // measure 2
0000
0000
0000
0000
,  // measure 3
0000
0000
0000
0000
,  // measure 4
0000
0000
0000
0000
,  // measure 5
1000
0001
0100
0000
0010
0100
0001
0000
,  // measure 6
0010
0100
1000
0001
0100
0000
0001
0000
,  // measure 7
1000
0100
1000
0010
0100
0000
0010
1000
,  // measure 8
0001
0000
0000
0000
0010
0000
0000
0000
0001
0000
0000
1000
0100
0000
1000
0000
,  // measure 9
0010
0100
0001
0000
0010
0001
0100
0000
,  // measure 10
0010
1000
0001
0010
0100
0000
0010
0001
,  // measure 11
0100
0010
1000
0000
0010
0000
1000
0001
,  // measure 12
0010
0000
0001
0000
0100
0000
0101
0001
,  // measure 13
2000
0000
0100
0000
0010
0000
3100
1000
,  // measure 14
0010
0000
0100
0000
0100
0010
0010
0100
,  // measure 15
0001
0000
0000
0100
0000
0000
0010
0000
1000
0000
0000
0000
0001
0000
0010
0000
,  // measure 16
0100
0000
0000
1000
0000
0000
0001
0000
0000
0000
0001
0000
1000
0000
0010
0000
,  // measure 17
0200
0000
0001
0000
0010
0000
0301
1000
,  // measure 18
0100
0000
0010
0000
0010
0100
0100
1000
,  // measure 19
0010
0000
0000
0100
0000
0000
0010
0000
1000
0000
0100
0000
1000
0000
0001
0000
,  // measure 20
0010
0000
0000
0100
0000
0000
0010
0000
0001
0000
0000
0000
0000
0000
0000
0000
,  // measure 21
1000
0000
0001
0100
0000
0100
0001
0000
0000
0000
1000
0000
0100
0000
1000
0000
,  // measure 22
0001
0000
0010
0100
0001
0000
0001
0010
,  // measure 23
0001
0000
1000
0100
0000
0100
1000
0000
0000
0000
0010
0000
0100
0000
0001
0000
,  // measure 24
0010
0100
1000
0010
0100
0000
0001
0010
,  // measure 25
0002
0000
1000
1000
1003
0000
0100
0001
,  // measure 26
0020
0000
0100
0100
0130
0000
0010
0000
,  // measure 27
2000
0100
3002
0010
,  // measure 28
0103
0000
0010
0100
0000
0010
1000
0000
,  // measure 29
0010
0000
0100
0000
0001
0000
0010
0001
,  // measure 30
1000
0000
0010
0000
0100
0000
0010
0100
,  // measure 31
1001
0000
0001
0000
0010
0000
0001
1000
,  // measure 32
0100
0000
0010
0000
0001
1000
0100
1000
,  // measure 33
0010
0100
0001
0100
0000
0010
1000
0100
,  // measure 34
1000
0000
0001
1000
0100
0000
1000
0100
,  // measure 35
1000
0001
0010
0100
0000
0010
0001
1000
,  // measure 36
0010
0100
0001
0100
0010
0000
0100
0010
,  // measure 37
0020
0000
1000
0000
0100
0000
1030
0001
,  // measure 38
0200
0010
1000
0301
,  // measure 39
1100
0000
0110
0000
,  // measure 40
0011
1001
1100
0110
,  // measure 41
0010
0000
0001
1000
0000
1000
0001
0000
0000
0000
0100
0000
0010
0000
1000
0000
,  // measure 42
0100
0010
0001
0100
0010
0000
0100
0010
,  // measure 43
1000
0000
0001
0100
0000
0100
0001
0000
0000
0000
1000
0000
0100
0000
1000
0000
,  // measure 44
0010
0100
0001
0010
0100
0000
1000
0001
,  // measure 45
2000
0000
0100
0001
3100
0000
1000
0000
,  // measure 46
0002
0000
0100
1000
0103
0000
0010
0000
,  // measure 47
0200
0001
0320
1000
,  // measure 48
0130
0000
0001
0010
0000
0001
1000
0000
,  // measure 49
0100
0000
1000
0000
0001
0000
0100
0010
,  // measure 50
2000
0000
0000
0000
0000
0000
3001
0000
0010
0000
0000
0001
0000
0000
2002
0000
,  // measure 51
0000
0000
0000
0000
0000
3003
0000
0000
;

//---------------dance-single - ----------------
#NOTES:
     dance-single:
     :
     Medium:
     5:
     0.271,0.291,0.071,0.053,0.000:
0000
0000
0000
0000
,
0000
0000
0000
0000
,
0000
0000
0000
0000
,
0000
0000
0000
0000
,
0001
0100
0001
0000
0010
0000
0001
0000
,
1000
0100
1000
0000
0010
0000
0000
0000
,
0010
0100
0010
0000
1000
0000
0001
0010
,
0001
0100
0010
1000
,
0001
0010
0001
0000
0100
0000
0010
0000
,
1000
0100
1000
0000
0001
0000
0000
0000
,
0010
0100
0010
0000
0001
0000
1000
0100
,
1000
0001
0000
0010
,
0020
0001
0001
0031
,
2000
0000
0010
0000
0000
0010
3010
0000
,
0100
0001
0010
0001
,
1000
0010
0100
0010
,
2000
0010
0010
3010
,
0200
0000
0001
0000
0000
0001
0301
0000
,
0100
0000
0010
1000
0010
0000
1000
0000
,
0001
0000
0010
0001
0010
0000
0000
0000
,
0100
0010
0001
1000
,
0010
0000
0100
0001
0010
0000
0000
0000
,
0001
1000
0010
0100
,
0010
0000
1000
0001
0010
0000
0000
0000
,
0010
0001
0010
0001
0010
0000
0001
0000
,
1000
0100
1000
0100
1000
0000
0100
0000
,
0100
1000
1000
0001
,
0100
0010
1000
0001
,
1001
0100
0010
1000
,
0001
0000
0010
0000
0100
0000
1000
0001
,
1000
0010
0100
0010
,
1000
0001
0010
0100
,
0100
0100
0010
0001
,
0100
0010
0100
0010
0100
0000
0000
0000
,
0010
0010
0100
0001
,
0010
0001
0010
0001
0010
0000
0000
0001
,
0001
0100
0010
1000
,
0001
0000
0100
0000
0010
0000
1000
0001
,
1000
0000
0001
0000
,
0011
0011
1100
1100
,
1000
0001
1000
0001
1000
0000
0010
0000
,
0100
0001
0100
0001
0100
0000
0010
0000
,
1000
0000
0100
0010
0100
0000
1000
0000
,
0001
0000
0100
0001
0100
0000
0010
0100
,
0001
0000
1000
0000
0001
0000
0010
0001
,
0100
0100
0010
1000
,
1100
0000
0110
0000
,
0001
0010
0001
1000
,
1001
0010
0100
0001
,
2000
0000
0000
0000
0000
0000
0000
0020
,
0000
0000
0000
0000
0000
3030
0000
0000
;

//---------------dance-single - ----------------
#NOTES:
     dance-single:
     :
     Easy:
     3:
     0.197,0.246,0.124,0.080,0.000:
0000
0000
0000
0000
,
0000
0000
0000
0000
,
0000
0000
0000
0000
,
0000
0000
0000
0000
,
0001
0000
0100
0000
,
0001
1000
0001
0000
,
0010
0000
0001
0000
,
0100
0010
1000
0010
,
0100
0000
0010
0000
,
1000
0001
0010
0000
,
0001
0000
0100
0000
,
0010
1000
0001
0010
,
0002
0000
0103
0000
,
2000
0010
3010
0000
,
0020
1000
2030
0001
,
3002
0010
0013
0000
,
0002
0000
1003
0000
,
0020
1000
1030
0000
,
1000
0001
0100
0010
,
0110
1001
0110
0000
,
0010
1000
0001
0000
,
0010
0001
0100
0000
,
0010
0100
0010
0100
,
0001
1000
0100
0000
,
0010
0001
1001
0000
,
0010
1000
1001
0000
,
0010
0000
0100
0000
,
0001
1000
0100
1000
,
0001
0000
0100
0000
,
0010
0000
1000
0001
,
1001
0000
0001
0000
,
0010
0000
0001
1000
,
1100
1000
0010
0000
,
0100
0010
1000
0000
,
0001
0010
0100
0010
,
0001
1000
0001
0000
,
1100
0000
0000
0000
,
0011
0000
0000
0000
,
1001
0000
0101
0000
,
0100
0010
1000
0001
,
0010
0001
0100
0000
,
0010
0100
0010
0000
,
1000
0100
0010
1000
,
0010
0100
1000
0000
,
0010
0100
0001
1000
,
0001
0100
0010
1000
,
1001
0000
0101
0000
,
0010
1000
0001
0010
,
0001
0000
0100
0010
,
2002
0000
0000
0000
,
0000
0000
0000
0000
0000
3003
0000
0000
;

//---------------dance-single - ----------------
#NOTES:
     dance-single:
     :
     Beginner:
     1:
     0.105,0.153,0.009,0.000,0.000:
0000
0000
0000
0000
,
0000
0000
0000
0000
,
0000
0000
0000
0000
,
0000
0000
0000
0000
,
1000
0000
1000
0000
,
0001
0000
0001
0000
,
0100
0000
0100
0000
,
0010
0000
0010
0010
,
0010
0000
0010
0000
,
1000
0000
1000
0000
,
0001
0000
0001
0000
,
0010
0000
0010
0010
,
0010
0000
0000
0000
,
0001
0000
0000
0000
,
1000
0000
1000
0000
,
0001
0000
0001
0000
,
0100
0000
0000
0000
,
0010
0000
0000
0000
,
0100
0000
0100
0000
,
0010
0000
0010
0000
,
1000
0000
0000
0000
,
0001
0000
0010
0000
,
0100
0000
0000
0000
,
0010
0000
0001
0000
,
1000
0000
0000
0000
,
0001
0000
0000
0000
,
0100
0000
0010
0000
,
0100
0000
0001
0001
,
0001
0000
1000
0000
,
0100
0000
1000
0000
,
0001
0000
0100
0000
,
0010
0000
1000
0000
,
0100
0000
0000
0000
,
1000
0000
0010
0000
,
0100
0000
0000
0000
,
0001
0000
0010
0000
,
0001
0000
0000
0000
,
1000
0000
0000
0000
,
0010
0000
0010
0000
,
1000
1000
1000
1000
,
1000
0000
0000
0000
,
0001
0000
0000
0000
,
0010
0000
0001
0000
,
0100
0000
0010
0000
,
1000
0000
0000
0000
,
0001
0000
0000
0000
,
0010
0000
0010
0000
,
0001
0000
1000
1000
,
1000
0000
0010
0000
,
0100
0000
1001
0000
;

//---------------dance-double - ----------------
#NOTES:
     dance-double:
     :
     Hard:
     8:
     0.385,0.380,0.124,0.080,0.128:
00000000
00000000
00000000
00000000
,
00000000
00000000
00000000
00000000
,
00000000
00000000
00000000
00000000
,
00000000
00000000
00000000
00000000
,
00010000
00000000
00100000
00000000
00010000
00000000
01000000
00100000
00000000
00000000
10000000
00000000
00010000
00000000
01000000
00000000
,
00100000
00000000
10000000
00000000
01000000
00000000
00100000
00010000
00000000
00000000
00000000
00000000
01000000
00000000
00000000
00000000
,
00001000
00000000
00010000
00000000
00000100
00000000
00010000
00001000
00000000
00000000
00100000
00000000
00001000
00000000
00010000
00000000
,
00000100
00000000
00000000
00000000
00000010
00000000
00000000
00000000
00001100
00000000
00000000
00000001
00001000
00000000
00000010
00000000
,
00000100
00000000
00000010
00000000
00001000
00000000
00000100
00010000
00000000
00000000
00001000
00000000
00100000
00000000
00001000
00000000
,
00010000
00000000
00000100
00000000
00001000
00000000
00000010
00000100
00000000
00000000
00000000
00000000
00000010
00000000
00001000
00000000
,
00000001
00000010
00000001
00000100
00000010
00001000
00000100
00000010
,
00000001
00000000
00001000
00000000
00000100
00010000
00000100
00010000
,
00002000
00000000
00100000
00000000
01000000
00000000
00013000
00001000
,
02000000
00000000
00010000
00000000
03100000
10010000
10010000
00000000
,
00100000
01000000
00100000
10000000
00010000
00100000
00001000
00010000
,
01000000
00000000
00000000
00100000
00000000
00000000
00010000
00000000
00000000
00000000
01000000
00000000
00010000
00000000
01000000
00000000
,
00020000
00000000
00100000
00000000
10000000
00000000
01030000
00100000
,
02000000
00000000
00001000
00000000
03010000
01001000
01001000
00001000
,
00010000
00000000
00000000
00000100
00000000
00000000
00010000
00000000
00001000
00000000
00100000
00000000
00000000
00000000
00001000
00000000
,
00010000
00000000
00000000
00000100
00000000
00000000
00001000
00000000
00000010
00000000
00000000
00000000
00000110
00000000
00000000
00000000
,
00001000
00000000
00000001
00000100
00000000
00000001
00000100
00000000
00000000
00000000
00000100
00000000
00000010
00000000
00001000
00000000
,
00000100
00000000
00010000
00001000
00000000
00000000
00010000
00000000
00001000
00000000
00000000
00000000
00100000
00000000
00001000
00000000
,
00010000
00000000
00000100
00001000
00000000
00000100
00001000
00000000
00000100
00000000
00010000
00000000
00001000
00000000
00100000
00000000
,
00010000
01000000
00100000
10000000
00010000
00000000
00100000
01000000
,
20000000
00000000
00100000
00000000
00010000
00000000
30100000
01000000
,
00020000
00100000
01000000
00130000
,
00101000
00010000
00010100
00001000
,
00100000
00001000
00010000
00000100
00001000
00000010
00000100
00000001
,
00000010
00000000
00000001
00000000
00001000
00000000
00000010
00010000
,
00001000
00000000
00010000
00000000
00000010
00001000
00000100
00010000
,
00011000
00000000
00001000
00000000
00100000
00000000
00010000
01000000
,
00100000
00000000
10000000
00000000
00010000
00100000
00010000
01000000
,
00100000
00000000
00000000
10000000
00000000
00000000
00100000
00000000
00000000
01000000
00000000
00000000
00010000
00000000
00100000
00000000
,
01000000
00000000
00000000
00100000
00000000
00000000
00010000
00000000
01000000
00000000
00000000
00000000
01000000
00000000
00010000
00000000
,
00100000
00000000
00000000
00001000
00000000
00000000
00010000
00000000
00000000
00001000
00000000
00000000
00100000
00000000
00010000
00000000
,
01000000
00000000
00000000
00001000
00000000
00000000
00010000
00000000
00000100
00000000
00000000
00000000
00001000
00000000
00000010
00000000
,
00000010
00000000
00000100
00000000
00000101
00000000
00000010
00001000
,
00000100
00010000
00010010
00000010
,
00000100
00000000
00000001
00000000
,
00001000
00000100
00010000
00001000
,
00100000
00000000
00010000
01000000
00000000
00010000
01000000
00000000
00000000
00000000
00100000
00000000
10000000
00000000
00010000
00000000
,
00100000
00000000
00010000
01000000
00000000
00000000
00010000
00000000
10000000
00000000
00000000
00000000
01000000
00000000
00100000
00000000
,
00010000
00000000
01000000
00001000
00000000
01000000
00001000
00000000
00100000
00000000
00001000
00000000
00010000
00000000
00000100
00000000
,
00000010
00000000
00000001
00000000
00000100
00000000
00000010
00001000
00000000
00000000
00000000
00000000
00000010
00000000
00000100
00000000
,
00000001
00000000
00001000
00000100
00000000
00000000
00001000
00000000
00000010
00000000
00000000
00000000
00000100
00000000
00000010
00000000
,
00001000
00000000
00000100
00010000
00000000
00000000
00001000
00000000
00100000
00000000
00000000
00000000
00001000
00000000
00000000
00000000
,
00010000
00011000
00001000
00011000
,
00010000
00001000
00100000
00001000
00010000
00000010
00001000
00000100
,
00010000
00000000
00001000
00000000
00100000
00000000
00010000
01000000
,
00200000
00000000
00000000
00000000
00000000
00000000
10300000
00000000
00010000
00000000
00000000
00100000
00000000
00000000
02002000
00000000
,
00000000
00000000
00000000
00000000
00000000
03003000
00000000
00000000
;

//---------------dance-double - ----------------
#NOTES:
     dance-double:
     :
     Easy:
     2:
     0.119,0.157,0.000,0.053,0.000:
00000000
00000000
00000000
00000000
,
00000000
00000000
00000000
00000000
,
00000000
00000000
00000000
00000000
,
00000000
00000000
00000000
00000000
,
00001000
00000000
00000000
00000000
,
01000000
00000000
00000000
00000000
,
00010000
00000000
00000000
00000000
,
00100000
00000000
00010000
00000000
,
01000000
00000000
00000000
00000000
,
00001000
00000000
00000000
00000000
,
00010000
00000000
00000000
00000000
,
00000100
00000000
00000010
00000000
,
00000001
00000000
00001000
00000000
,
00000100
00000000
00010000
00010000
,
00010000
00000000
00001000
00000000
,
00010000
00000000
00001000
00000000
,
00100000
00000000
00010000
00000000
,
00100000
00000000
00010000
00010000
,
00010000
00000000
01000000
00000000
,
00100000
00000000
10000000
00000000
,
00020000
00000000
00000000
00030000
,
20000000
00000000
00000000
30000000
,
00200000
00000000
00000000
00300000
,
02000000
00000000
00000000
03000000
,
00010000
00000000
00100000
00000000
,
00010000
00000000
01000000
00000000
,
00001000
00000000
00000000
00000000
,
00010000
00000000
00000100
00000100
,
00000100
00000000
00001000
00000100
,
00001000
00000000
00000100
00010000
,
00000100
00000000
00010000
00001000
,
00010000
00000000
00001000
00100000
,
00010000
00000000
01000000
00000000
,
00010000
00010000
00010000
00000000
,
00100000
00000000
01000000
00000000
,
10000000
10000000
10000000
00000000
,
00100000
00000000
00000000
00000000
,
01000000
00000000
00000000
00000000
,
00001000
00000000
00010000
00000000
,
00001000
00010000
00001000
00010000
,
00001000
00000000
00000000
00000000
,
00100000
00000000
00001000
00000000
,
00010000
00000000
00000000
00000000
,
00001000
00000000
00010000
00000000
,
00000100
00000000
00000000
00000000
,
00000010
00000000
00000000
00000000
,
00000001
00000000
00001000
00000000
,
00000100
00000000
00010000
00001000
,
00010000
00000000
00001000
00100000
,
00002000
00000000
00000000
00000000
00000000
00000000
00000000
00020000
,
00000000
00000000
00000000
00000000
00000000
00033000
00000000
00000000
;

//---------------dance-double - ----------------
#NOTES:
     dance-double:
     :
     Medium:
     6:
     0.303,0.313,0.062,0.053,0.004:
00000000
00000000
00000000
00000000
,
00000000
00000000
00000000
00000000
,
00000000
00000000
00000000
00000000
,
00000000
00000000
00000000
00000000
,
00010000
00000000
01000000
00100000
10000000
00000000
00100000
00000000
,
01000000
00000000
00010000
00100000
00010000
00000000
01000000
00000000
,
01000000
00001000
01000000
00001000
01000000
00000000
00001000
00010000
,
00001000
00010000
00000100
00001000
,
00000100
00000000
00010000
00001000
00010000
00000000
00000100
00000000
,
00000010
00000000
00000001
00000100
00000010
00000000
00001000
00000000
,
00000100
00010000
00000100
00010000
00000100
00000000
00001000
00000100
,
00010000
00001000
00100000
00010000
,
02000000
00010000
00001000
03010000
,
00010000
00000000
10000000
00000000
01000000
00100000
00100000
00000000
,
00010000
00000000
01000000
00010000
01000000
00000000
00010000
00100000
,
00010000
00000000
00100000
00000000
00001000
00000000
00010000
00000100
,
00020000
00001000
00000010
00031000
,
00001000
00000000
00010000
00000000
00000100
00000010
00000010
00000000
,
00000100
00000000
00001000
00000000
00000001
00000100
00000001
00000100
,
00000001
00001000
00001001
00000000
,
00000010
00000100
00000001
00001000
,
00000100
00010000
00000100
00001000
00000100
00000000
00010000
00001000
,
00100000
00010000
01000000
00100000
,
10000000
01000000
10000000
00010000
10000000
00000000
00100000
01000000
,
00010000
00000000
00100000
00000000
00001000
00000000
00100000
00010000
,
01000000
00100000
10000000
01000000
,
20000000
00010000
30020000
00100000
,
00130000
00000000
00001000
00010000
00000000
00001000
00010000
00000000
,
00001000
00010000
00001000
00100000
,
00001000
00000000
00010000
00000000
00000100
00000000
00000010
00000001
,
00000010
00000001
00000100
00000010
,
00001000
00000000
00000100
00000000
00010000
00000000
00001000
00010000
,
00001000
00100000
00001000
00010000
00000100
00000000
00000010
00000100
,
00001000
00000010
00000100
00000001
,
00001000
00000100
00010000
00000100
00001000
00000000
00000100
00000010
,
00000100
00000000
00001000
00000000
00000100
00000000
00010000
00001000
,
00001000
00000000
00100000
00000000
00010000
00000000
01000000
00100000
,
10000000
01000000
00100000
00010000
,
01010000
00000000
01001000
00000000
,
00011000
00010100
00010010
00011000
,
00010000
00000100
00010000
00000100
00010000
00000000
00000010
00000000
,
00000100
00000001
00000100
00000010
00001000
00000000
00000001
00000000
,
00000010
00000001
00000010
00000000
00000001
00001000
00000001
00000000
,
00001000
00000100
00010000
00000100
00010000
00000000
00001000
00100000
,
00010000
00000000
01000000
00000000
00100000
00000000
10000000
00010000
,
10000000
00100000
01000000
00010000
,
00100000
00000000
00001000
00000000
,
00010000
00000000
00001000
00000000
00100000
00001000
00010000
00000100
,
00001000
00000000
00000100
00000000
00010000
00000000
00001000
00100000
,
00020000
00000000
00000000
00000000
00000000
00000000
00000000
00000000
01000000
00000000
00000000
01000000
00000000
00000000
02000000
00000000
,
00000000
00000000
00000000
00000000
00000000
03030000
00000000
00000000
;
