#TITLE:Unbreakable;
#SUBTITLE:;
#ARTIST:Fireflight;
#TITLETRANSLIT:;
#SUBTITLETRANSLIT:;
#ARTISTTRANSLIT:;
#GENRE:;
#CREDIT:;
#MENUCOLOR:;
#METERTYPE:DDR;
#BANNER:Unbreakable-bn.png;
#BACKGROUND:Unbreakable-bg.png;
#LYRICSPATH:Unbreakable-lrc.lrc;
#CDTITLE:;
#MUSIC:Unbreakable.mp3;
#OFFSET:-0.012;
#SAMPLESTART:85.332;
#SAMPLELENGTH:21.350;
#SELECTABLE:YES;
#LISTSORT:;
#DISPLAYBPM:180.000;
#BPMS:0.000=180.000,334.000=153.500,334.667=115.000;
#STOPS:250.500=1.333
;
#BGCHANGES:;
#ATTACKS:;

//---------------dance-single - [Ness]----------------
#NOTES:
     dance-single:
     [Ness]:
     Hard:
     8:
     0.534,0.641,0.663,0.185,0.008: // measure 1
0000
0000
0000
0000
,  // measure 2
0000
0000
0000
0000
,  // measure 3
0000
0000
0000
0000
,  // measure 4
0000
0000
0000
0000
,  // measure 5
1001
0000
1001
0000
0001
0010
0011
0000
,  // measure 6
0011
0000
0001
0100
0001
0010
0100
1000
,  // measure 7
2100
0000
0100
0000
3010
1000
0100
0000
,  // measure 8
1002
0000
0010
0000
1003
0001
0100
0001
,  // measure 9
0101
0000
0101
0000
0001
0010
0011
0000
,  // measure 10
0011
0000
0010
0000
0100
1000
0100
1000
,  // measure 11
1002
0000
0100
0000
0013
0001
0100
0000
,  // measure 12
0101
0000
0001
0010
0100
1000
0010
0100
,  // measure 13
2002
0000
0000
0000
,  // measure 14
0000
0000
0000
0003
,  // measure 15
0200
0000
0000
3000
,  // measure 16
0020
0000
0000
0330
,  // measure 17
0002
0000
0200
0000
,  // measure 18
0000
0000
0000
0003
,  // measure 19
0020
0000
0000
0300
,  // measure 20
2000
0000
0000
3030
,  // measure 21
0001
0000
0010
0100
1000
0000
0010
0000
,  // measure 22
0100
0100
1001
0000
,  // measure 23
0001
0000
1000
0001
0100
0000
0010
0000
,  // measure 24
1000
1000
1100
0000
,  // measure 25
0100
0000
1000
0001
1000
0000
0010
0000
,  // measure 26
0100
0001
1000
0001
,  // measure 27
0020
0000
0100
0200
,  // measure 28
0000
0000
0000
0330
,  // measure 29
0011
0000
0010
0001
1000
0000
0010
0000
,  // measure 30
1010
0010
1001
0000
,  // measure 31
1100
0000
0100
1000
0001
0000
0100
0000
,  // measure 32
0101
0100
1001
0000
,  // measure 33
0001
1000
1001
0000
0000
0000
1001
1000
,  // measure 34
0100
0010
0011
0000
,  // measure 35
0010
0100
1001
0000
0000
0000
1001
0010
,  // measure 36
1000
0000
0001
0000
0100
0001
0100
0010
,  // measure 37
1010
0000
0010
1000
0001
0000
0010
0000
,  // measure 38
0011
0010
1001
0000
,  // measure 39
0101
0000
0100
0001
1000
0000
0100
0000
,  // measure 40
1100
0100
1001
0000
,  // measure 41
0001
0100
1001
0000
0000
0000
1001
1000
,  // measure 42
0100
0000
0010
0000
0001
0010
0001
0000
,  // measure 43
0011
0010
0100
0000
0000
0000
0110
0100
,  // measure 44
1000
0000
0001
0001
1000
0010
0100
0002
,  // measure 45
1000
1000
1000
0000
,  // measure 46
0103
0000
0001
0000
0100
0010
0000
0000
,  // measure 47
1000
0010
1000
0000
0100
0000
0010
0100
,  // measure 48
1000
0002
0000
0000
0103
0000
0100
0001
,  // measure 49
2000
0000
0000
0000
,  // measure 50
0000
0000
0000
0000
3000
0000
0000
0001
,  // measure 51
0010
0000
1000
0010
0000
0001
0010
0000
,  // measure 52
0100
0010
0000
0001
0010
0000
0001
0100
,  // measure 53
0000
1000
0100
0000
0010
1000
0000
0001
,  // measure 54
0100
0000
0010
1000
0000
0000
0000
0000
,  // measure 55
1001
0000
0001
1000
0000
0100
0010
0000
,  // measure 56
1000
0020
0000
0000
0000
0000
0000
0000
,  // measure 57
0031
0000
0011
0000
0010
0100
1000
0001
,  // measure 58
0000
1000
0001
0000
0001
0100
0010
1000
,  // measure 59
0000
0001
1000
0000
0001
1000
0100
0010
,  // measure 60
0000
0011
0000
1001
0000
0101
0000
1001
,  // measure 61
0000
0010
0100
0000
0010
1000
0100
0010
,  // measure 62
0000
0001
1000
0000
0001
0100
0010
1000
,  // measure 63
0000
0010
1001
0000
0000
1100
0000
0000
,  // measure 64
0011
0000
0010
0001
1001
0000
0001
0100
,  // measure 65
0101
1000
1001
0000
,  // measure 66
1010
0000
0010
1000
1001
0000
1000
0100
,  // measure 67
1100
0100
1001
0000
,  // measure 68
0001
0010
0110
0000
1000
0000
0101
0001
,  // measure 69
1000
0010
0110
0000
,  // measure 70
0001
1000
1001
0000
0010
0000
1100
1000
,  // measure 71
0001
0000
0100
0000
0010
1000
0010
1000
,  // measure 72
1001
0000
0001
0010
0011
0000
0010
0100
,  // measure 73
1100
0100
1001
0000
,  // measure 74
1010
0000
0010
0100
0110
0000
0001
1000
,  // measure 75
1001
0000
1000
0000
1100
0000
0100
1000
,  // measure 76
1010
0000
1010
0000
0100
0001
0101
0000
,  // measure 77
0101
0000
0000
0000
0110
0000
1000
0001
,  // measure 78
0011
0000
0011
0000
0100
0010
1010
0000
,  // measure 79
1010
0000
1000
0100
0010
0001
0010
0100
,  // measure 80
1100
0000
0010
0001
0010
0000
0001
0010
,  // measure 81
1000
0000
0010
1000
0010
0000
0001
0000
,  // measure 82
1001
0000
1000
0100
1000
0000
0100
0001
,  // measure 83
0100
2000
0000
3000
0110
0000
0010
0002
,  // measure 84
2000
0000
0000
3003
0000
0000
1001
0000
0100
0000
0010
0000
,  // measure 85
2002
0000
0000
3003
;

//---------------dance-single - [Ness]----------------
#NOTES:
     dance-single:
     [Ness]:
     Medium:
     5:
     0.340,0.390,0.344,0.143,0.008: // measure 1
0000
0000
0000
0000
,  // measure 2
0000
0000
0000
0000
,  // measure 3
0000
0000
0000
0000
,  // measure 4
0000
0000
0000
0000
,  // measure 5
1000
1100
0000
0001
,  // measure 6
0101
0100
0010
1000
,  // measure 7
0001
0010
0001
0001
,  // measure 8
0010
0001
0100
0010
,  // measure 9
1000
1010
0000
0001
,  // measure 10
0011
0010
0100
1000
,  // measure 11
0001
0001
0100
0010
,  // measure 12
1000
1000
0001
0100
,  // measure 13
2002
0000
0000
0000
,  // measure 14
0000
0000
3003
0000
,  // measure 15
0200
0000
0000
0000
,  // measure 16
0320
0000
0000
0000
,  // measure 17
1030
0000
0200
0000
,  // measure 18
0000
0000
0000
0000
,  // measure 19
0320
0000
0000
0000
,  // measure 20
0032
0000
0000
0000
,  // measure 21
1003
0000
1010
0000
,  // measure 22
0010
0100
1001
0000
,  // measure 23
0001
0000
0011
0000
,  // measure 24
0010
0100
1001
0000
,  // measure 25
1000
0000
0110
0000
,  // measure 26
0010
1000
1001
0000
,  // measure 27
0200
0000
0000
0002
,  // measure 28
0000
0000
0303
0000
,  // measure 29
1000
1000
0001
1000
,  // measure 30
0100
0100
0010
0000
,  // measure 31
0001
0001
1000
0001
,  // measure 32
0100
0100
0010
0000
,  // measure 33
1000
1100
0000
0001
,  // measure 34
0101
0100
0010
0000
,  // measure 35
1000
1010
0000
0001
,  // measure 36
0011
0000
0110
0000
,  // measure 37
0001
0001
0010
0100
,  // measure 38
1000
1000
0010
0000
,  // measure 39
1000
1000
0010
0100
,  // measure 40
0001
0001
0010
0000
,  // measure 41
1000
1100
0000
0001
,  // measure 42
0101
0100
0010
0000
,  // measure 43
1000
1100
0000
0001
,  // measure 44
0101
0000
0110
0000
,  // measure 45
2000
0000
0010
0000
,  // measure 46
0100
0000
3000
0000
1000
0001
0000
0000
,  // measure 47
0100
0100
0010
1000
,  // measure 48
0000
0002
0000
0000
0103
0000
0000
0000
,  // measure 49
2002
0000
0000
0000
,  // measure 50
3003
0000
0000
0000
,  // measure 51
1000
0000
0000
0010
0000
0000
0100
0000
,  // measure 52
0000
0001
0000
0000
0010
0000
0000
0100
,  // measure 53
0000
0000
0010
0000
0000
0001
0000
0000
,  // measure 54
0100
0000
0000
0010
0000
0000
0000
0000
,  // measure 55
0100
0000
0000
0010
0000
0000
1000
0000
,  // measure 56
0000
0002
0000
0000
0000
0000
0000
0000
,  // measure 57
0013
0000
0100
0000
1000
0000
0000
1001
,  // measure 58
0000
0000
0001
0000
0100
0000
0000
0101
,  // measure 59
0000
0000
0100
0000
0010
0000
0000
1000
,  // measure 60
0000
0001
0000
1000
0000
0001
0000
1000
,  // measure 61
0000
0000
0001
0000
0100
0000
0000
0101
,  // measure 62
0000
0000
0100
0000
0010
0000
0000
1000
,  // measure 63
0000
0000
1001
0000
0000
1001
0000
0000
,  // measure 64
1000
1000
0010
0100
,  // measure 65
0001
0001
1000
0000
,  // measure 66
0001
0001
1000
0010
,  // measure 67
0100
0100
0001
0000
,  // measure 68
1000
0101
0000
0001
,  // measure 69
1100
0000
1001
0000
,  // measure 70
0010
1001
0000
0100
,  // measure 71
0110
0000
1010
0000
,  // measure 72
1000
0010
1000
0000
0001
0000
0100
0001
,  // measure 73
0100
0001
1000
0000
,  // measure 74
0001
0010
0001
0000
1000
0000
0100
1000
,  // measure 75
0100
1000
0001
0000
,  // measure 76
1000
0110
0000
0001
,  // measure 77
0110
0000
1001
0000
,  // measure 78
0100
0110
0000
0010
,  // measure 79
1001
0000
0011
0000
,  // measure 80
0100
1000
0001
0010
,  // measure 81
0100
0000
0100
0000
1000
0010
0000
1000
,  // measure 82
0010
0100
0010
1000
,  // measure 83
0001
0200
0000
0000
0310
0000
0000
0000
,  // measure 84
1001
0000
0000
0000
0000
0000
1000
0000
0001
0000
1000
0000
,  // measure 85
2002
0000
3003
0000
;

//---------------dance-single - [Ness]----------------
#NOTES:
     dance-single:
     [Ness]:
     Easy:
     4:
     0.275,0.355,0.202,0.118,0.000:
0000
0000
0000
0000
,
0000
0000
0000
0000
,
0000
0000
0000
0000
,
0000
0000
0000
0000
,
0010
0010
0001
1000
,
0001
0000
0100
0000
,
0001
0001
0010
0000
,
1000
1000
0010
0000
,
0100
0100
0001
1000
,
0001
0000
0100
0000
,
0010
0010
1000
0000
,
0001
0001
0010
0000
,
1001
0000
0000
0000
,
0000
0000
0000
0000
,
0200
0000
0000
0300
,
0002
0000
0000
0003
,
0010
0000
0110
0000
,
0000
0000
0000
0000
,
2000
0000
0000
3000
,
0002
0000
0000
0003
,
0100
0000
1001
0000
,
0001
1000
0010
0000
,
1000
0000
1001
0000
,
0001
0010
0100
0000
,
1000
0000
0001
0000
,
0010
0001
1000
0000
,
0010
0000
0000
0200
,
0000
0000
0000
0000
,
0301
0010
0011
0000
,
0001
0001
1000
0000
,
1000
0010
1010
0000
,
1000
1000
0001
0000
,
0001
1000
0100
1000
,
0010
0000
0100
0000
,
0010
1000
0001
0010
,
0100
0000
0010
0000
,
0001
1000
1001
0000
,
1100
0000
1001
0000
,
0100
0001
1001
0000
,
0101
0000
1001
0000
,
0100
0001
1000
0001
,
0100
0000
0010
0000
,
1000
0010
0100
0010
,
1000
0000
0001
0000
,
0010
0000
1001
0000
,
0001
0000
1001
0000
,
1000
0001
0100
0000
,
0000
0001
0000
0000
1000
0000
0000
0000
,
1001
0000
0000
0000
,
0000
0000
0000
0000
,
2000
0000
0000
3000
0000
0000
0200
0000
,
0000
0300
0000
0000
0020
0000
0000
0030
,
0000
0000
0002
0000
0000
0003
0000
0000
,
2000
0000
0000
3000
0000
0000
0000
0000
,
0002
0000
0000
0003
0000
0000
0200
0000
,
0000
0300
0000
0000
0000
0000
0000
0000
,
0001
0100
0001
0000
,
1000
0010
1000
0000
,
0001
0010
0001
0000
,
1000
0000
0001
0000
,
1000
0100
1000
0000
,
0001
0100
0001
0000
,
1000
0000
0000
0000
,
0001
0010
0001
0010
,
0100
1000
0001
0000
,
1000
0010
1000
0010
,
0100
0001
1000
0000
,
1000
0001
1000
0000
,
0100
0000
1001
0000
,
0001
1000
0001
0000
,
0100
0000
1001
0000
,
1000
0100
1100
0100
,
1000
0001
1001
0000
,
0001
0100
0101
0100
,
0001
1000
1001
0000
,
0001
0000
0010
0001
,
0100
0000
0001
0000
,
1000
0000
0010
1000
,
0100
0000
1000
0000
,
0001
0010
0001
0000
,
1000
1000
1001
0000
,
0001
0100
0001
0000
,
0000
1000
0000
0000
0100
0000
0000
0000
,
1001
0000
0010
0000
,
2002
0000
3003
0000
;

//---------------dance-single - [Ness]----------------
#NOTES:
     dance-single:
     [Ness]:
     Beginner:
     2:
     0.122,0.209,0.067,0.000,0.000:
0000
0000
0000
0000
,
0000
0000
0000
0000
,
0000
0000
0000
0000
,
0000
0000
0000
0000
,
0010
0000
0000
0000
,
1000
0000
0000
0000
,
0001
0000
0000
0000
,
0001
0000
0000
0000
,
0010
0000
0000
0000
,
0100
0000
0000
0000
,
1000
0000
0000
0000
,
1000
0000
0000
0000
,
0001
0000
0000
0000
,
0000
0000
0000
0000
,
1000
0000
0000
0000
,
0100
0000
0000
0000
,
1000
0000
0000
0000
,
0000
0000
0000
0000
,
0001
0000
0000
0000
,
0100
0000
0000
0000
,
0001
0000
0001
0000
,
0000
0000
1000
0000
,
0000
0000
0010
0000
,
0000
0000
0100
0000
,
0000
0000
0001
0000
,
0000
0000
0010
0000
,
0010
0000
0000
0000
,
0000
0000
0000
0000
,
0100
0000
0100
0000
,
1000
0000
1000
0000
,
0001
0000
0001
0000
,
0100
0000
0100
0000
,
0010
0000
0000
0000
,
0000
0000
0000
0000
,
0010
0000
0000
0000
,
0000
0000
0000
0000
,
0100
0000
0100
0000
,
0001
0000
0001
0000
,
1000
0000
0100
0000
,
1000
0000
1000
0000
,
0001
0000
0000
0000
,
0000
0000
0000
0000
,
0001
0000
0000
0000
,
0000
0000
0000
0000
,
0100
0000
0000
0000
,
0100
0000
0000
0000
,
0010
0000
0000
0000
,
0010
0000
0000
0000
,
1001
0000
0000
0000
,
0000
0000
0000
0000
,
1000
0000
0000
0000
,
0001
0000
0000
0000
,
0100
0000
0000
0000
,
0010
0000
0000
0000
,
1000
0000
0000
0000
,
0001
0000
0000
0000
,
1001
0000
0000
0000
,
0110
0000
0000
0000
,
1001
0000
0000
0000
,
0001
0000
1000
0000
,
1001
0000
0000
0000
,
0110
0000
0000
0000
,
1001
0000
0000
0000
,
1000
0000
0100
0000
,
1000
0000
1000
0000
,
0001
0000
0100
0000
,
0001
0000
0001
0000
,
1000
0000
0000
0000
,
0001
0000
0000
0000
,
1000
0000
0000
0000
,
0001
0000
0000
0000
,
0100
0000
0001
0000
,
0100
0000
0100
0000
,
0010
0000
1000
0000
,
0010
0000
0010
0000
,
1000
0000
0000
0000
,
0001
0000
0000
0000
,
1000
0000
0000
0000
,
0001
0000
0000
0000
,
1000
0000
0100
0000
,
0010
0000
0001
0000
,
0001
0000
0100
0000
,
0010
0000
1000
0000
,
1001
0000
0000
0000
;

//---------------dance-double - [Ness]----------------
#NOTES:
     dance-double:
     [Ness]:
     Hard:
     9:
     0.546,0.641,0.596,0.160,0.008:
00000000
00000000
00000000
00000000
,
00000000
00000000
00000000
00000000
,
00000000
00000000
00000000
00000000
,
00000000
00000000
00000000
00000000
,
00110000
00000000
00101000
00000000
00001000
00010000
00011000
00000000
,
00010100
00000000
00010000
00000100
00001000
00000010
00000100
00000001
,
00001001
00000000
00001000
00000100
00000010
00000001
00000100
00000010
,
00001000
00000000
00000010
00001000
00000100
00010000
00001000
01000000
,
01010000
00000000
01010000
00000000
00010000
01000000
10010000
00000000
,
10010000
00000000
10000000
01000000
00100000
00001000
00010000
00000100
,
00001100
00000000
00001000
00000100
00001000
00000010
00000100
00000001
,
00001000
00000000
00000001
00000100
00001000
00000100
00000001
00000010
,
00000220
00000000
00000000
00000000
,
00000000
00000000
00000000
00000030
,
00020300
00000000
00000000
00000000
,
00032000
00000000
00000000
00000000
,
02003000
00000000
00200000
00000000
,
00000000
00000000
00000000
03000000
,
20000000
00000000
00000000
00300000
,
00020000
00000000
00000000
30030000
,
01000000
00000000
00010000
00100000
00000000
00001000
00000000
00010000
,
00000000
00001000
00000000
00000010
00000001
00000000
00000000
00000000
,
00001000
00000000
00000100
00010000
00000000
00001000
00000000
00010000
,
00000000
00100000
00000000
10000000
00000000
00000000
00000000
00000000
,
01000000
00000000
00100000
00001000
00000000
00000100
00000000
00000001
,
00000000
00001000
00000000
00000100
00000000
00000000
00000010
00000000
,
00000200
00000000
00010000
00020000
,
00000000
00000000
00030300
00000000
,
00000100
00000010
00000001
00001000
00000100
00000000
00001100
00000000
,
00011000
01010000
10010000
00000000
,
10000000
00100000
01000000
00010000
00100000
00000000
00110000
00000000
,
00011000
00001010
00001001
00000000
,
00000001
00001000
00000100
00000000
00000000
00000000
00000001
00001000
,
00000100
00000000
00010000
00001000
00010000
00001000
01000000
00010000
,
10000000
00010000
10000000
00000000
00000000
00000000
00010000
10000000
,
00010000
00000000
00100000
00001000
00010000
00001000
00010000
00000100
,
00001000
00000010
00000100
00000001
00000010
00000000
00000011
00000000
,
00001001
00001100
00000110
00000100
,
00010000
00001000
01000000
00010000
01000000
00000000
01010000
00000000
,
10010000
00000000
10100000
00000000
01100000
00000000
01010000
01000000
,
00010000
00100000
00010000
00000000
01000000
00000000
00001000
00010000
,
00001000
00000000
00010000
00000100
00001000
00000010
00000100
00000001
,
00000010
00000100
00000010
00000000
00000100
00000000
00010000
00001000
,
00010000
00000000
00001000
00000000
01000000
00010000
01000000
00100000
,
10000000
01000000
10010000
00100000
,
10010000
00010000
10010000
10000000
,
00010000
00100000
00001000
00000000
00010000
00000000
00000100
00000000
,
00000000
00001010
00000000
00000000
00001001
00000000
00000000
00000000
,
00000202
00000000
00000000
00000000
,
00000000
00000000
00000000
00000000
00000000
00000000
00000303
00000001
,
00000010
00000000
00001000
00000010
00000000
00000100
00010000
00000000
,
00001000
01000000
00000000
10000000
01000000
00000000
00010000
00100000
,
00000000
00001000
00000010
00000000
00000001
00000100
00000000
00010000
,
01000000
00000000
00010000
10000000
00000000
00000000
00000000
00000000
,
11000000
00000000
01000000
00100000
00000000
00001000
00100000
00000000
,
00001000
00020000
00000000
00000000
00000000
00000000
00000000
00000000
,
00030100
00000000
00000010
00000000
00000001
00000100
00000010
00001010
,
00000000
00000010
00000100
00000000
00000001
00000010
00000100
00010100
,
00000000
00000100
00010000
00000000
00001000
01000000
00010000
10010000
,
00000000
01010000
00000000
01100000
00000000
10100000
00000000
10010000
,
00000000
10000000
00100000
00000000
10000000
01000000
00100000
00011000
,
00000000
00000100
00001000
00000000
00000010
00000100
00000001
00000011
,
00000000
00000010
00001100
00000000
00000000
00011000
00000000
00000000
,
00110000
00100000
01000000
10000000
00010000
00000000
01010000
00000000
,
00110000
00011000
00001010
00000000
,
00000110
00000100
00000001
00001000
00000100
00000000
00000110
00000000
,
00001100
00011000
01010000
00000000
,
01000000
00010000
10000000
00000000
00010000
00000000
00100000
00001000
,
00010000
00000000
00000100
00001000
00000010
00000100
00000010
00001000
,
00000100
00000010
00000100
00000000
00000010
00000000
00000001
00000010
,
00000100
00000000
00001000
00000010
00000100
00000010
00000100
00000001
,
00001000
00000100
00010000
00001000
01000000
00000000
01010000
00000000
,
01100000
10100000
10010000
00000000
,
10000000
01000000
00100000
00001000
00010000
00000000
00011000
00000000
,
00001100
00000110
00000011
00000000
,
00000001
00001000
00000010
00000000
00001000
00000000
00000100
00010000
,
00001000
00000000
01000000
00010000
00100000
00010000
01000000
00100000
,
10000000
01000000
00100000
00000000
00001000
00000000
00010000
00000100
,
00001000
00000000
00000010
00001000
00000100
00000010
00000100
00000010
,
00000001
00001000
00000001
00000100
00000101
00000000
00000100
00000000
,
00001010
00000010
00011000
00001000
,
01000000
00010000
10000000
01000000
00100000
00000000
00001000
00000000
,
00002000
00020000
00000000
00003000
00200000
00000000
00000000
00030000
,
02000000
00000000
00000000
00000000
00000000
00000000
00000000
00000000
00000000
03300000
00000000
00000000
10010000
00000000
00000000
00000000
01001000
00000000
00000000
00000000
00011000
00000000
00000000
00000000
,
00020200
00000000
00000000
00030300
;

//---------------dance-double - [Ness]----------------
#NOTES:
     dance-double:
     [Ness]:
     Medium:
     6:
     0.386,0.463,0.479,0.143,0.008:
00000000
00000000
00000000
00000000
,
00000000
00000000
00000000
00000000
,
00000000
00000000
00000000
00000000
,
00000000
00000000
00000000
00000000
,
00011000
00100000
00010000
01000000
,
00100000
00000000
10000000
00000000
,
00010000
00100000
00000010
00001000
,
00000001
00000001
00000010
00000100
,
00001000
00000010
00010000
00001000
,
01000000
00000000
00100000
00000000
,
10000000
00010000
01000000
00000000
,
00001000
00100000
00010000
00000000
,
00020200
00000000
00000000
00000000
,
00000000
00000000
00030300
00000000
,
00000020
00000000
00000000
00000030
,
00000200
00000000
00000000
00000300
,
00000002
00000000
00000000
00000003
,
00002000
00000000
00000000
00003000
,
00000200
00000000
00000000
00000300
,
00020000
00000000
00000000
00030000
,
00001000
01000000
00010000
10000000
,
01000000
00100000
00001000
00000000
,
00010000
00000100
00001000
00000010
,
00000100
00000001
00001000
00000000
,
00000001
00000010
00000001
00000100
,
00000010
00001000
00000100
00010000
,
00012000
00000000
00100000
00200000
,
00000000
00000000
00303000
00000000
,
00100000
00001000
00010000
00000000
00000100
00000000
00001000
00000000
,
00001100
00001100
00001100
00000000
,
00000100
00001000
00000001
00000000
00000100
00000000
00000010
00000000
,
00000110
00000110
00001001
00000000
,
00000001
00000010
00000001
00000000
00000000
00000000
00001000
00000000
,
00000100
00010000
00011000
00000000
,
00001000
01000000
00001000
00000000
00000000
00000000
01000000
00000000
,
01100000
00100000
01100000
10010000
,
00010000
10000000
00010000
00000000
00100000
00000000
00001000
00000000
,
00011000
00011000
00011000
00000000
,
00000100
00010000
00000100
00000000
00001000
00000000
00000010
00000000
,
00000110
00000110
00001001
00000000
,
00000001
00000100
00000010
00000000
00000000
00000000
00001000
00000000
,
00000100
00000000
00011000
00000000
,
00001000
00100000
00010000
00000000
00000000
00000000
01000000
00000000
,
01100000
00000000
10010000
00000000
,
20000000
00000000
00100000
00000000
,
00010000
00000000
01000000
00000000
,
30010000
10000000
00100000
01000000
,
00000000
00011000
00000000
00000000
00110000
00000000
00000000
00000000
,
02200000
00000000
00000000
00000000
,
00000000
00000000
00000000
03300000
,
01000000
00000000
01000000
10000000
00000000
00000000
10000000
00000000
,
10000000
00100000
00000000
00000000
01000000
00000000
01000000
00001000
,
00000000
00000000
00010000
00000000
00010000
00001000
00000000
00000000
,
00000010
00000000
00000000
00000001
00000000
00000000
00000000
00000000
,
00001000
00000000
00001000
00000010
00000000
00000000
00010000
00000000
,
00010000
00002000
00000000
00000000
00000000
00000000
00003000
00000000
,
00001000
00000000
01000000
00000000
00100000
00000000
00000000
10100000
,
00000000
00000000
10000000
00000000
01000000
00000000
00000000
10010000
,
00000000
00000000
10000000
00000000
00010000
00000000
00000000
00110000
,
00000000
01100000
00000000
00110000
00000000
10010000
00000000
10000000
,
00000000
00000000
00100000
00000000
01000000
00000000
00000000
01010000
,
00000000
00000000
01000000
00000000
00001000
00000000
00000000
00011000
,
00000000
00000000
00010010
00000000
00000000
00011000
00000000
00000000
,
00000100
00001000
00000100
00000000
00001000
00000000
00000010
00000000
,
00000110
00001001
00000110
00000000
,
00000100
00000001
00001000
00000000
00000100
00000000
00010000
00000000
,
00011000
00011000
00011000
00000000
,
00001000
01000000
00010000
00000000
00000000
00000000
01000000
00000000
,
00010000
00000000
10010000
00000000
,
10000000
00100000
10000000
00000000
00010000
00000000
00100000
00000000
,
00001000
00000000
00011000
00000000
,
00001000
00010000
00000100
00000000
00001000
00000000
00000010
00000000
,
00000110
00001001
00000110
00000000
,
00000010
00010000
00001000
00000000
00100000
00000000
00010000
00000000
,
10010000
01100000
10010000
00000000
,
10000000
00010000
01000000
00000000
00000000
00000000
00010000
00000000
,
10010000
00000000
00110000
00000000
,
00100000
00001000
00010000
00000000
00000000
00000000
00000100
00000000
,
00001100
00000000
00001001
00000000
,
00001000
00000010
00001000
00000000
00000001
00000100
00000001
00000000
,
00000011
00000000
00001100
00000000
,
00001000
00010000
00001000
00000000
01000000
00000000
00010000
00000000
,
10000000
00200000
00000000
00000000
01300000
00000000
00000000
00000000
,
10010000
00000000
00000000
00000000
00000000
00000000
00010000
00000000
10000000
00000000
00010000
00000000
,
20020000
00000000
00000000
30030000
;

//---------------dance-double - [Ness]----------------
#NOTES:
     dance-double:
     [Ness]:
     Easy:
     4:
     0.251,0.320,0.210,0.084,0.000:
00000000
00000000
00000000
00000000
,
00000000
00000000
00000000
00000000
,
00000000
00000000
00000000
00000000
,
00000000
00000000
00000000
00000000
,
00010000
00010000
00000000
01000000
,
00100000
00000000
10010000
00000000
,
00010000
00000000
01000000
00000000
,
00001000
00000000
00100000
00000000
,
00001000
00001000
00000000
00010000
,
00000010
00000000
00001001
00000000
,
00000001
00000000
00000010
00000000
,
00000100
00000000
00001000
00000000
,
00000020
00000000
00000000
00000000
,
00000030
00000000
00000000
00000000
,
00020000
00000000
00030000
00000000
,
00002000
00000000
00003000
00000000
,
00100000
00000000
00011000
00000000
,
00000000
00000000
00000000
00000000
,
00200000
00000000
00300000
00000000
,
02000000
00000000
03000000
00000000
,
10000000
00000000
01000000
00000000
,
00100000
00010000
00100000
00000000
,
00001000
00000000
01000000
00000000
,
00010000
10000000
00010000
00000000
,
00100000
00000000
00001000
00000000
,
00010000
00000000
00000010
00000000
,
00000200
00000000
00000000
00000002
,
00000000
00000000
00000303
00000000
,
00000010
00000000
00001000
00000000
,
00010010
00000000
00001010
00000000
,
00000100
00000000
00010000
00000000
,
00001100
00000000
00010100
00000000
,
00000100
00000010
00000000
00000001
,
00000100
00000000
00001001
00000000
,
00000001
00001000
00000000
00000100
,
00010000
00000000
00011000
00000000
,
00001000
00000000
01000000
00000000
,
01001000
00000000
01010000
00000000
,
01000000
00000000
00100000
00000000
,
01001000
00000000
01010000
00000000
,
00100000
10000000
00000000
00010000
,
00100000
00000000
00110000
00000000
,
00100000
00001000
00000000
00010000
,
00000010
00000000
00000110
00000000
,
00000100
00000001
00001000
00000000
,
00000010
00000100
00000001
00000000
,
00000010
00000000
00000100
00000000
,
00000000
00001001
00000000
00000000
00000100
00000000
00000000
00000000
,
00000002
00000000
00000000
00000000
,
00000000
00000000
00000000
00000003
,
00000010
00000000
00000000
00000100
,
00000000
00000000
00010000
00000000
,
00000000
00001000
00000000
00000000
,
00100000
00000000
00000000
00000000
,
01000000
00000000
00000000
10000000
,
00000000
00000000
00000000
00000000
,
00010000
01000000
00010000
00000000
,
01000000
00001000
00010000
00000000
,
00000100
00010000
00000100
00000000
,
00000010
00000000
00000000
00000000
00000000
00000000
00000000
00001000
,
00000000
00000000
00000001
00000000
00000100
00000000
00000000
00000001
,
00000000
00001000
00000100
00000000
,
00010000
00000000
00001000
00000000
00000000
00011000
00000000
00000000
,
00000100
00010000
00001000
00010000
,
00000100
00010000
00001000
00000000
,
01000000
00001000
00010000
00001000
,
01000000
00010000
10000000
00000000
,
00100000
10000000
00000000
00010000
,
00100000
00000000
00011000
00000000
,
00100000
00001000
00000000
00010000
,
00000010
00000000
00011000
00000000
,
00000010
00000100
00000010
00000100
,
00000001
00001000
00000001
00000000
,
00000000
00000010
00000010
00000100
,
00010000
00001000
00010000
00000000
,
00000000
00001000
00010000
01000000
,
00010000
00000000
00011000
00000000
,
00000000
00010000
00001000
00000100
,
00001000
00000000
00011000
00000000
,
00100000
00000000
11000000
00000000
,
01000000
00100000
00001000
00010000
,
00001000
00000000
00011000
00000000
,
01000000
00000000
00100000
10000000
,
10010000
00000000
00000000
00000000
,
00002002
00000000
00000000
00003003
;
